VERSION	0.00.00	1.05.00
FES_MODE	0
BPM_DEF	126.000	126.000	126.000	126.000
MET_DEF	4	4
RESOLUTION	384
CLK_DEF	384
COMPATIBLE_CODE	MA2

BPM	0	0	126.000
MET	0	0	4	4

NMHLD	1	0	2	192
NMTAP	1	96	3
NMTAP	1	192	3
NMTAP	1	288	3
NMTAP	1	288	4
NMHLD	2	0	5	96
NMTAP	2	96	4
NMTAP	2	192	3
NMTAP	2	192	6
NMTAP	2	288	3
NMTAP	2	288	6
NMTAP	3	0	4
NMTAP	3	0	5
NMTAP	3	96	3
NMTAP	3	96	4
NMHLD	3	192	2	96
NMHLD	3	192	3	96
NMTAP	4	0	4
NMTAP	4	48	4
NMTAP	4	96	3
NMTTP	4	192	0	C	1	M1
NMTTP	4	192	2	B	0	M1
NMTTP	4	192	5	B	0	M1
NMTAP	5	0	1
NMTAP	5	48	1
NMTAP	5	96	0
NMTAP	5	192	6
NMTAP	5	240	6
NMTAP	5	288	7
NMTAP	6	0	0
NMTAP	6	0	5
NMTAP	6	96	0
NMTAP	6	96	5
NMTAP	6	192	2
NMTAP	6	192	7
NMTAP	6	288	2
NMTAP	6	288	7
NMTAP	7	0	4
NMTAP	7	0	5
NMTAP	7	96	6
NMTAP	7	96	7
NMTAP	7	192	0
NMTAP	7	192	1
NMTAP	7	288	2
NMTAP	7	288	3
NMTAP	8	0	5
NMTAP	8	48	5
NMTAP	8	96	4
BRTAP	8	192	2
BRTAP	8	192	7
NMTAP	9	0	6
NMTAP	9	48	6
NMTAP	9	96	4
NMTAP	9	192	1
NMTAP	9	240	1
NMTAP	9	288	3
NMTAP	10	0	2
NMTAP	10	96	0
NMTAP	10	96	1
NMTAP	10	192	6
NMTAP	10	288	4
NMTAP	10	288	5
NMHLD	11	0	6	96
NMHLD	11	96	4	96
NMHLD	11	192	3	96
NMHLD	11	288	1	96
NMHLD	12	0	7	192
BRTAP	12	192	0
BRTAP	12	288	2
BRTAP	12	288	6
NMHLD	13	0	1	576
NMTTP	13	192	2	E	0	M1
NMTTP	13	288	1	E	0	M1
NMTTP	14	0	0	E	0	M1
NMTTP	14	96	7	E	0	M1
NMTTP	14	192	6	E	0	M1
EXHLD	15	0	6	576
NMTTP	15	192	6	E	0	M1
NMTTP	15	288	7	E	0	M1
NMTTP	16	0	0	E	0	M1
NMTTP	16	96	1	E	0	M1
NMTTP	16	192	2	E	0	M1
NMTAP	17	0	1
NMTAP	17	48	1
NMTAP	17	96	3
NMTAP	17	192	2
NMTAP	17	192	3
NMSTR	17	288	2
NMSXL	17	288	2	96	192	0
NMTAP	17	288	3
NMTAP	18	288	0
NMTAP	18	288	7
NMTAP	19	0	6
NMTAP	19	48	6
NMTAP	19	96	7
NMTAP	19	192	4
NMTAP	19	192	5
NMTAP	19	288	4
NMTAP	19	288	5
NMTAP	20	0	2
NMTAP	20	0	3
NMTAP	20	96	4
NMTAP	20	96	5
BRHLD	20	192	3	96
BRHLD	20	192	6	96
NMSTR	21	0	7
NMSCL	21	0	7	96	96	4
NMTAP	21	192	3
NMTAP	21	288	2
NMSTR	22	0	1
NMSUR	22	0	1	96	96	6
NMTAP	22	288	0
NMTAP	22	288	7
NMSTR	23	0	6
NMSCL	23	0	6	96	96	3
NMSTR	23	192	2
NMSCL	23	192	2	96	96	7
NMTAP	24	0	5
NMTAP	24	96	6
NMTAP	24	96	7
EXTAP	24	192	0
EXTAP	24	192	1
NMTAP	25	0	2
NMTAP	25	48	2
NMTAP	25	96	4
NMTAP	25	144	4
NMTAP	25	192	3
NMTAP	25	240	3
NMTAP	25	288	5
NMSTR	26	0	4
NMSI_	26	0	4	96	96	1
NMSI_	26	0	4	96	96	7
EXTAP	26	288	0
NMTAP	27	0	1
NMTAP	27	0	3
NMTAP	27	48	1
NMTAP	27	48	3
NMTAP	27	96	1
NMTAP	27	96	3
NMTAP	27	192	4
NMTAP	27	192	6
NMTAP	27	240	4
NMTAP	27	240	6
NMTAP	27	288	4
NMTAP	27	288	6
NMSTR	28	0	2
BRSXL	28	0	2	96	192	3
BRSLL	28	0	2	96	192	3
BRTAP	29	0	1
BRTAP	29	0	5
NMTTP	29	192	3	E	0	M1
NMTTP	29	240	4	E	0	M1
NMTTP	29	288	5	E	0	M1
BXTAP	30	0	6
BXTAP	30	0	7
NMSTR	30	96	6
NMSI_	30	96	6	96	48	3
NMSTR	30	96	7
NMSI_	30	96	7	96	48	3
NMSTR	30	288	0
NMSUR	30	288	0	96	96	7
NMSTR	30	288	1
NMSCR	30	288	1	96	96	6
NMTAP	31	192	0
NMTAP	31	192	1
NMTAP	31	288	0
NMTAP	31	288	1
NMHLD	32	0	2	96
NMHLD	32	96	0	96
NMHLD	32	192	7	96
NMTAP	32	288	5
NMTAP	33	0	4
NMTAP	33	0	6
NMTAP	33	96	1
NMTAP	33	96	3
NMTAP	33	192	0
NMTAP	33	192	1
NMSTR	33	288	0
NMSI_	33	288	0	96	48	4
NMSTR	33	288	1
NMSI_	33	288	1	96	48	4
NMSTR	34	96	6
NMSI_	34	96	6	96	48	3
NMSTR	34	96	7
NMSI_	34	96	7	96	48	3
NMSTR	34	288	0
NMSI_	34	288	0	96	48	4
NMSTR	34	288	1
NMSI_	34	288	1	96	48	4
NMTAP	35	96	6
NMTAP	35	96	7
BRTAP	35	192	0
BRTAP	35	192	5
NMTAP	35	288	2
NMTAP	35	288	3
NMTAP	36	0	2
NMTAP	36	0	3
NMTAP	36	96	0
NMTAP	36	96	1
NMTAP	36	192	6
NMTAP	36	192	7
NMTAP	36	288	5
NMTAP	36	336	5
NMTAP	37	0	4
NMTAP	37	96	2
NMTAP	37	96	3
BXTAP	37	192	0
BXTAP	37	192	5
NMSTR	38	0	4
NMSXL	38	0	4	96	96	6
NMSXR	38	0	4	96	96	2
NMTAP	38	288	3
NMTAP	38	288	5
EXTAP	39	0	2
EXTAP	39	0	4
EXTAP	39	32	2
EXTAP	39	32	4
EXTAP	39	96	3
EXTAP	39	96	5
EXTAP	39	128	3
EXTAP	39	128	5
NMTAP	39	192	2
NMTAP	39	192	6
NMTAP	39	288	0
NMTAP	39	288	7
BRTAP	40	0	1
BRTAP	40	0	6
EXTAP	40	240	0
EXTAP	40	240	7
EXTAP	40	288	0
EXTAP	40	288	7
NMSTR	41	0	1
NMSCR	41	0	1	96	96	4
EXTAP	41	240	5
EXTAP	41	288	5
NMSTR	42	0	6
NMSCL	42	0	6	96	96	3
EXTAP	42	240	2
EXTAP	42	288	2
NMTAP	43	0	1
NMTAP	43	0	3
NMTAP	43	96	4
NMTAP	43	96	6
BRTAP	43	192	1
BRTAP	43	192	7
NMTAP	44	0	6
NMTAP	44	48	6
NMTAP	44	96	0
NMTAP	44	192	2
NMTAP	44	240	2
NMTAP	44	288	0
NMTAP	45	0	1
NMTAP	45	0	7
NMTAP	45	96	4
NMTAP	45	96	5
NMTAP	45	192	0
NMTAP	45	192	6
NMTAP	45	288	2
NMTAP	45	288	3
NMTAP	46	0	1
NMTAP	46	48	1
NMTAP	46	96	7
NMTAP	46	192	5
NMTAP	46	240	5
NMTAP	46	288	7
NMTTP	47	0	0	E	0	M1
NMTTP	47	0	6	E	0	M1
NMTTP	47	96	3	E	0	M1
NMTTP	47	96	4	E	0	M1
NMTTP	47	192	0	E	0	M1
NMTTP	47	192	2	E	0	M1
NMTTP	47	288	4	E	0	M1
NMTTP	47	288	5	E	0	M1
NMTAP	48	0	1
NMTAP	48	48	1
NMTAP	48	96	0
NMTAP	48	192	6
NMTAP	48	240	6
NMTAP	48	288	7
NMTAP	49	0	4
NMTAP	49	0	5
NMTAP	49	96	2
NMTAP	49	96	3
NMTAP	49	192	0
NMTAP	49	192	1
NMTAP	49	288	0
NMTAP	49	288	1
NMTAP	49	336	2
NMTAP	49	336	7
BRTAP	50	0	2
BRTAP	50	0	7
NMTAP	50	96	6
NMTAP	50	96	7
NMTAP	50	144	0
NMTAP	50	144	5
BRTAP	50	192	0
BRTAP	50	192	5
NMTAP	50	288	0
NMTAP	50	288	1
NMTAP	50	336	2
NMTAP	50	336	7
BRTAP	51	0	2
BRTAP	51	0	7
EXTAP	51	96	4
EXTAP	51	96	5
NMHLD	51	192	6	96
NMHLD	51	288	4	96
NMSTR	52	0	3
NMSI_	52	0	3	96	96	0
NMSI_	52	0	3	96	96	6
NMTAP	52	288	1
NMTAP	52	288	5
BRTAP	53	0	1
BRTAP	53	0	5
NMSTR	54	0	3
BRSXR	54	0	3	96	192	0
NMSTR	54	0	4
BRSXL	54	0	4	96	192	7
EXTAP	55	0	0
EXTAP	55	0	7
BXTAP	55	72	0
BXTAP	55	72	7
NMTAP	55	144	1
NMTAP	55	144	6
NMTAP	55	192	1
NMTAP	55	192	6
NMTAP	55	288	7
NMTAP	55	336	7
NMTAP	56	0	1
NMTAP	56	48	1
NMTAP	56	96	0
NMTAP	56	96	2
NMTAP	56	192	6
NMTAP	56	240	6
NMTAP	56	288	5
NMTAP	56	288	7
NMSTR	57	0	0
NMSCR	57	0	0	96	96	3
NMSTR	57	0	4
NMSCR	57	0	4	96	96	7
NMSTR	57	288	4
NMSI_	57	288	4	96	48	0
NMSTR	57	288	5
NMSI_	57	288	5	96	48	0
NMSTR	58	96	2
NMSI_	58	96	2	96	48	7
NMSTR	58	96	3
NMSI_	58	96	3	96	48	7
NMSTR	58	288	4
NMSI_	58	288	4	96	48	0
NMSTR	58	288	5
NMSI_	58	288	5	96	48	0
NMTAP	59	96	2
NMTAP	59	96	3
NMTAP	59	192	1
NMTAP	59	192	4
NMTAP	59	288	1
NMTAP	59	288	4
NMTAP	60	0	1
NMTAP	60	0	3
NMTAP	60	96	0
NMTAP	60	96	7
NMTAP	60	192	4
NMTAP	60	192	6
NMTAP	60	288	0
NMTAP	60	288	7
NMTAP	61	0	1
NMTAP	61	0	3
NMTAP	61	96	0
NMTAP	61	96	7
BRTAP	61	192	1
BRTAP	61	192	6
NMSTR	62	0	4
NMSUR	62	0	4	96	192	3
NMSTR	62	0	5
NMSCR	62	0	5	96	192	2
EXTAP	63	0	0
EXTAP	63	0	6
EXTAP	63	32	0
EXTAP	63	32	6
EXTAP	63	96	1
EXTAP	63	96	7
EXTAP	63	128	1
EXTAP	63	128	7
BRTAP	63	192	2
BRTAP	63	192	6
NMTAP	64	0	5
NMTAP	64	48	5
NMTAP	64	96	7
NMTAP	64	192	2
NMTAP	64	240	2
NMTAP	64	288	0
NMHLD	65	0	6	96
NMTAP	65	0	7
NMTAP	65	96	4
NMTAP	65	192	0
NMHLD	65	192	1	96
NMTAP	65	288	3
NMTAP	66	0	2
NMTAP	66	0	7
NMTAP	66	96	2
NMTAP	66	96	7
NMTAP	66	192	0
NMTAP	66	192	5
NMTAP	66	288	0
NMTAP	66	288	5
NMTAP	67	0	6
NMTAP	67	0	7
NMTAP	67	96	4
NMTAP	67	96	5
NMTAP	67	192	2
NMTAP	67	192	3
BXTAP	67	288	0
BXTAP	67	288	1
NMTAP	68	0	2
NMTAP	68	48	2
NMTAP	68	96	0
NMTAP	68	192	5
NMTAP	68	240	5
NMTAP	68	288	7
NMTAP	69	0	0
NMTAP	69	0	1
NMTAP	69	96	2
NMTAP	69	96	7
NMTAP	69	192	6
NMTAP	69	192	7
NMTAP	69	288	0
NMSTR	69	288	5
NMSCL	69	288	5	96	96	2
NMSTR	70	96	1
NMSUR	70	96	1	96	96	6
NMSTR	70	288	7
NMSUR	70	288	7	96	192	0
NMTAP	71	288	1
NMTAP	71	288	7
NMHLD	72	0	1	288
NMHLD	72	0	7	288
EXTAP	73	0	2
EXTAP	73	0	6
EXTAP	73	32	2
EXTAP	73	32	6
EXTAP	73	64	2
EXTAP	73	64	6
EXTAP	73	96	2
EXTAP	73	96	6
NMTTP	73	192	0	B	0	M1
NMTTP	73	192	0	C	1	M1
NMTTP	73	192	4	B	0	M1
NMTAP	74	0	6
NMTAP	74	48	6
NMTAP	74	96	7
NMTAP	74	192	5
NMTAP	74	240	5
NMTAP	74	288	4
NMHLD	75	0	2	96
NMHLD	75	96	1	96
NMTAP	75	192	0
NMTAP	75	288	2
NMTAP	75	288	7
NMTAP	76	0	1
NMTAP	76	48	1
NMTAP	76	96	0
NMTAP	76	192	2
NMTAP	76	240	2
NMTAP	76	288	3
NMHLD	77	0	5	96
NMHLD	77	96	6	96
NMTAP	77	192	7
NMTAP	77	288	0
NMTAP	77	288	5
NMTAP	78	0	2
NMTAP	78	48	2
NMTAP	78	96	3
NMTAP	78	192	1
NMTAP	78	240	1
NMTAP	78	288	0
NMHLD	79	0	6	96
NMHLD	79	96	5	96
NMTAP	79	192	4
NMTAP	79	288	2
NMTAP	79	288	3
NMHLD	80	0	1	96
NMHLD	80	96	3	96
NMHLD	80	192	4	96
NMHLD	80	288	6	96
NMTAP	81	0	0
NMTAP	81	96	0
NMTAP	81	192	3
NMTAP	81	192	5
NMSTR	81	288	2
NMSXR	81	288	2	96	432	3
NMSTR	81	288	6
NMSXR	81	288	6	96	432	7
EXTAP	83	240	0
EXTAP	83	240	5
EXTAP	83	312	2
EXTAP	83	312	7
BXSTR	84	0	1
NMSCR	84	0	1	96	48	3
BXSTR	84	0	6
NMSCL	84	0	6	96	48	4

T_REC_TAP	282
T_REC_BRK	25
T_REC_XTP	43
T_REC_BXX	8
T_REC_HLD	29
T_REC_XHO	1
T_REC_BHO	2
T_REC_BXH	0
T_REC_STR	38
T_REC_BST	0
T_REC_XST	0
T_REC_XBS	2
T_REC_TTP	27
T_REC_THO	0
T_REC_SLD	40
T_REC_BSL	4
T_REC_ALL	501
T_NUM_TAP	390
T_NUM_BRK	41
T_NUM_HLD	30
T_NUM_SLD	40
T_NUM_ALL	501
T_JUDGE_TAP	425
T_JUDGE_HLD	96
T_JUDGE_SLD	44
T_JUDGE_ALL	565
TTM_EACHPAIRS	142
TTM_SCR_TAP	195000
TTM_SCR_BRK	106600
TTM_SCR_HLD	30000
TTM_SCR_SLD	60000
TTM_SCR_ALL	391600
TTM_SCR_S	375900
TTM_SCR_SS	387500
TTM_RAT_ACV	10105

