VERSION	0.00.00	1.05.00
FES_MODE	0
BPM_DEF	280.000	280.000	280.000	280.000
MET_DEF	4	4
RESOLUTION	384
CLK_DEF	384
COMPATIBLE_CODE	MA2

BPM	0	0	280.000
MET	0	0	4	4

BXTAP	3	0	1
NMTAP	3	24	2
NMTAP	3	48	3
NMTAP	3	72	4
NMTAP	3	96	5
NMTAP	3	120	6
NMTAP	3	144	7
NMTAP	3	168	0
NMTAP	3	192	1
NMTAP	3	216	2
NMTAP	3	240	3
NMTAP	3	264	4
NMTAP	3	288	5
NMTAP	3	312	6
NMTAP	3	336	7
NMTAP	3	360	0
NMTAP	4	0	1
NMTAP	4	24	2
NMTAP	4	48	3
NMTAP	4	72	4
NMTAP	4	96	5
NMTAP	4	120	6
NMTAP	4	144	7
NMTAP	4	168	0
NMTAP	4	192	1
NMTAP	4	216	2
NMTAP	4	240	3
NMTAP	4	264	4
NMTAP	4	288	5
BXTAP	5	0	7
NMTAP	5	24	6
NMTAP	5	48	5
NMTAP	5	72	4
NMTAP	5	96	3
NMTAP	5	120	2
NMTAP	5	144	1
NMTAP	5	168	0
NMTAP	5	192	7
NMTAP	5	216	6
NMTAP	5	240	5
NMTAP	5	264	4
NMTAP	5	288	3
BXTAP	6	0	0
NMTAP	6	24	1
NMTAP	6	48	2
NMTAP	6	72	3
NMTAP	6	96	4
NMTAP	6	120	5
NMTAP	6	144	6
NMTAP	6	168	7
NMTAP	6	192	0
NMTAP	6	216	1
NMTAP	6	240	2
NMTAP	6	264	3
NMTAP	6	288	4
BXTAP	7	0	7
NMTAP	7	24	6
NMTAP	7	48	5
NMTAP	7	72	4
NMTAP	7	96	3
NMTAP	7	120	2
NMTAP	7	144	1
NMTAP	7	168	0
NMTAP	7	192	7
NMTAP	7	216	6
NMTAP	7	240	5
NMTAP	7	264	4
NMTAP	7	288	3
NMTAP	7	312	2
NMTAP	7	336	1
NMTAP	7	360	0
NMTAP	8	0	7
NMTAP	8	24	6
NMTAP	8	48	5
NMTAP	8	72	4
NMTAP	8	96	3
NMTAP	8	120	2
NMTAP	8	144	1
NMTAP	8	168	0
NMTAP	8	192	7
NMTAP	8	216	6
NMTAP	8	240	5
NMTAP	8	264	4
NMTAP	8	288	3
BXTAP	9	0	1
NMTAP	9	24	2
NMTAP	9	48	3
NMTAP	9	72	4
NMTAP	9	96	5
NMTAP	9	120	6
NMTAP	9	144	7
NMTAP	9	168	0
NMTAP	9	192	1
NMTAP	9	216	2
NMTAP	9	240	3
NMTAP	9	264	4
NMTAP	9	288	5
BXTAP	10	0	7
NMTAP	10	24	6
NMTAP	10	48	5
NMTAP	10	72	4
NMTAP	10	96	3
NMTAP	10	120	2
NMTAP	10	144	1
NMTAP	10	168	0
NMTAP	10	192	7
NMTAP	10	216	6
NMTAP	10	240	5
NMTAP	10	264	4
NMTAP	10	288	3
NMTAP	10	312	2
NMTAP	10	336	1
NMTAP	10	360	0
BXSTR	11	0	7
NMSSR	11	0	7	96	960	3
NMTAP	14	0	2
NMTAP	14	0	4
NMTAP	14	96	2
NMTAP	14	96	4
NMTAP	14	192	1
NMTAP	14	192	5
NMTAP	14	288	1
NMTAP	14	288	5
NMTAP	15	0	2
NMTAP	15	0	6
NMTAP	15	96	1
NMTAP	15	144	0
NMTAP	15	192	2
NMTAP	15	288	3
NMTAP	15	288	4
NMTAP	16	0	1
NMTAP	16	0	5
NMTAP	16	96	6
NMTAP	16	144	7
NMTAP	16	192	5
NMTAP	16	288	3
NMTAP	16	288	4
NMTAP	17	0	2
NMTAP	17	0	6
NMTAP	17	96	1
NMTAP	17	144	0
NMTAP	17	192	2
NMTAP	17	288	3
NMTAP	17	288	7
NMTAP	18	0	6
NMTAP	18	48	4
NMTAP	18	96	5
NMTAP	18	144	2
NMTAP	18	192	3
NMTAP	18	240	1
NMTAP	18	288	6
NMTAP	18	336	7
NMTAP	19	0	5
NMTAP	19	48	1
NMTAP	19	96	0
NMTAP	19	144	2
NMTAP	19	192	3
NMTAP	19	192	7
NMTAP	19	240	3
NMTAP	19	240	7
BRTAP	19	288	3
BRTAP	19	288	7
EXTAP	21	256	3
EXTAP	21	320	4
EXSTR	22	0	2
NMSV_	22	0	2	96	672	4
NMTAP	23	0	5
NMSTR	24	0	5
NMSV_	24	0	5	96	672	3
NMTAP	25	0	2
NMSTR	26	0	2
NMSUL	26	0	2	96	672	4
NMTAP	27	0	5
NMTAP	28	0	6
NMSTR	28	96	6
NMSI_	28	96	6	96	96	3
NMTAP	28	192	2
NMTAP	28	288	2
NMTAP	29	0	1
NMTAP	29	48	1
NMTAP	29	96	3
NMTAP	29	144	3
NMTAP	29	192	2
BRTAP	29	288	1
BRTAP	29	288	4
NMSTR	30	0	0
NMSI_	30	0	0	96	48	4
BXTAP	30	96	7
NMTAP	30	192	6
NMTAP	30	240	6
NMTAP	30	288	4
NMTAP	30	336	5
NMSTR	31	0	3
NMSCL	31	0	3	96	48	0
NMTAP	31	96	6
NMSTR	31	192	4
NMSCR	31	192	4	96	48	7
NMTAP	31	288	1
NMTAP	32	0	2
NMTAP	32	48	2
NMTAP	32	96	3
NMTAP	32	144	1
NMTAP	32	192	5
NMTAP	32	240	5
NMTAP	32	288	4
NMTAP	32	336	6
NMSTR	33	0	3
NMSI_	33	0	3	96	48	0
NMTAP	33	96	7
NMSTR	33	192	6
NMSCL	33	192	6	96	48	3
NMTAP	33	288	7
NMHLD	34	0	1	288
NMTAP	34	192	4
NMTAP	34	240	5
NMTAP	34	288	6
NMTAP	34	336	7
NMSTR	35	0	0
NMSI_	35	0	0	96	48	5
NMTAP	35	96	2
NMSTR	35	192	1
NMSI_	35	192	1	96	48	4
NMTAP	35	288	7
NMTAP	36	0	0
NMTAP	36	96	1
NMTAP	36	96	7
NMTAP	36	192	6
NMTAP	36	240	4
NMTAP	36	288	5
NMTAP	37	0	2
NMTAP	37	0	3
NMTAP	37	96	0
NMTAP	37	96	1
BRTAP	37	192	2
BRTAP	37	192	6
NMTAP	38	0	7
NMTTP	38	48	4	B	0	M1
NMTTP	38	72	4	E	0	M1
NMTAP	38	96	7
NMTTP	38	144	4	B	0	M1
NMTTP	38	168	4	E	0	M1
NMTAP	38	192	7
NMTTP	38	240	4	B	0	M1
NMTTP	38	264	4	E	0	M1
NMTAP	38	288	7
NMTTP	38	336	4	B	0	M1
NMTTP	38	360	4	E	0	M1
NMTAP	39	0	0
NMTTP	39	48	4	B	0	M1
NMTTP	39	72	4	E	0	M1
NMTAP	39	96	0
NMTTP	39	144	4	B	0	M1
NMTTP	39	168	4	E	0	M1
NMTAP	39	192	0
NMTTP	39	240	4	B	0	M1
NMTTP	39	264	4	E	0	M1
NMTAP	39	288	0
NMTTP	39	336	4	B	0	M1
NMTTP	39	360	4	E	0	M1
NMTAP	40	0	1
NMTTP	40	48	4	B	0	M1
NMTTP	40	72	4	E	0	M1
NMTAP	40	96	1
NMTTP	40	144	4	B	0	M1
NMTTP	40	168	4	E	0	M1
NMTAP	40	192	0
NMTTP	40	240	4	B	0	M1
NMTTP	40	264	4	E	0	M1
NMTAP	40	288	0
NMTTP	40	336	4	B	0	M1
NMTTP	40	360	4	E	0	M1
NMTAP	41	0	1
NMTTP	41	48	4	B	0	M1
NMTTP	41	72	4	E	0	M1
NMTAP	41	96	0
NMTAP	41	192	2
NMTAP	41	192	7
NMTAP	41	288	1
NMTAP	41	288	5
NMTAP	42	0	0
NMTTP	42	48	3	B	0	M1
NMTTP	42	72	4	E	0	M1
NMTAP	42	96	0
NMTTP	42	144	3	B	0	M1
NMTTP	42	168	4	E	0	M1
NMTAP	42	192	7
NMTTP	42	240	3	B	0	M1
NMTTP	42	264	4	E	0	M1
NMTAP	42	288	7
NMTTP	42	336	3	B	0	M1
NMTTP	42	360	4	E	0	M1
NMTAP	43	0	6
NMTTP	43	48	3	B	0	M1
NMTTP	43	72	4	E	0	M1
NMTAP	43	96	7
NMTTP	43	144	3	B	0	M1
NMTTP	43	168	4	E	0	M1
NMSTR	43	192	0
NMSI_	43	192	0	96	48	4
NMTAP	44	0	5
NMTAP	44	48	5
NMTAP	44	96	5
NMTAP	44	144	7
NMTAP	44	192	7
NMTAP	44	240	7
NMTAP	44	288	0
NMTAP	44	336	0
NMTAP	45	0	0
NMTAP	45	48	2
NMTAP	45	96	2
NMTAP	45	144	2
NMTAP	45	192	4
NMTAP	45	240	4
BRTAP	45	288	3
BRTAP	45	288	5
NMSTR	46	0	2
NMSCL	46	0	2	96	672	5
NMTAP	46	192	3
NMTAP	46	288	3
NMTAP	47	0	3
NMTAP	47	192	4
NMTAP	47	288	4
NMSTR	48	0	4
NMSUL	48	0	4	96	480	3
NMTAP	48	192	0
NMTAP	48	288	0
NMTAP	49	0	0
NMTTP	49	192	1	B	1	M1
NMTTP	49	192	1	E	0	M1
NMTTP	49	192	2	E	0	M1
NMSTR	50	0	7
NMSI_	50	0	7	96	96	4
NMSTR	50	96	4
NMSI_	50	96	4	96	96	1
NMTAP	50	192	0
NMTAP	50	240	0
NMTAP	50	288	0
NMSTR	51	0	7
NMSI_	51	0	7	96	96	2
NMSTR	51	96	2
NMSI_	51	96	2	96	96	5
NMTAP	51	192	6
NMTAP	51	240	6
NMTAP	51	288	6
NMSTR	52	0	7
NMSI_	52	0	7	96	96	3
NMSTR	52	96	3
NMSLR	52	96	3	96	144	0
NMTAP	52	192	0
NMTAP	52	288	1
NMTAP	52	336	1
NMTAP	53	48	2
NMTAP	53	48	7
NMTAP	53	96	2
NMTAP	53	96	7
NMTAP	53	192	6
NMTAP	53	240	4
NMTAP	53	288	3
NMSTR	53	288	7
NMSCL	53	288	7	96	96	4
NMSTR	54	0	4
NMSUL	54	0	4	96	96	7
NMSTR	54	96	7
NMSCL	54	96	7	96	96	4
NMSTR	54	192	4
NMSUL	54	192	4	96	96	7
NMSTR	54	288	7
NMSCL	54	288	7	96	96	4
NMSTR	55	0	4
NMSUL	55	0	4	96	96	7
NMSTR	55	96	7
NMSCL	55	96	7	96	96	4
NMSTR	55	192	4
NMSUL	55	192	4	96	96	7
NMSTR	55	288	7
NMSCL	55	288	7	96	96	4
NMSTR	56	0	4
NMSUL	56	0	4	96	96	7
NMSTR	56	96	7
NMSCL	56	96	7	96	96	4
NMSTR	56	192	4
NMSUL	56	192	4	96	96	7
NMTAP	56	288	7
NMTAP	57	0	4
NMTAP	57	96	0
EXTAP	57	192	1
EXTAP	57	192	5
NMSTR	57	288	0
NMSCR	57	288	0	96	96	3
NMSTR	58	0	3
NMSUR	58	0	3	96	96	0
NMSTR	58	96	0
NMSCR	58	96	0	96	96	3
NMSTR	58	192	3
NMSUR	58	192	3	96	96	0
NMSTR	58	288	0
NMSCR	58	288	0	96	96	3
NMSTR	59	0	3
NMSUR	59	0	3	96	96	0
NMSTR	59	96	0
NMSCR	59	96	0	96	96	3
NMSTR	59	192	3
NMSUR	59	192	3	96	96	0
NMSTR	59	288	0
NMSCR	59	288	0	96	96	3
NMSTR	60	0	3
NMSUR	60	0	3	96	96	0
NMSTR	60	96	0
NMSCR	60	96	0	96	96	3
NMSTR	60	192	3
NMSUR	60	192	3	96	96	0
NMSTR	60	288	0
NMSCR	60	288	0	96	96	3
NMSTR	61	0	3
NMSUR	61	0	3	96	96	0
NMTAP	61	96	0
EXTAP	61	192	3
BXTAP	61	288	1
BXTAP	61	288	5
NMSTR	62	0	0
BRSXL	62	0	0	96	672	3
NMSTR	62	0	7
BRSXR	62	0	7	96	672	4
CNSXR	64	0	3	0	672	0
CNSXL	64	0	4	0	672	7
NMHLD	66	0	1	384
NMTAP	66	336	3
NMHLD	67	0	3	384
NMTAP	67	336	4
NMHLD	68	0	4	384
NMTAP	68	336	6
NMTAP	69	0	6
NMTAP	69	192	3
NMTAP	69	192	4
BXTAP	70	0	2
EXTAP	70	24	3
EXTAP	70	48	2
EXTAP	70	72	3
EXTAP	70	96	2
EXTAP	70	120	3
EXTAP	70	144	2
EXTAP	70	168	3
EXTAP	70	192	2
EXTAP	70	216	3
EXTAP	70	240	2
EXTAP	70	264	3
EXTAP	70	288	2
BXTAP	71	0	5
EXTAP	71	24	4
EXTAP	71	48	5
EXTAP	71	72	4
EXTAP	71	96	5
EXTAP	71	120	4
EXTAP	71	144	5
EXTAP	71	168	4
EXTAP	71	192	5
EXTAP	71	216	4
EXTAP	71	240	5
EXTAP	71	264	4
EXTAP	71	288	5
BXTAP	72	0	1
EXTAP	72	24	2
EXTAP	72	48	3
EXTAP	72	72	1
EXTAP	72	96	2
EXTAP	72	120	3
EXTAP	72	144	1
EXTAP	72	168	2
EXTAP	72	192	3
EXTAP	72	216	1
EXTAP	72	240	2
EXTAP	72	264	3
EXTAP	72	288	1
BXTAP	73	0	6
EXTAP	73	24	5
EXTAP	73	48	4
EXTAP	73	72	6
EXTAP	73	96	5
EXTAP	73	120	4
EXTAP	73	144	6
EXTAP	73	168	5
EXTAP	73	192	4
EXTAP	73	216	6
EXTAP	73	240	5
EXTAP	73	264	4
EXTAP	73	288	6
BXTAP	74	0	0
EXTAP	74	24	1
EXTAP	74	48	2
EXTAP	74	72	3
EXTAP	74	96	0
EXTAP	74	120	1
EXTAP	74	144	2
EXTAP	74	168	3
EXTAP	74	192	0
EXTAP	74	216	1
EXTAP	74	240	2
EXTAP	74	264	3
EXTAP	74	288	0
BXTAP	75	0	7
EXTAP	75	24	6
EXTAP	75	48	5
EXTAP	75	72	4
EXTAP	75	96	7
EXTAP	75	120	6
EXTAP	75	144	5
EXTAP	75	168	4
EXTAP	75	192	7
EXTAP	75	216	6
EXTAP	75	240	5
EXTAP	75	264	4
EXTAP	75	288	7
NMTTP	76	0	1	E	0	M1
NMTTP	76	24	1	B	0	M1
NMTTP	76	48	2	B	0	M1
NMTTP	76	72	3	E	0	M1
NMTTP	76	96	6	E	0	M1
NMTTP	76	120	5	B	0	M1
NMTTP	76	144	4	B	0	M1
NMTTP	76	168	4	E	0	M1
NMTTP	76	192	2	E	0	M1
NMTTP	76	216	2	B	0	M1
NMTTP	76	240	3	B	0	M1
NMTTP	76	264	4	E	0	M1
NMTTP	76	288	7	E	0	M1
NMTTP	76	312	6	B	0	M1
NMTTP	76	336	5	B	0	M1
NMTTP	76	360	5	E	0	M1
NMTTP	77	0	0	C	0	M1
NMSTR	77	288	0
NMSI_	77	288	0	96	48	3
NMSTR	77	288	7
NMSI_	77	288	7	96	48	4
BRTAP	78	0	0
BRTAP	78	0	7
NMTTP	78	24	0	C	1	M1
NMTTP	78	24	2	B	0	M1
NMTTP	78	24	2	E	0	M1
NMTTP	78	24	6	B	0	M1
NMTTP	78	24	6	E	0	M1
NMTAP	78	192	1
NMTAP	78	240	1
NMTAP	78	288	7
NMTAP	78	336	0
NMSTR	79	0	6
NMSI_	79	0	6	96	48	2
NMTAP	79	96	6
NMTAP	79	96	7
NMSTR	79	192	1
NMSI_	79	192	1	96	48	5
NMTAP	79	288	0
NMTAP	79	288	1
BRHLD	80	0	7	96
NMTAP	80	96	4
NMTAP	80	144	6
NMTAP	80	192	0
NMTAP	80	240	7
NMTAP	80	288	1
NMTAP	80	336	3
NMTAP	81	0	0
NMTAP	81	48	7
NMSTR	81	96	0
NMSI_	81	96	0	96	48	3
NMSI_	81	96	0	96	48	5
BRTAP	81	192	0
BRTAP	82	0	5
NMTAP	82	32	4
NMTAP	82	64	5
NMTAP	82	96	3
NMTAP	82	128	4
NMTAP	82	160	3
NMTAP	82	192	5
NMTAP	82	224	4
NMTAP	82	256	5
NMTAP	82	288	3
BRTAP	83	0	2
NMTAP	83	32	3
NMTAP	83	64	2
NMTAP	83	96	4
NMTAP	83	128	3
NMTAP	83	160	4
NMTAP	83	192	2
NMTAP	83	224	3
NMTAP	83	256	2
NMTAP	83	288	4
BRTAP	84	0	6
NMTAP	84	32	4
NMTAP	84	64	6
NMTAP	84	96	2
NMTAP	84	128	4
NMTAP	84	160	2
NMTAP	84	192	6
NMTAP	84	288	1
NMTAP	84	288	7
BRTAP	85	0	0
NMTAP	85	24	6
NMTAP	85	48	0
NMTAP	85	72	6
NMTAP	85	96	0
EXTAP	85	192	1
EXTAP	85	192	5
EXTAP	85	240	1
EXTAP	85	240	5
EXTAP	85	288	1
EXTAP	85	288	5
NMTAP	86	0	3
NMTAP	86	0	4
NMTAP	86	96	2
NMTAP	86	144	3
NMTAP	86	192	0
NMTAP	86	240	7
NMTAP	86	288	4
NMTAP	86	336	5
NMSTR	87	0	1
NMSI_	87	0	1	96	48	4
NMTAP	87	96	1
NMTAP	87	96	7
NMSTR	87	192	6
NMSI_	87	192	6	96	48	3
NMSTR	87	288	0
NMSXL	87	288	0	96	192	7
NMTAP	87	288	6
NMTAP	88	0	0
NMTAP	88	96	4
NMTAP	88	192	4
NMTAP	88	288	4
NMTTP	89	0	5	E	1	M1
BXTAP	89	0	7
BRTAP	89	64	0
NMTTP	89	64	6	E	1	M1
BRTAP	89	128	1
NMTTP	89	128	7	E	1	M1
NMTTP	89	192	0	E	1	M1
BRTAP	89	192	2
NMTAP	90	0	1
NMTAP	90	48	1
NMTAP	90	96	0
NMTAP	90	144	2
NMTAP	90	192	6
NMTAP	90	240	6
NMTAP	90	288	7
NMTAP	90	336	5
NMTAP	91	0	2
NMTAP	91	48	2
NMTAP	91	96	3
NMTAP	91	144	1
NMTAP	91	192	5
NMTAP	91	240	5
NMTAP	91	288	4
NMTAP	91	336	6
NMTAP	92	0	0
NMTAP	92	48	0
NMTAP	92	96	2
NMTAP	92	144	2
NMTAP	92	192	4
NMTAP	92	240	4
NMTAP	92	288	6
NMTAP	92	336	6
NMSTR	93	0	0
NMSLR	93	0	0	96	96	7
BRTAP	93	192	6
NMTAP	93	288	0
NMTAP	93	288	5
NMTAP	94	0	2
NMTAP	94	0	7
NMSTR	94	96	1
NMSI_	94	96	1	96	48	4
NMTAP	94	144	0
NMTAP	94	192	1
NMTAP	94	288	6
NMTAP	95	0	4
NMTAP	95	0	5
NMSTR	95	96	6
NMSI_	95	96	6	96	48	3
NMTAP	95	144	7
NMTAP	95	192	6
NMTAP	95	288	1
NMTAP	96	0	2
NMTAP	96	0	3
NMSTR	96	96	1
NMSCR	96	96	1	96	48	4
NMTAP	96	144	0
NMTAP	96	192	1
NMTAP	96	288	6
NMTAP	97	0	4
NMTAP	97	0	5
NMSTR	97	96	2
NMSI_	97	96	2	96	48	7
NMSTR	97	96	3
NMSI_	97	96	3	96	48	7
BRTAP	97	192	2
BRTAP	97	192	3
NMTAP	98	0	0
NMTAP	98	0	6
NMSTR	98	96	5
NMSI_	98	96	5	96	48	0
NMTAP	98	144	4
NMTAP	98	192	5
NMTAP	98	288	2
NMTAP	99	0	0
NMTAP	99	0	1
NMSTR	99	96	2
NMSI_	99	96	2	96	48	7
NMTAP	99	144	3
NMTAP	99	192	2
NMTAP	99	288	5
NMTAP	100	0	6
NMTAP	100	0	7
NMSTR	100	96	5
NMSI_	100	96	5	96	48	0
NMTAP	100	144	4
NMTAP	100	192	5
NMTAP	100	288	2
NMTAP	101	0	0
NMTAP	101	0	1
NMSTR	101	96	6
NMSI_	101	96	6	96	48	2
NMSTR	101	96	7
NMSI_	101	96	7	96	48	3
BRTAP	101	192	6
BRTAP	101	192	7
NMTAP	102	0	5
NMTAP	102	48	5
NMTAP	102	96	4
NMTAP	102	144	4
NMTAP	102	192	5
NMTAP	102	288	4
NMHLD	102	288	6	96
NMTAP	103	0	7
NMTAP	103	48	6
NMTAP	103	96	2
NMTAP	103	144	3
NMTAP	103	192	1
NMTAP	103	240	0
NMTAP	103	288	4
NMTAP	103	336	5
BRTAP	104	0	7
NMTAP	104	24	0
NMTAP	104	48	1
NMTAP	104	96	5
NMTAP	104	144	3
NMTAP	104	192	7
NMTAP	104	240	1
NMTAP	104	288	3
NMTAP	104	336	0
BRTAP	105	0	4
NMTAP	105	24	5
NMTAP	105	48	6
NMTAP	105	96	1
NMTAP	105	144	7
BRTAP	105	192	0
NMTAP	105	216	1
NMTAP	105	240	2
EXTAP	105	288	3
EXTAP	105	288	7
BRSTR	106	0	1
NMSI_	106	0	1	96	48	4
NMSTR	106	96	0
NMSCL	106	96	0	96	48	5
NMTAP	106	96	1
NMTAP	106	192	0
NMSTR	106	288	3
NMSI_	106	288	3	96	48	7
NMTAP	107	0	3
BRSTR	107	0	6
NMSCL	107	0	6	96	48	3
NMTAP	107	96	6
NMSTR	107	192	0
NMSI_	107	192	0	96	48	4
NMTAP	107	288	0
NMTAP	107	288	7
EXTAP	108	0	7
NMTAP	108	24	6
NMTAP	108	48	5
NMTAP	108	72	4
EXTAP	108	96	1
NMTAP	108	120	2
NMTAP	108	144	3
NMTAP	108	168	4
EXTAP	108	192	7
NMTAP	108	216	6
NMTAP	108	240	5
NMTAP	108	264	4
EXTAP	108	288	1
NMTAP	108	312	2
NMTAP	108	336	3
NMTAP	108	360	4
EXTAP	109	0	0
NMTAP	109	24	7
NMTAP	109	48	6
NMTAP	109	72	5
EXTAP	109	96	0
NMTAP	109	96	4
NMTAP	109	120	1
NMTAP	109	144	2
NMTAP	109	168	3
EXTAP	109	192	0
NMTAP	109	192	4
NMTAP	109	216	7
NMTAP	109	240	6
NMTAP	109	264	5
EXTAP	109	288	0
NMTAP	109	288	4
NMTAP	109	312	1
NMTAP	109	336	2
NMTAP	109	360	3
BRHLD	110	0	0	2496
BRHLD	110	0	4	2496
NMTTP	117	0	6	A	0	M1
NMTTP	117	24	6	D	0	M1
NMTTP	117	48	5	A	0	M1
NMTTP	117	72	5	D	0	M1
NMTTP	117	96	4	A	0	M1
NMTTP	117	120	4	D	0	M1
NMTTP	117	144	3	A	0	M1
NMTTP	117	168	3	D	0	M1
NMTTP	117	192	2	B	0	M1
NMTTP	117	192	2	A	0	M1
NMHLD	118	0	1	192
NMHLD	118	0	3	192
NMTTP	119	0	2	E	0	M1
NMTTP	119	0	4	E	0	M1
NMTTP	119	192	3	E	0	M1
NMTTP	119	192	5	E	0	M1
NMHLD	120	0	2	192
NMHLD	120	0	4	192
NMTTP	121	0	3	E	0	M1
NMTTP	121	0	5	E	0	M1
NMTTP	121	192	4	E	0	M1
NMTTP	121	192	6	E	0	M1
NMHLD	122	0	3	192
NMHLD	122	0	5	192
NMTTP	123	0	4	E	0	M1
NMTTP	123	0	6	E	0	M1
NMTTP	123	192	5	E	0	M1
NMTTP	123	192	7	E	0	M1
NMHLD	124	0	5	96
NMTAP	124	192	4
NMSTR	124	192	6
NMSCR	124	192	6	96	480	5
NMTTP	125	0	0	C	1	M1
BRTAP	126	0	0
NMSTR	126	96	0
NMSCR	126	96	0	96	192	3
NMTAP	126	192	7
NMTAP	126	288	6
NMTAP	127	0	5
NMSTR	127	96	5
NMSCR	127	96	5	96	192	0
NMTAP	127	192	4
NMTAP	127	288	3
NMTAP	128	0	2
NMSTR	128	96	2
NMSCR	128	96	2	96	192	5
NMTAP	128	192	1
NMTAP	128	288	0
NMHLD	129	0	7	96
NMTAP	129	96	6
NMTAP	129	144	7
NMTAP	129	192	5
NMTAP	129	288	2
NMTAP	129	288	4
BRHLD	130	0	1	96
NMTAP	130	96	3
NMTAP	130	144	2
NMTAP	130	192	4
NMTAP	130	240	3
NMTAP	130	288	5
NMTAP	130	336	4
BXHLD	131	0	6	96
NMTAP	131	96	4
NMTAP	131	144	5
NMTAP	131	192	3
NMTAP	131	240	4
NMTAP	131	288	2
NMTAP	131	336	3
BRHLD	132	0	1	96
NMTAP	132	96	3
NMTAP	132	144	2
BRHLD	132	192	6	96
NMTAP	132	288	4
NMTAP	132	336	5
NMTAP	133	0	3
NMTAP	133	0	6
NMTAP	133	96	1
NMTAP	133	96	4
NMTAP	133	192	0
NMTAP	133	216	7
NMTAP	133	240	0
NMTAP	133	264	7
NMTAP	133	288	0
BRTAP	134	0	1
BRTAP	134	0	6
NMSTR	134	96	0
NMSI_	134	96	0	96	48	4
NMSTR	134	192	5
NMSI_	134	192	5	96	48	0
NMSTR	134	288	2
NMSI_	134	288	2	96	72	5
NMSTR	135	0	6
NMSI_	135	0	6	96	48	2
NMSTR	135	96	0
NMSI_	135	96	0	96	48	3
NMSTR	135	192	5
NMSI_	135	192	5	96	48	0
NMSTR	135	288	4
NMSI_	135	288	4	96	48	1
NMSTR	136	0	7
NMSI_	136	0	7	96	48	3
NMSTR	136	96	0
NMSI_	136	96	0	96	48	5
NMSTR	136	192	4
NMSI_	136	192	4	96	48	0
NMTAP	136	288	3
NMSTR	137	0	2
NMSXR	137	0	2	96	192	7
NMSTR	137	96	6
NMSCL	137	96	6	96	96	3
NMTAP	138	0	0
NMTAP	138	0	4
NMSTR	138	96	1
NMSV_	138	96	1	96	48	4
NMSTR	138	192	5
NMSI_	138	192	5	96	48	0
NMSTR	138	288	2
NMSI_	138	288	2	96	48	7
NMSTR	139	0	6
NMSV_	139	0	6	96	48	3
NMSTR	139	96	0
NMSI_	139	96	0	96	48	4
NMSTR	139	192	5
NMSCL	139	192	5	96	48	2
NMSTR	139	288	1
NMSCL	139	288	1	96	48	6
NMSTR	140	0	5
NMSI_	140	0	5	96	48	0
NMSTR	140	96	1
NMSLR	140	96	1	96	96	7
NMTAP	140	192	6
NMTAP	140	288	5
NMSTR	141	0	0
NMSXL	141	0	0	96	96	2
NMSTR	141	0	4
NMSXL	141	0	4	96	96	6
NMTTP	142	0	2	A	0	M1
NMTTP	142	24	3	E	0	M1
NMTTP	142	48	4	E	0	M1
NMTTP	142	72	4	A	0	M1
NMTTP	142	96	1	B	0	M1
NMTTP	142	120	0	C	0	M1
NMTTP	142	144	5	B	0	M1
NMTTP	142	168	5	A	0	M1
NMTTP	142	192	0	A	0	M1
NMTTP	142	216	0	E	0	M1
NMTTP	142	240	7	E	0	M1
NMTTP	142	264	6	A	0	M1
EXTAP	142	288	4
NMTAP	143	0	2
NMTAP	143	0	3
NMTAP	143	96	0
NMTAP	143	96	1
NMTAP	143	192	2
NMTAP	143	192	7
NMTAP	143	240	2
NMTAP	143	240	7
BRTAP	143	288	2
BRTAP	143	288	7
NMTTP	144	0	6	A	0	M1
NMTTP	144	24	6	E	0	M1
NMTTP	144	48	5	E	0	M1
NMTTP	144	72	4	A	0	M1
NMTTP	144	96	0	A	0	M1
NMTTP	144	120	1	E	0	M1
NMTTP	144	144	2	E	0	M1
NMTTP	144	168	2	A	0	M1
NMTTP	144	192	7	B	0	M1
NMTTP	144	216	0	C	0	M1
NMTTP	144	240	3	B	0	M1
NMTTP	144	264	3	A	0	M1
EXHLD	144	288	0	96
NMTAP	145	0	6
NMSTR	145	96	1
NMSI_	145	96	1	96	48	4
NMSTR	145	96	5
NMSI_	145	96	5	96	48	0
BRTAP	145	192	1
BRTAP	145	192	5
NMTTP	146	0	7	A	0	M1
NMTTP	146	24	0	E	0	M1
NMTTP	146	48	1	E	0	M1
NMTTP	146	72	1	A	0	M1
NMTTP	146	96	6	B	0	M1
NMTTP	146	120	0	C	0	M1
NMTTP	146	144	2	B	0	M1
NMTTP	146	168	2	A	0	M1
NMTTP	146	192	5	A	0	M1
NMTTP	146	216	5	E	0	M1
NMTTP	146	240	4	E	0	M1
NMTTP	146	264	3	A	0	M1
EXTAP	146	288	0
NMTAP	147	0	6
NMTAP	147	0	7
NMTAP	147	96	4
NMTAP	147	96	5
NMTAP	147	192	1
NMTAP	147	192	3
NMTAP	147	240	1
NMTAP	147	240	3
NMTAP	147	288	1
NMTAP	147	288	3
NMTTP	148	0	3	A	0	M1
NMTTP	148	24	4	E	0	M1
NMTTP	148	48	5	E	0	M1
NMTTP	148	72	5	A	0	M1
NMTTP	148	96	1	A	0	M1
NMTTP	148	120	1	E	0	M1
NMTTP	148	144	0	E	0	M1
NMTTP	148	168	7	A	0	M1
NMTTP	148	192	2	B	0	M1
NMTTP	148	216	2	A	0	M1
NMTTP	148	240	0	C	0	M1
NMTTP	148	264	6	B	0	M1
NMTTP	148	288	0	A	0	M1
NMTTP	148	288	6	A	0	M1
NMTTP	148	312	0	B	0	M1
NMTTP	148	336	0	C	0	M1
NMTTP	148	360	4	B	0	M1
NMTTP	149	0	4	A	0	M1
EXTAP	149	0	7
NMTAP	149	96	7
NMTTP	149	192	1	A	0	M1
NMTTP	149	192	2	A	0	M1
NMTTP	149	192	2	D	1	M1
NMTTP	149	192	5	A	0	M1
NMTTP	149	192	6	A	0	M1
NMTTP	149	192	6	D	0	M1
BRTAP	150	0	0
NMHLD	150	48	3	24
NMTAP	150	96	0
NMHLD	150	144	3	24
NMTAP	150	192	0
NMHLD	150	240	3	24
NMTAP	150	288	0
NMHLD	150	336	3	24
EXSTR	151	0	0
NMSI_	151	0	0	96	48	2
NMHLD	151	48	3	24
EXTAP	151	96	0
NMHLD	151	144	3	24
EXSTR	151	192	0
NMSI_	151	192	0	96	48	6
NMHLD	151	240	3	24
EXTAP	151	288	0
NMHLD	151	336	3	24
BXTAP	152	0	0
NMHLD	152	48	3	24
NMTAP	152	96	0
NMHLD	152	144	3	24
NMTAP	152	192	0
NMHLD	152	240	3	24
NMTAP	152	288	0
NMHLD	152	336	3	24
EXSTR	153	0	0
NMSI_	153	0	0	96	48	4
NMHLD	153	48	3	24
EXTAP	153	96	0
EXTAP	153	192	3
EXTAP	153	192	5
NMTAP	153	288	2
NMTAP	153	288	6
BRTAP	154	0	7
NMHLD	154	48	4	24
NMTAP	154	96	7
NMHLD	154	144	4	24
NMTAP	154	192	7
NMHLD	154	240	4	24
NMTAP	154	288	7
NMHLD	154	336	4	24
EXSTR	155	0	7
NMSI_	155	0	7	96	48	5
NMHLD	155	48	4	24
EXTAP	155	96	7
NMHLD	155	144	4	24
EXSTR	155	192	7
NMSI_	155	192	7	96	48	1
NMHLD	155	240	4	24
EXTAP	155	288	7
NMHLD	155	336	4	24
BXTAP	156	0	7
NMHLD	156	48	4	24
NMTAP	156	96	7
NMHLD	156	144	4	24
NMTAP	156	192	7
NMHLD	156	240	4	24
NMTAP	156	288	7
NMHLD	156	336	4	24
EXSTR	157	0	7
NMSI_	157	0	7	96	48	3
NMHLD	157	48	4	24
EXTAP	157	96	7
EXTAP	157	192	2
EXTAP	157	192	4
NMTAP	157	288	1
NMTAP	157	288	5
NMTAP	158	0	6
NMTAP	158	48	6
NMTAP	158	96	4
NMTAP	158	144	4
NMTAP	158	192	3
EXHLD	158	288	2	480
EXTAP	158	288	4
NMTTP	159	0	3	B	0	M1
NMTTP	159	0	4	E	0	M1
NMTTP	159	96	1	B	0	M1
NMTTP	159	96	2	E	0	M1
NMTTP	159	192	0	E	0	M1
NMTTP	159	192	7	B	0	M1
NMTTP	159	288	5	B	0	M1
NMTTP	159	288	6	E	0	M1
NMTAP	160	0	3
NMTAP	160	48	2
NMTAP	160	96	1
NMTAP	160	96	4
NMTAP	160	144	2
NMTAP	160	192	3
NMTAP	160	240	4
EXTAP	160	288	3
EXHLD	160	288	5	480
NMTTP	161	0	4	B	0	M1
NMTTP	161	0	4	E	1	M1
NMTTP	161	96	6	B	0	M1
NMTTP	161	96	6	E	1	M1
NMTTP	161	192	0	B	0	M1
NMTTP	161	192	0	E	1	M1
NMTTP	161	288	2	B	0	M1
NMTTP	161	288	2	E	1	M1
NMTAP	162	0	4
NMTAP	162	48	5
NMTAP	162	96	3
NMTAP	162	96	6
NMTAP	162	144	7
NMTAP	162	192	0
NMHLD	162	288	1	480
NMTAP	162	288	7
NMTTP	163	0	6	B	1	M1
NMTTP	163	0	7	E	0	M1
NMTTP	163	96	4	B	1	M1
NMTTP	163	96	5	E	0	M1
NMTTP	163	192	2	B	1	M1
NMTTP	163	192	3	E	0	M1
NMTTP	163	288	0	B	0	M1
NMTTP	163	288	1	E	1	M1
NMSTR	164	0	7
NMSI_	164	0	7	96	96	4
NMSTR	164	96	4
NMSI_	164	96	4	96	96	1
NMSTR	164	192	1
NMSI_	164	192	1	96	96	6
NMSTR	164	288	6
NMSI_	164	288	6	96	96	3
NMSTR	165	0	3
NMSLL	165	0	3	96	96	7
NMSTR	165	96	7
NMSLL	165	96	7	96	96	3
NMSTR	165	192	3
NMSF_	165	192	3	96	48	7
NMTTP	165	312	0	C	1	M1
BXTAP	168	0	1
NMTAP	168	24	2
NMTAP	168	48	3
NMTAP	168	72	4
NMTAP	168	96	5
NMTAP	168	120	6
NMTAP	168	144	7
NMTAP	168	168	0
NMTAP	168	192	1
NMTAP	168	216	2
NMTAP	168	240	3
NMTAP	168	264	4
NMTAP	168	288	5
NMTAP	168	312	6
NMTAP	168	336	7
NMTAP	168	360	0
NMTAP	169	0	1
NMTAP	169	24	2
NMTAP	169	48	3
NMTAP	169	72	4
NMTAP	169	96	5
NMTAP	169	120	6
NMTAP	169	144	7
NMTAP	169	168	0
NMTAP	169	192	1
NMTAP	169	216	2
NMTAP	169	240	3
NMTAP	169	264	4
NMTAP	169	288	5
NMTAP	169	312	6
NMTAP	169	336	7
NMTAP	169	360	0
NMTAP	170	0	1
BXTAP	170	0	6
NMTAP	170	24	5
NMTAP	170	48	4
NMTAP	170	72	3
NMTAP	170	96	2
NMTAP	170	120	1
NMTAP	170	144	0
NMTAP	170	168	7
NMTAP	170	192	6
NMTAP	170	216	5
NMTAP	170	240	4
NMTAP	170	264	3
NMTAP	170	288	2
NMTAP	170	312	1
NMTAP	170	336	0
NMTAP	170	360	7
BXTAP	171	0	2
NMTAP	171	0	6
NMTAP	171	24	3
NMTAP	171	48	4
NMTAP	171	72	5
NMTAP	171	96	6
NMTAP	171	120	7
NMTAP	171	144	0
NMTAP	171	168	1
NMTAP	171	192	2
NMTAP	171	216	3
NMTAP	171	240	4
NMTAP	171	264	5
NMTAP	171	288	6
NMTAP	171	312	7
NMTAP	171	336	0
NMTAP	171	360	1
NMTAP	172	0	2
BXTAP	172	0	7
NMTAP	172	24	6
NMTAP	172	48	5
NMTAP	172	72	4
NMTAP	172	96	3
NMTAP	172	120	2
NMTAP	172	144	1
NMTAP	172	168	0
NMTAP	172	192	7
NMTAP	172	216	6
NMTAP	172	240	5
NMTAP	172	264	4
NMTAP	172	288	3
NMTAP	172	312	2
NMTAP	172	336	1
NMTAP	172	360	0
NMTAP	173	0	7
NMTAP	173	24	6
NMTAP	173	48	5
NMTAP	173	72	4
NMTAP	173	96	3
NMTAP	173	120	2
NMTAP	173	144	1
NMTAP	173	168	0
NMTAP	173	192	7
NMTAP	173	216	6
NMTAP	173	240	5
NMTAP	173	264	4
NMTAP	173	288	3
NMTAP	173	312	2
NMTAP	173	336	1
NMTAP	173	360	0
BXTAP	174	0	3
NMTAP	174	0	7
NMTAP	174	24	4
NMTAP	174	48	5
NMTAP	174	72	6
NMTAP	174	96	7
NMTAP	174	120	0
NMTAP	174	144	1
NMTAP	174	168	2
NMTAP	174	192	3
NMTAP	174	216	4
NMTAP	174	240	5
NMTAP	174	264	6
NMTAP	174	288	7
NMTAP	174	312	0
NMTAP	174	336	1
NMTAP	174	360	2
BXTAP	175	0	0
NMTAP	175	0	3
NMTAP	175	24	7
NMTAP	175	48	6
NMTAP	175	72	5
NMTAP	175	96	4
NMTAP	175	120	3
NMTAP	175	144	2
NMTAP	175	168	1
NMTAP	175	192	0
NMTAP	175	216	7
NMTAP	175	240	6
NMTAP	175	264	5
NMTAP	175	288	4
NMTAP	175	312	3
NMTAP	175	336	2
NMTAP	175	360	1
BRSTR	176	0	0
BRSSL	176	0	0	96	960	4
BRTAP	176	0	4
NMTAP	179	192	3
NMTAP	179	192	6
NMTAP	179	288	5
NMTAP	179	336	4
NMSTR	180	0	3
NMSCL	180	0	3	96	96	0
NMTTP	180	0	6	E	0	M1
NMTTP	180	0	7	E	1	M1
NMTTP	181	0	1	E	0	M1
NMTTP	181	0	2	E	1	M1
NMSTR	181	0	4
NMSCR	181	0	4	96	96	7
BRSTR	182	0	0
BRSCR	182	0	0	96	96	3
BRSTR	182	192	7
BRSCL	182	192	7	96	96	4
BRTAP	183	0	2
NMTAP	183	96	0
NMTAP	183	96	1
BRTAP	183	192	0
BRTAP	183	192	7
NMTAP	183	288	6
NMTAP	183	288	7
BRHLD	184	0	5	96
NMTAP	184	96	0
NMTAP	184	144	0
NMSTR	184	192	1
BRSI_	184	192	1	96	48	4
NMTAP	184	288	7
NMTAP	184	336	7
NMSTR	185	0	6
BRSI_	185	0	6	96	48	3
NMTAP	185	96	0
NMTAP	185	144	0
NMSTR	185	192	1
BRSI_	185	192	1	96	48	4
NMTAP	185	288	7
NMTAP	185	336	7
NMSTR	186	0	6
BRSI_	186	0	6	96	48	3
NMTAP	186	96	2
NMTAP	186	144	2
NMSTR	186	192	1
BRSCL	186	192	1	96	48	6
NMTAP	186	288	4
NMTAP	186	336	4
NMSTR	187	0	5
BRSCL	187	0	5	96	48	2
NMTAP	187	96	7
NMTAP	187	144	7
NMTAP	187	192	0
EXTAP	187	288	1
EXTAP	187	288	6
BRTAP	188	0	0
NMTAP	188	24	7
NMTAP	188	48	0
NMTAP	188	72	7
NMTAP	188	96	0
NMTAP	188	120	7
NMTAP	188	144	0
NMTAP	188	168	7
BRTAP	188	192	0
NMTAP	188	216	7
NMTAP	188	240	0
NMTAP	188	264	7
NMTAP	188	288	0
NMTAP	188	312	7
NMTAP	188	336	0
NMTAP	188	360	7
BRTAP	189	0	0
NMTAP	189	24	7
NMTAP	189	48	0
NMTAP	189	72	7
NMTAP	189	96	0
NMTAP	189	120	7
NMTAP	189	144	0
NMTAP	189	168	7
BRTAP	189	192	0
NMTAP	189	216	7
NMTAP	189	240	0
NMTAP	189	264	7
NMTAP	189	288	0
NMTAP	189	312	7
NMTAP	189	336	0
BXTAP	190	0	1
BXTAP	190	0	6
BRTAP	190	192	1
NMTAP	190	192	5
NMTAP	190	240	1
BRTAP	190	240	5
BRSTR	190	288	1
NMSI_	190	288	1	96	48	6
NMSTR	190	288	5
NMSI_	190	288	5	96	48	2
NMTAP	190	336	1
BRTAP	190	336	5
BRTAP	191	0	1
NMTAP	191	0	5

T_REC_TAP	729
T_REC_BRK	47
T_REC_XTP	110
T_REC_BXX	26
T_REC_HLD	40
T_REC_XHO	3
T_REC_BHO	7
T_REC_BXH	1
T_REC_STR	114
T_REC_BST	6
T_REC_XST	7
T_REC_XBS	1
T_REC_TTP	179
T_REC_THO	0
T_REC_SLD	118
T_REC_BSL	11
T_REC_ALL	1399
T_NUM_TAP	1139
T_NUM_BRK	99
T_NUM_HLD	43
T_NUM_SLD	118
T_NUM_ALL	1399
T_JUDGE_TAP	1219
T_JUDGE_HLD	130
T_JUDGE_SLD	129
T_JUDGE_ALL	1478
TTM_EACHPAIRS	109
TTM_SCR_TAP	569500
TTM_SCR_BRK	257400
TTM_SCR_HLD	43000
TTM_SCR_SLD	177000
TTM_SCR_ALL	1046900
TTM_SCR_S	1005900
TTM_SCR_SS	1037000
TTM_RAT_ACV	10095

