VERSION	0.00.00	1.05.00
FES_MODE	0
BPM_DEF	280.000	280.000	280.000	280.000
MET_DEF	4	4
RESOLUTION	384
CLK_DEF	384
COMPATIBLE_CODE	MA2

BPM	0	0	280.000
MET	0	0	4	4

NMTTP	3	0	0	C	1	M1
NMTTP	3	0	1	B	0	M1
NMTTP	3	0	2	B	0	M1
NMTTP	3	0	3	B	0	M1
NMTTP	3	0	4	B	0	M1
NMTTP	3	0	5	B	0	M1
NMTTP	3	0	6	B	0	M1
NMTTP	5	0	6	B	0	M1
NMTTP	5	0	7	B	0	M1
NMTTP	5	0	7	E	1	M1
NMTTP	6	0	2	B	0	M1
NMTTP	6	0	3	B	0	M1
NMTTP	6	0	3	E	1	M1
NMTTP	7	0	0	B	0	M1
NMTTP	7	0	0	E	1	M1
NMTTP	7	0	7	B	0	M1
NMTTP	9	0	4	B	0	M1
NMTTP	9	0	5	B	0	M1
NMTTP	9	0	5	E	1	M1
NMTTP	10	0	0	B	0	M1
NMTTP	10	0	1	B	0	M1
NMTTP	10	0	1	E	1	M1
NMHLD	11	0	7	1152
NMTTP	12	0	5	B	0	M1
NMTTP	12	192	4	B	0	M1
NMTTP	13	0	3	B	0	M1
NMTTP	13	192	2	B	0	M1
NMTAP	14	0	0
NMTAP	14	96	1
NMTAP	14	192	7
NMTAP	14	288	6
NMTAP	15	0	3
NMHLD	15	0	5	480
NMTAP	15	96	3
NMTAP	15	192	4
NMTAP	15	288	4
NMTAP	16	0	1
NMTAP	16	96	1
NMHLD	16	192	2	480
NMTAP	16	192	4
NMTAP	16	288	4
NMTAP	17	0	3
NMTAP	17	96	3
NMTAP	17	192	6
NMTAP	17	288	6
NMHLD	18	0	0	96
NMHLD	18	0	1	96
NMHLD	18	144	6	96
NMHLD	18	144	7	96
NMHLD	18	288	4	96
NMHLD	18	288	5	96
NMHLD	19	48	2	96
NMHLD	19	48	3	96
EXTAP	19	192	0
EXHLD	19	288	1	768
EXHLD	19	288	7	768
NMTTP	22	0	1	E	0	M1
NMTTP	23	0	2	E	0	M1
NMTTP	24	0	3	E	0	M1
NMTTP	25	0	4	E	0	M1
NMTTP	26	0	5	E	0	M1
NMTTP	27	0	6	E	0	M1
NMTTP	28	0	7	E	0	M1
NMSTR	29	0	0
BRSCR	29	0	0	96	144	3
NMSTR	29	0	7
BRSCL	29	0	7	96	144	4
NMHLD	30	0	2	672
NMTAP	30	0	3
NMTAP	30	96	3
NMTAP	30	192	0
NMTAP	30	288	0
NMTAP	31	0	4
NMTAP	31	96	4
NMTAP	31	192	7
NMTAP	31	288	7
NMTAP	32	0	4
NMHLD	32	0	5	672
NMTAP	32	96	4
NMTAP	32	192	7
NMTAP	32	288	7
NMTAP	33	0	3
NMTAP	33	96	3
NMTAP	33	192	0
NMTAP	33	288	0
NMHLD	34	0	1	96
NMHLD	34	96	3	96
NMHLD	34	192	4	96
NMTAP	34	288	6
NMHLD	35	0	6	96
NMHLD	35	96	4	96
NMHLD	35	192	3	96
NMTAP	35	288	1
NMSTR	36	0	1
NMSCR	36	0	1	96	96	4
NMSTR	36	192	6
NMSI_	36	192	6	96	96	2
NMTAP	37	0	0
NMTAP	37	96	0
EXTAP	37	192	1
EXTAP	37	192	7
NMHLD	38	0	2	480
NMTAP	38	0	3
NMTAP	38	96	3
NMTAP	38	192	1
NMTAP	38	288	1
NMTAP	39	0	3
NMTAP	39	96	3
NMTAP	39	192	0
NMTAP	39	192	4
NMTAP	40	0	6
NMTAP	40	96	6
NMTAP	40	96	7
NMTAP	40	192	1
NMTAP	40	288	0
NMTAP	40	288	1
NMTAP	41	0	2
NMTAP	41	0	7
NMTAP	41	96	2
NMTAP	41	96	7
NMTAP	41	192	3
NMTAP	41	192	6
NMTAP	41	288	3
NMTAP	41	288	6
EXTAP	42	0	4
EXHLD	42	0	5	480
NMTAP	42	96	4
NMTAP	42	192	6
NMTAP	42	288	6
NMTAP	43	0	4
NMTAP	43	96	4
NMTAP	43	192	3
NMTAP	43	192	7
NMTAP	44	0	2
NMTAP	44	0	3
NMTAP	44	48	2
NMTAP	44	48	3
NMTAP	44	144	0
NMTAP	44	144	1
NMTAP	44	192	0
NMTAP	44	192	1
NMTAP	44	288	6
NMTAP	44	288	7
NMTAP	44	336	6
NMTAP	44	336	7
NMTAP	45	48	4
NMTAP	45	48	5
NMTAP	45	96	4
NMTAP	45	96	5
EXTAP	45	192	2
EXTAP	45	192	3
BRTAP	45	288	0
BRTAP	45	288	4
NMHLD	47	0	5	384
NMTAP	47	192	4
NMHLD	48	0	3	384
NMTAP	48	192	5
NMHLD	49	0	4	384
NMTAP	49	192	3
NMSTR	50	0	2
NMSI_	50	0	2	96	96	5
NMSTR	50	192	6
NMSI_	50	192	6	96	96	1
NMSTR	51	0	3
NMSI_	51	0	3	96	96	0
NMSTR	51	192	7
NMSI_	51	192	7	96	96	4
NMHLD	52	0	0	288
NMHLD	52	192	7	96
EXTAP	53	48	2
EXTAP	53	48	5
EXTAP	53	96	2
EXTAP	53	96	5
EXTAP	53	192	0
EXTAP	53	192	7
EXTAP	53	288	1
EXTAP	53	288	6
NMHLD	54	0	2	288
NMTAP	54	96	3
NMTAP	54	192	4
NMTAP	54	288	3
NMHLD	55	0	6	288
NMTAP	55	96	4
NMTAP	55	192	5
NMTAP	55	288	4
NMHLD	56	0	1	288
NMTAP	56	96	0
NMTAP	56	192	7
NMTAP	56	288	0
NMTAP	57	0	2
NMTAP	57	0	7
NMTAP	57	96	2
NMTAP	57	96	7
NMTAP	57	192	3
NMTAP	57	192	6
NMTAP	57	288	3
NMTAP	57	288	6
NMHLD	58	0	5	288
NMTAP	58	96	4
NMTAP	58	192	3
NMTAP	58	288	4
NMHLD	59	0	1	288
NMTAP	59	96	3
NMTAP	59	192	2
NMTAP	59	288	3
NMHLD	60	0	6	288
NMTAP	60	96	7
NMTAP	60	192	0
NMTAP	60	288	7
NMTAP	61	0	0
NMTAP	61	0	5
NMTAP	61	96	0
NMTAP	61	96	5
NMTAP	61	192	1
NMTAP	61	192	4
NMTAP	61	288	1
NMTAP	61	288	4
NMSTR	62	0	2
NMSCR	62	0	2	96	240	5
NMSTR	63	0	7
NMSCR	63	0	7	96	240	2
NMSTR	64	0	4
NMSCR	64	0	4	96	240	7
NMSTR	65	0	1
NMSCR	65	0	1	96	240	4
NMSTR	66	0	5
NMSUL	66	0	5	96	480	2
NMHLD	68	0	1	192
NMHLD	68	192	3	192
NMHLD	69	0	4	192
NMHLD	69	192	6	192
NMTAP	70	0	0
NMTAP	70	48	0
NMTAP	70	96	7
NMTAP	70	144	7
NMTAP	70	192	0
NMTAP	70	240	0
NMTAP	70	288	7
NMTAP	70	336	7
NMTAP	71	0	0
NMTAP	71	48	0
NMTAP	71	96	7
NMTAP	71	144	7
NMTAP	71	192	0
NMTAP	71	240	0
NMTAP	71	288	7
NMTAP	71	336	7
NMTAP	72	0	0
NMTAP	72	48	0
NMTAP	72	96	7
NMTAP	72	144	7
NMTAP	72	192	0
NMTAP	72	240	0
NMTAP	72	288	7
NMTAP	72	336	7
NMTAP	73	0	0
NMTAP	73	48	0
NMTAP	73	96	7
NMTAP	73	144	7
NMTAP	73	192	0
NMTAP	73	240	0
NMTAP	73	288	7
NMTAP	73	336	7
NMTAP	74	0	0
NMTAP	74	48	0
NMTAP	74	96	7
NMTAP	74	144	7
NMTAP	74	192	0
NMTAP	74	240	0
NMTAP	74	288	7
NMTAP	74	336	7
NMTAP	75	0	0
NMTAP	75	48	0
NMTAP	75	96	7
NMTAP	75	144	7
NMTAP	75	192	0
NMTAP	75	240	0
NMTAP	75	288	7
NMTAP	75	336	7
EXTAP	76	0	0
EXTAP	76	48	1
EXTAP	76	96	2
EXTAP	76	144	3
EXTAP	76	192	4
EXTAP	76	240	5
EXTAP	76	288	6
EXTAP	76	336	7
NMTTP	77	0	0	C	1	M1
NMTAP	78	0	1
NMTAP	78	96	0
NMTAP	78	96	1
NMTAP	78	192	6
NMTAP	78	288	6
NMTAP	78	288	7
NMTAP	79	0	1
NMTAP	79	96	0
NMTAP	79	96	2
NMTAP	79	192	6
NMTAP	79	288	5
NMTAP	79	288	7
NMTAP	80	0	0
NMTAP	80	96	2
NMTAP	80	96	3
NMTAP	80	192	7
NMTAP	80	288	4
NMTAP	80	288	5
NMTAP	81	0	0
NMTAP	81	96	2
NMTAP	81	96	3
BRTAP	81	192	1
BRTAP	81	192	5
EXTAP	82	0	0
EXSTR	82	0	7
NMSI_	82	0	7	96	96	2
NMSTR	82	192	1
NMSI_	82	192	1	96	96	4
NMSTR	83	0	5
NMSI_	83	0	5	96	96	0
NMSTR	83	192	3
NMSI_	83	192	3	96	96	6
NMSTR	84	0	7
NMSCL	84	0	7	96	96	4
NMSTR	84	192	0
NMSCR	84	192	0	96	96	3
NMTAP	85	0	7
NMTAP	85	96	4
NMTAP	85	96	5
BRTAP	85	192	2
BRTAP	85	192	6
NMTAP	86	0	1
NMTAP	86	96	0
NMTAP	86	96	1
NMTAP	86	192	6
NMTAP	86	288	6
NMTAP	86	288	7
NMTAP	87	0	2
NMTAP	87	96	1
NMTAP	87	96	3
NMTAP	87	192	5
NMSTR	87	288	4
NMSCR	87	288	4	96	288	3
NMTAP	87	288	6
EXTAP	89	0	6
EXTAP	89	0	7
EXTAP	89	64	6
EXTAP	89	64	7
EXTAP	89	128	6
EXTAP	89	128	7
BXTAP	89	192	0
BXTAP	89	192	5
EXSTR	90	0	0
NMSI_	90	0	0	96	96	5
EXTAP	90	0	7
NMSTR	90	192	6
NMSI_	90	192	6	96	96	3
NMSTR	91	0	2
NMSI_	91	0	2	96	96	7
NMSTR	91	192	4
NMSI_	91	192	4	96	96	1
NMSTR	92	0	7
NMSI_	92	0	7	96	144	3
EXTAP	93	0	1
EXTAP	93	0	5
EXTAP	93	96	1
EXTAP	93	96	5
BRTAP	93	192	0
BRTAP	93	192	6
EXHLD	94	0	1	672
NMTAP	94	0	7
NMTAP	94	96	7
NMTAP	94	192	2
NMTAP	94	288	2
NMTAP	95	0	0
NMTAP	95	96	0
NMTAP	95	192	3
NMTAP	95	288	3
NMTAP	96	0	0
EXHLD	96	0	6	672
NMTAP	96	96	0
NMTAP	96	192	5
NMTAP	96	288	5
NMTAP	97	0	7
NMTAP	97	96	7
NMTAP	97	192	4
NMTAP	97	288	4
NMTAP	98	0	0
EXHLD	98	0	1	288
NMTAP	98	96	2
NMTAP	98	192	7
NMTAP	98	288	3
EXHLD	99	0	6	288
NMTAP	99	0	7
NMTAP	99	96	5
NMTAP	99	192	0
NMTAP	99	288	4
EXTAP	100	0	0
EXSTR	100	0	7
NMSI_	100	0	7	96	96	5
EXSTR	100	192	4
NMSI_	100	192	4	96	96	0
EXSTR	101	0	7
NMSI_	101	0	7	96	96	3
EXSTR	101	192	2
NMSI_	101	192	2	96	96	0
NMTAP	102	0	7
NMTAP	102	96	7
NMTAP	102	192	0
NMTAP	102	288	0
NMHLD	103	0	6	96
NMHLD	103	96	4	96
NMHLD	103	192	3	96
NMTAP	103	288	1
NMTAP	104	0	0
NMTAP	104	96	0
NMTAP	104	192	7
NMTAP	104	288	7
NMHLD	105	0	1	96
NMHLD	105	96	3	96
NMHLD	105	192	4	96
NMTAP	105	288	6
NMTAP	106	0	6
NMTAP	106	96	4
NMTAP	106	96	5
NMTAP	106	192	1
NMTAP	106	288	2
NMTAP	106	288	3
NMTAP	107	0	7
NMTAP	107	96	4
NMTAP	107	96	5
NMTAP	107	192	0
NMTAP	107	288	2
NMTAP	107	288	3
NMTAP	108	0	4
NMTAP	108	0	6
NMTAP	108	96	5
NMTAP	108	96	7
NMTAP	108	192	1
NMTAP	108	192	3
NMTAP	108	288	0
NMTAP	108	288	2
NMTAP	109	0	6
NMTAP	109	0	7
NMTAP	109	96	4
NMTAP	109	96	5
NMTAP	109	192	2
NMTAP	109	192	3
NMTAP	109	288	0
NMTAP	109	288	1
BRSTR	110	0	2
NMSUR	110	0	2	96	864	4
BRTAP	110	0	7
CNSCR	112	192	4	0	384	3
BRTAP	113	288	6
BRTAP	113	288	7
BRTAP	114	0	0
BRSTR	114	0	5
NMSUL	114	0	5	96	864	3
CNSCL	116	192	3	0	384	4
NMHLD	118	0	3	1344
NMTTP	118	192	5	D	0	M1
NMTTP	119	0	2	D	0	M1
NMTTP	119	192	5	B	0	M1
NMTTP	120	0	1	B	0	M1
NMTTP	120	192	6	D	0	M1
NMTTP	121	0	1	D	0	M1
NMTTP	121	192	7	A	0	M1
NMHLD	122	0	4	1344
NMTTP	122	192	3	D	0	M1
NMTTP	123	0	6	D	0	M1
NMTTP	123	192	2	B	0	M1
NMTTP	124	0	6	B	0	M1
NMTTP	124	192	2	D	0	M1
NMTTP	125	0	7	D	0	M1
NMTTP	125	192	0	A	0	M1
NMSTR	126	0	1
NMSCR	126	0	1	96	192	4
NMHLD	127	0	5	192
NMTAP	127	192	4
NMTAP	128	0	3
NMTAP	128	0	4
NMHLD	128	192	2	192
NMTAP	129	0	3
NMTAP	129	192	3
NMTAP	129	192	4
NMTAP	130	0	5
NMTAP	130	96	5
NMTAP	130	192	4
NMTAP	130	288	5
NMTAP	131	0	2
NMTAP	131	96	2
NMTAP	131	192	3
NMTAP	131	288	2
NMHLD	132	0	1	96
NMHLD	132	0	3	96
NMHLD	132	192	4	96
NMHLD	132	192	6	96
NMTAP	133	0	2
NMTAP	133	0	3
NMTAP	133	96	4
NMTAP	133	96	5
NMHLD	133	192	3	96
NMHLD	133	192	4	96
NMTAP	134	0	2
EXTAP	134	96	6
EXTAP	134	96	7
NMTAP	134	192	5
EXTAP	134	288	0
EXTAP	134	288	1
NMTAP	135	0	3
EXTAP	135	96	6
EXTAP	135	96	7
NMTAP	135	192	4
EXTAP	135	288	0
EXTAP	135	288	1
NMTAP	136	0	2
EXTAP	136	96	0
EXTAP	136	96	6
NMTAP	136	192	5
EXSTR	136	288	1
NMSCR	136	288	1	96	96	4
EXSTR	136	288	7
NMSCL	136	288	7	96	96	4
BRTAP	137	192	1
BRTAP	137	192	7
NMTAP	138	0	5
EXTAP	138	96	6
EXTAP	138	96	7
NMTAP	138	192	4
EXTAP	138	288	0
EXTAP	138	288	1
NMTAP	139	0	3
EXTAP	139	96	6
EXTAP	139	96	7
NMTAP	139	192	2
EXTAP	139	288	0
EXTAP	139	288	1
NMTAP	140	0	3
EXTAP	140	96	6
EXTAP	140	96	7
NMTAP	140	192	4
EXTAP	140	288	0
EXTAP	140	288	1
NMSTR	141	0	5
NMSCL	141	0	5	96	96	2
EXTAP	141	192	0
NMHLD	142	0	1	96
NMHLD	142	96	2	96
NMHLD	142	192	3	96
NMTAP	142	288	4
NMHLD	143	0	6	96
NMHLD	143	96	5	96
NMHLD	143	192	4	96
NMTAP	143	288	3
NMHLD	144	0	0	96
NMHLD	144	96	1	96
NMHLD	144	192	2	96
NMHLD	144	288	3	96
NMHLD	145	0	4	96
NMHLD	145	96	5	96
NMHLD	145	192	6	96
NMHLD	145	288	7	96
NMSTR	146	0	0
NMSCR	146	0	0	96	96	3
NMSTR	146	192	7
NMSCL	146	192	7	96	96	4
NMSTR	147	0	0
NMSI_	147	0	0	96	96	3
NMSTR	147	192	7
NMSI_	147	192	7	96	96	4
NMSTR	148	0	1
NMSI_	148	0	1	96	96	5
NMSTR	148	192	7
NMSLL	148	192	7	96	288	3
NMSLR	148	192	7	96	288	3
NMTAP	150	0	2
NMTAP	150	48	2
EXTAP	150	96	3
NMTAP	150	144	3
EXTAP	150	192	1
NMTAP	150	240	1
EXTAP	150	288	0
NMTAP	150	336	0
EXTAP	151	0	4
NMTAP	151	48	4
EXTAP	151	96	5
NMTAP	151	144	5
NMTAP	151	192	7
NMTAP	151	240	7
EXTAP	151	288	6
NMTAP	151	336	6
NMTAP	152	0	1
NMTAP	152	48	1
EXTAP	152	96	3
NMTAP	152	144	3
EXTAP	152	192	4
NMTAP	152	240	4
EXTAP	152	288	6
NMTAP	152	336	6
EXTAP	153	0	0
EXTAP	153	96	6
EXTAP	153	96	7
EXTAP	153	192	4
EXTAP	153	192	5
BXTAP	153	288	3
BXTAP	153	288	7
NMTAP	154	0	1
NMTAP	154	48	1
EXTAP	154	96	0
NMTAP	154	144	0
EXTAP	154	192	7
NMTAP	154	240	7
EXTAP	154	288	6
NMTAP	154	336	6
EXTAP	155	0	5
NMTAP	155	48	5
EXTAP	155	96	4
NMTAP	155	144	4
NMTAP	155	192	3
NMTAP	155	240	3
EXTAP	155	288	2
NMTAP	155	336	2
NMTAP	156	0	1
NMTAP	156	48	1
EXTAP	156	96	0
NMTAP	156	144	0
EXTAP	156	192	7
NMTAP	156	240	7
EXTAP	156	288	6
NMTAP	156	336	6
EXTAP	157	0	5
NMTAP	157	48	5
EXTAP	157	96	4
NMTAP	157	144	4
EXTAP	157	192	3
NMTAP	157	240	3
EXTAP	157	288	2
NMTAP	157	336	2
NMTAP	158	0	0
NMTAP	158	96	7
NMTAP	158	192	6
NMTAP	158	288	4
NMTAP	158	288	5
NMSTR	159	0	3
NMSCL	159	0	3	96	96	0
CNSUR	159	192	0	0	144	4
NMTAP	160	0	7
NMTAP	160	96	0
NMTAP	160	192	1
NMTAP	160	288	2
NMTAP	160	288	3
NMSTR	161	0	4
NMSCR	161	0	4	96	96	7
CNSUL	161	192	7	0	144	3
NMHLD	162	0	1	288
NMTAP	162	96	0
NMTAP	162	192	2
NMTAP	162	288	0
NMHLD	163	0	6	288
NMTAP	163	96	7
NMTAP	163	192	5
NMTAP	163	288	7
NMTAP	164	0	2
NMTAP	164	96	3
NMTAP	164	192	1
NMTAP	164	192	4
NMTAP	164	288	0
NMTAP	164	288	5
NMTAP	165	0	6
NMTAP	165	0	7
NMTAP	165	96	4
NMTAP	165	96	5
NMTAP	165	192	2
NMTAP	165	192	3
BRHLD	165	288	1	672
BRHLD	165	288	5	672
NMTTP	168	0	0	C	1	M1
BXSTR	168	0	7
NMSCL	168	0	7	96	480	0
BRSTR	170	0	1
NMSUR	170	0	1	96	192	6
BRSTR	171	0	5
NMSUR	171	0	5	96	192	2
BXSTR	172	0	3
NMSUR	172	0	3	96	480	4
BXSTR	172	0	4
NMSCR	172	0	4	96	480	3
BRSTR	174	0	6
NMSI_	174	0	6	96	144	4
BRSTR	174	0	7
NMSI_	174	0	7	96	144	3
BRSTR	175	0	0
NMSI_	175	0	0	96	144	4
BRSTR	175	0	1
NMSI_	175	0	1	96	144	3
NMHLD	176	0	7	1152
NMTTP	176	288	5	E	0	M1
NMTTP	176	336	4	E	0	M1
NMTTP	177	0	3	E	0	M1
NMTTP	177	192	2	E	0	M1
NMTTP	178	0	6	E	0	M1
NMTTP	178	192	0	E	0	M1
NMTAP	179	0	1
NMTAP	179	96	0
NMTAP	179	192	7
NMTAP	179	288	6
EXTAP	180	0	4
EXHLD	180	0	5	288
NMTAP	180	96	3
NMTAP	180	192	2
NMTAP	180	288	1
EXHLD	181	0	0	288
EXTAP	181	0	7
NMTAP	181	96	6
NMTAP	181	192	5
NMTAP	181	288	4
EXTAP	182	0	2
EXHLD	182	0	3	288
NMTAP	182	96	1
NMTAP	182	192	0
NMTAP	182	288	7
EXSTR	183	0	5
NMSI_	183	0	5	96	96	1
EXSTR	183	192	2
NMSI_	183	192	2	96	96	6
BRTAP	184	0	7
NMTAP	184	192	0
NMTAP	184	192	1
NMTAP	184	288	0
NMTAP	184	288	1
NMTAP	185	0	2
NMTAP	185	0	3
NMTAP	185	96	2
NMTAP	185	96	3
NMTAP	185	192	4
NMTAP	185	192	5
NMTAP	185	288	4
NMTAP	185	288	5
NMHLD	186	0	6	288
NMTAP	186	0	7
NMTAP	186	96	5
NMTAP	186	192	0
NMTAP	186	288	4
NMTAP	187	0	0
NMHLD	187	0	1	288
NMTAP	187	96	2
NMTAP	187	192	7
NMTAP	187	288	3
NMTAP	188	0	0
NMTAP	188	0	7
NMTAP	188	96	0
NMTAP	188	96	7
NMTAP	188	192	5
NMTAP	188	192	6
NMTAP	188	288	5
NMTAP	188	288	6
NMTAP	189	0	3
NMTAP	189	0	4
NMTAP	189	96	3
NMTAP	189	96	4
NMTAP	189	192	1
NMTAP	189	192	2
NMTAP	189	288	1
NMTAP	189	288	2
EXTAP	190	0	0
EXTAP	190	0	7
BXTAP	190	192	0
BXTAP	190	192	7
BRTAP	190	240	0
BRTAP	190	240	7
BXTAP	190	288	0
BXTAP	190	288	7
BRTAP	190	336	0
BRTAP	190	336	7
BXTAP	191	0	1
BXTAP	191	0	6

T_REC_TAP	406
T_REC_BRK	19
T_REC_XTP	90
T_REC_BXX	10
T_REC_HLD	70
T_REC_XHO	10
T_REC_BHO	2
T_REC_BXH	0
T_REC_STR	33
T_REC_BST	8
T_REC_XST	10
T_REC_XBS	3
T_REC_TTP	55
T_REC_THO	0
T_REC_SLD	53
T_REC_BSL	2
T_REC_ALL	771
T_NUM_TAP	594
T_NUM_BRK	44
T_NUM_HLD	80
T_NUM_SLD	53
T_NUM_ALL	771
T_JUDGE_TAP	634
T_JUDGE_HLD	243
T_JUDGE_SLD	55
T_JUDGE_ALL	932
TTM_EACHPAIRS	145
TTM_SCR_TAP	297000
TTM_SCR_BRK	114400
TTM_SCR_HLD	80000
TTM_SCR_SLD	79500
TTM_SCR_ALL	570900
TTM_SCR_S	549550
TTM_SCR_SS	566500
TTM_RAT_ACV	10077

