VERSION	0.00.00	1.05.00
FES_MODE	0
BPM_DEF	280.000	280.000	280.000	280.000
MET_DEF	4	4
RESOLUTION	384
CLK_DEF	384
COMPATIBLE_CODE	MA2

BPM	0	0	280.000
MET	0	0	4	4

NMTAP	3	0	7
NMTAP	3	192	7
NMTAP	4	0	6
NMTAP	4	192	6
NMTAP	5	0	5
NMTAP	5	192	5
BXTAP	6	0	3
BXTAP	6	0	4
NMTAP	7	0	3
NMTAP	7	192	3
NMTAP	8	0	2
NMTAP	8	192	2
NMTAP	9	0	1
NMTAP	9	192	1
BXTAP	10	0	0
BXTAP	10	0	7
NMTAP	11	0	0
NMTAP	11	192	1
NMTAP	12	0	2
NMTAP	12	192	3
NMTAP	13	0	4
NMTAP	13	192	5
NMTAP	14	0	6
NMTAP	14	0	7
NMTAP	15	0	0
NMTAP	15	0	1
NMTAP	15	192	0
NMTAP	15	192	1
NMTAP	16	0	0
NMTAP	16	0	1
NMTAP	17	0	0
NMTAP	17	0	7
NMTAP	17	192	0
NMTAP	17	192	7
NMSTR	18	0	0
NMSCR	18	0	0	96	384	3
NMSTR	18	0	7
NMSCL	18	0	7	96	384	4
NMHLD	22	0	2	384
NMHLD	23	0	3	384
NMHLD	24	0	4	384
NMTAP	25	0	5
NMHLD	26	0	5	384
NMHLD	27	0	4	384
NMHLD	28	0	3	384
NMTAP	29	0	2
NMTAP	30	0	4
NMTAP	30	96	4
NMTAP	30	192	4
NMTAP	31	0	5
NMTAP	31	96	5
NMTAP	31	192	5
NMTAP	32	0	6
NMTAP	32	96	6
NMTAP	32	192	6
NMTAP	33	0	0
NMTAP	33	0	7
NMTAP	33	192	0
NMTAP	33	192	7
NMTAP	34	0	0
NMTAP	34	96	0
NMTAP	34	192	0
NMTAP	35	0	1
NMTAP	35	96	1
NMTAP	35	192	1
NMTAP	36	0	2
NMTAP	36	96	2
NMTAP	36	192	2
NMTAP	37	0	3
NMTAP	37	0	4
NMTAP	37	192	3
NMTAP	37	192	4
NMTAP	38	0	2
NMTAP	38	96	2
NMTAP	38	192	2
NMTAP	39	0	0
NMTAP	39	0	1
NMTAP	39	192	0
NMTAP	39	192	1
NMTAP	40	0	7
NMTAP	40	96	7
NMTAP	40	192	7
NMTAP	41	0	6
NMTAP	41	0	7
NMTAP	41	192	6
NMTAP	41	192	7
NMTAP	42	0	5
NMTAP	42	96	5
NMTAP	42	192	5
NMTAP	43	0	6
NMTAP	43	0	7
NMTAP	43	192	6
NMTAP	43	192	7
NMTAP	44	0	0
NMTAP	44	96	0
NMTAP	44	192	0
NMTAP	45	0	0
NMTAP	45	0	1
NMTTP	46	0	1	E	0	L1
NMTTP	46	192	1	B	0	L1
NMTTP	47	0	2	B	0	L1
NMTTP	48	0	7	E	0	L1
NMTTP	48	192	6	B	0	L1
NMTTP	49	0	5	B	0	L1
NMTTP	50	0	1	B	0	L1
NMTTP	50	192	2	B	0	L1
NMTTP	51	0	3	B	0	L1
NMTTP	51	192	4	B	0	L1
NMTTP	52	0	0	C	1	L1
NMTTP	54	0	7	B	0	L1
NMTTP	54	192	6	B	0	L1
NMTTP	55	0	4	B	0	L1
NMTTP	55	0	5	B	0	L1
NMTTP	56	0	0	B	0	L1
NMTTP	56	192	1	B	0	L1
NMTTP	57	0	2	B	0	L1
NMTTP	57	0	3	B	0	L1
NMTTP	58	0	6	E	0	L1
NMTTP	58	192	5	E	0	L1
NMTTP	59	0	4	E	0	L1
NMTTP	59	192	3	E	0	L1
NMTTP	60	0	0	C	1	L1
EXSTR	62	0	7
NMSCL	62	0	7	96	384	4
EXSTR	64	0	3
NMSCL	64	0	3	96	384	0
EXSTR	66	0	7
NMSSR	66	0	7	96	480	3
NMTAP	70	0	2
NMTAP	70	96	2
NMTAP	70	192	2
NMTAP	71	0	3
NMTAP	71	96	3
NMTAP	71	192	3
NMTAP	72	0	4
NMTAP	72	96	4
NMTAP	72	192	4
NMTAP	73	0	5
NMTAP	73	96	5
NMTAP	73	192	5
NMTAP	74	0	3
NMTAP	74	0	4
NMTAP	74	96	3
NMTAP	74	96	4
NMTAP	74	192	3
NMTAP	74	192	4
NMTAP	75	0	2
NMTAP	75	0	5
NMTAP	75	96	2
NMTAP	75	96	5
NMTAP	75	192	2
NMTAP	75	192	5
NMSTR	76	0	3
NMSI_	76	0	3	96	288	0
NMSTR	76	0	4
NMSI_	76	0	4	96	288	7
NMTAP	78	0	1
NMTAP	78	96	1
NMTAP	78	192	1
NMTAP	79	0	0
NMTAP	79	0	1
NMTAP	79	96	0
NMTAP	79	96	1
NMTAP	79	192	0
NMTAP	79	192	1
NMTAP	80	0	7
NMTAP	80	96	7
NMTAP	80	192	7
NMTAP	81	0	6
NMTAP	81	0	7
NMTAP	81	96	6
NMTAP	81	96	7
NMTAP	81	192	6
NMTAP	81	192	7
NMTAP	82	0	5
NMTAP	82	96	5
NMTAP	82	192	5
NMTAP	83	0	6
NMTAP	83	0	7
NMTAP	83	96	6
NMTAP	83	96	7
NMTAP	83	192	6
NMTAP	83	192	7
NMTAP	84	0	0
NMTAP	84	96	0
NMTAP	84	192	0
BXTAP	85	0	0
BXTAP	85	0	1
NMTAP	86	0	1
NMTAP	86	96	1
NMTAP	86	192	1
NMTAP	87	0	2
NMTAP	87	0	3
NMTAP	87	96	2
NMTAP	87	96	3
NMTAP	87	192	2
NMTAP	87	192	3
NMTAP	88	0	4
NMTAP	88	96	4
NMTAP	88	192	4
NMTAP	89	0	4
NMTAP	89	0	5
NMTAP	89	96	4
NMTAP	89	96	5
NMTAP	89	192	4
NMTAP	89	192	5
NMTAP	90	0	6
NMTAP	90	96	6
NMTAP	90	192	6
NMTAP	91	0	4
NMTAP	91	0	5
NMTAP	91	96	4
NMTAP	91	96	5
NMTAP	91	192	4
NMTAP	91	192	5
NMTAP	92	0	3
NMTAP	92	96	3
NMTAP	92	192	3
BRTAP	93	0	2
BRTAP	93	0	3
NMTAP	94	0	2
NMTAP	94	96	2
NMTAP	94	192	1
NMTAP	94	288	1
NMTAP	95	0	0
NMTAP	95	96	0
NMTAP	95	192	6
NMTAP	95	192	7
NMTAP	96	0	5
NMTAP	96	96	5
NMTAP	96	192	6
NMTAP	96	288	6
NMTAP	97	0	7
NMTAP	97	96	7
NMTAP	97	192	0
NMTAP	97	192	1
NMTAP	98	0	1
NMTAP	98	96	1
NMTAP	98	192	2
NMTAP	98	288	2
NMTAP	99	0	3
NMTAP	99	96	3
NMTAP	99	192	4
NMTAP	99	192	5
NMTAP	100	0	6
NMTAP	100	96	6
NMTAP	100	192	5
NMTAP	100	288	5
NMTAP	101	0	4
NMTAP	101	96	4
NMTAP	101	192	2
NMTAP	101	192	3
NMHLD	102	0	1	192
NMTAP	102	192	0
NMTAP	103	0	1
NMTAP	103	96	1
NMTAP	103	192	0
NMTAP	103	192	1
NMHLD	104	0	2	192
NMTAP	104	192	3
NMTAP	105	0	2
NMTAP	105	96	2
NMTAP	105	192	2
NMTAP	105	192	3
NMHLD	106	0	5	192
NMTAP	106	192	4
NMTAP	107	0	5
NMTAP	107	96	5
NMTAP	107	192	4
NMTAP	107	192	5
NMHLD	108	0	6	192
NMTAP	108	192	7
NMTAP	109	0	6
NMTAP	109	96	6
NMTAP	109	192	6
NMTAP	109	192	7
EXSTR	110	0	0
NMSXL	110	0	0	96	864	3
EXSTR	110	0	7
NMSXR	110	0	7	96	864	4
NMHLD	114	0	2	384
NMHLD	115	0	3	384
NMHLD	116	0	4	384
NMTAP	117	0	5
NMHLD	118	0	6	384
NMHLD	119	0	5	384
NMHLD	120	0	4	384
NMTAP	121	0	3
NMHLD	122	0	1	384
NMHLD	123	0	2	384
NMHLD	124	0	3	384
NMTAP	125	0	4
NMTAP	126	0	2
NMTAP	126	96	2
NMTAP	126	192	2
NMTAP	126	192	3
NMTAP	127	0	1
NMTAP	127	96	1
NMTAP	127	192	0
NMTAP	127	192	1
NMTAP	128	0	6
NMTAP	128	96	6
NMTAP	128	192	6
NMTAP	128	192	7
NMTAP	129	0	4
NMTAP	129	0	5
NMTAP	129	96	4
NMTAP	129	96	5
NMTAP	129	192	4
NMTAP	129	192	5
NMTAP	130	0	6
NMTAP	130	96	6
NMTAP	130	192	6
NMTAP	130	192	7
NMTAP	131	0	1
NMTAP	131	96	1
NMTAP	131	192	0
NMTAP	131	192	1
NMTAP	132	0	2
NMTAP	132	96	2
NMTAP	132	192	2
NMTAP	132	192	3
NMTAP	133	0	3
NMTAP	133	0	4
NMTTP	134	0	2	B	0	L1
NMTTP	134	192	1	B	0	L1
NMTTP	135	0	0	B	0	L1
NMTTP	135	192	7	B	0	L1
NMTTP	136	0	6	B	0	L1
NMTTP	136	192	5	B	0	L1
NMTTP	137	0	3	B	0	L1
NMTTP	137	0	4	B	0	L1
NMTTP	138	0	6	E	0	L1
NMTTP	138	192	7	E	0	L1
NMTTP	139	0	0	E	0	L1
NMTTP	139	192	1	E	0	L1
NMTTP	140	0	2	E	0	L1
NMTTP	140	192	3	E	0	L1
NMTTP	141	0	4	E	0	L1
NMTTP	141	0	5	E	0	L1
NMTAP	142	0	6
NMTAP	142	96	6
NMTAP	142	192	6
NMTAP	142	192	7
NMTAP	142	288	6
NMTAP	142	288	7
NMTAP	143	0	5
NMTAP	143	96	5
NMTAP	143	192	4
NMTAP	143	192	5
NMTAP	144	0	2
NMTAP	144	96	2
NMTAP	144	192	2
NMTAP	144	192	3
NMTAP	144	288	2
NMTAP	144	288	3
NMTAP	145	0	1
NMTAP	145	96	1
NMTAP	145	192	0
NMTAP	145	192	1
NMTAP	146	0	1
NMTAP	146	96	1
NMTAP	146	192	0
NMTAP	146	192	1
NMTAP	146	288	0
NMTAP	146	288	1
NMTAP	147	0	2
NMTAP	147	96	2
NMTAP	147	192	2
NMTAP	147	192	3
NMTAP	148	0	5
NMTAP	148	96	5
NMTAP	148	192	4
NMTAP	148	192	5
NMTAP	148	288	4
NMTAP	148	288	5
NMTAP	149	0	6
NMTAP	149	96	6
BXTAP	149	192	6
BXTAP	149	192	7
NMTAP	150	0	7
NMTAP	150	96	7
NMTAP	150	192	6
NMTAP	150	288	6
NMTAP	151	0	5
NMTAP	151	96	5
NMTAP	151	192	4
NMTAP	151	288	4
NMTAP	152	0	3
NMTAP	152	96	3
NMTAP	152	192	2
NMTAP	152	288	2
NMTAP	153	0	1
NMTAP	153	96	1
NMTAP	153	192	0
NMTAP	153	192	7
NMTAP	154	0	0
NMTAP	154	96	0
NMTAP	154	192	1
NMTAP	154	288	1
NMTAP	155	0	2
NMTAP	155	96	2
NMTAP	155	192	3
NMTAP	155	288	3
NMTAP	156	0	4
NMTAP	156	96	4
NMTAP	156	192	5
NMTAP	156	288	5
NMTAP	157	0	6
NMTAP	157	96	6
NMTAP	157	192	0
NMTAP	157	192	7
NMTAP	158	0	6
NMTAP	158	96	6
NMTAP	158	192	6
NMTAP	158	192	7
NMTAP	158	288	6
NMTAP	158	288	7
NMTAP	159	0	5
NMTAP	159	96	5
NMTAP	159	192	3
NMTAP	159	192	4
NMTAP	159	288	3
NMTAP	159	288	4
NMTAP	160	0	2
NMTAP	160	96	2
NMTAP	160	192	2
NMTAP	160	192	3
NMTAP	160	288	2
NMTAP	160	288	3
NMTAP	161	0	1
NMTAP	161	96	1
NMTAP	161	192	0
NMTAP	161	192	7
NMTAP	162	0	1
NMTAP	162	96	1
NMTAP	162	192	0
NMTAP	162	192	1
NMTAP	162	288	0
NMTAP	162	288	1
NMTAP	163	0	2
NMTAP	163	96	2
NMTAP	163	192	3
NMTAP	163	192	4
NMTAP	163	288	3
NMTAP	163	288	4
NMTAP	164	0	5
NMTAP	164	96	5
NMTAP	164	192	4
NMTAP	164	192	5
NMTAP	164	288	4
NMTAP	164	288	5
NMTAP	165	0	6
NMTAP	165	96	6
NMTAP	165	192	0
NMTAP	165	192	7
NMHLD	166	0	0	576
NMHLD	166	0	7	576
NMSTR	168	0	1
NMSI_	168	0	1	96	384	5
NMSTR	170	0	7
NMSI_	170	0	7	96	384	3
NMSTR	172	0	1
NMSLR	172	0	1	96	480	5
NMSTR	174	0	6
NMSLL	174	0	6	96	480	2
NMHLD	176	0	1	384
NMTAP	177	0	0
NMHLD	178	0	6	384
NMTAP	179	0	7
BXTAP	180	0	6
BXTAP	180	0	7
NMTAP	180	192	6
NMTAP	180	192	7
BXTAP	181	0	4
BXTAP	181	0	5
NMTAP	181	192	4
NMTAP	181	192	5
BXTAP	182	0	2
BXTAP	182	0	3
NMTAP	182	192	2
NMTAP	182	192	3
BXTAP	183	0	0
BXTAP	183	0	1
NMTAP	183	192	0
NMTAP	183	192	1
NMTAP	184	0	0
NMTAP	184	0	7
NMTAP	184	96	0
NMTAP	184	96	7
NMTAP	184	192	0
NMTAP	184	192	7
NMTAP	185	0	1
NMTAP	185	0	6
NMTAP	185	96	1
NMTAP	185	96	6
NMTAP	185	192	1
NMTAP	185	192	6
NMTAP	186	0	2
NMTAP	186	0	5
NMTAP	186	96	2
NMTAP	186	96	5
NMTAP	186	192	2
NMTAP	186	192	5
NMTAP	187	0	3
NMTAP	187	0	4
NMTAP	187	96	3
NMTAP	187	96	4
NMTAP	187	192	3
NMTAP	187	192	4
NMTAP	188	0	2
NMTAP	188	0	5
NMTAP	188	96	2
NMTAP	188	96	5
NMTAP	188	192	2
NMTAP	188	192	5
NMHLD	189	0	1	384
NMHLD	189	0	6	384
NMTAP	190	192	0
NMTAP	190	192	7
NMTAP	190	288	0
NMTAP	190	288	7
BRTAP	191	0	0
BRTAP	191	0	7

T_REC_TAP	413
T_REC_BRK	4
T_REC_XTP	0
T_REC_BXX	16
T_REC_HLD	25
T_REC_XHO	0
T_REC_BHO	0
T_REC_BXH	0
T_REC_STR	8
T_REC_BST	0
T_REC_XST	5
T_REC_XBS	0
T_REC_TTP	40
T_REC_THO	0
T_REC_SLD	13
T_REC_BSL	0
T_REC_ALL	524
T_NUM_TAP	466
T_NUM_BRK	20
T_NUM_HLD	25
T_NUM_SLD	13
T_NUM_ALL	524
T_JUDGE_TAP	486
T_JUDGE_HLD	96
T_JUDGE_SLD	13
T_JUDGE_ALL	595
TTM_EACHPAIRS	122
TTM_SCR_TAP	233000
TTM_SCR_BRK	52000
TTM_SCR_HLD	25000
TTM_SCR_SLD	19500
TTM_SCR_ALL	329500
TTM_SCR_S	317700
TTM_SCR_SS	327500
TTM_RAT_ACV	10061

