VERSION	0.00.00	1.05.00
FES_MODE	0
BPM_DEF	280.000	280.000	280.000	280.000
MET_DEF	4	4
RESOLUTION	384
CLK_DEF	384
COMPATIBLE_CODE	MA2

BPM	0	0	280.000
MET	0	0	4	4

EXTAP	3	0	3
NMTAP	4	0	2
NMTAP	5	0	1
NMTAP	6	0	0
NMTAP	7	0	7
NMTAP	8	0	6
NMTAP	9	0	5
EXTAP	10	0	3
EXTAP	10	0	4
NMTAP	11	0	4
NMTAP	11	192	4
NMTAP	12	0	5
NMTAP	13	0	6
NMTAP	13	192	6
NMTAP	14	0	7
NMTAP	15	0	0
NMTAP	15	192	0
NMTAP	16	0	1
NMTAP	17	0	2
NMTAP	17	192	2
NMTAP	18	0	3
NMTAP	18	192	3
NMTAP	19	0	3
NMTAP	19	0	4
NMTAP	19	192	3
NMTAP	19	192	4
NMTAP	22	0	3
NMTAP	23	0	2
NMTAP	24	0	1
NMTAP	25	0	0
NMTAP	26	0	7
NMTAP	27	0	6
NMTAP	28	0	5
NMTAP	29	0	4
NMTAP	30	0	5
NMTAP	30	192	5
NMTAP	31	0	4
NMTAP	31	0	5
NMTAP	32	0	6
NMTAP	32	192	6
NMTAP	33	0	6
NMTAP	33	0	7
NMTAP	34	0	0
NMTAP	34	192	0
NMTAP	35	0	0
NMTAP	35	0	1
NMTAP	36	0	2
NMTAP	36	192	2
NMTAP	37	0	2
NMTAP	37	0	3
BXTAP	38	0	3
NMTAP	38	192	3
NMTAP	39	0	2
NMTAP	39	192	2
NMTAP	40	0	1
NMTAP	40	192	1
NMTAP	41	0	0
NMTAP	41	0	7
NMTAP	42	0	7
NMTAP	42	192	7
NMTAP	43	0	6
NMTAP	43	192	6
NMTAP	44	0	5
NMTAP	44	192	5
EXTAP	45	0	3
EXTAP	45	0	4
NMTTP	46	0	4	E	0	L1
NMTTP	48	0	3	B	0	L1
NMTTP	48	0	4	B	0	L1
NMTTP	50	0	2	B	0	L1
NMTTP	50	0	5	B	0	L1
NMTTP	52	0	0	C	1	L1
EXSTR	54	0	0
NMSI_	54	0	0	96	480	4
NMTAP	57	0	6
NMSTR	58	0	7
NMSI_	58	0	7	96	480	3
NMTAP	61	0	1
NMSTR	62	0	1
NMSI_	62	0	1	96	480	5
NMTAP	65	0	6
NMSTR	66	0	6
NMSI_	66	0	6	96	480	2
NMTAP	69	0	0
BRTAP	70	0	0
NMTAP	70	192	0
NMTAP	71	0	0
NMTAP	71	0	1
NMTAP	71	192	0
NMTAP	71	192	1
NMTAP	72	0	2
NMTAP	72	192	2
NMTAP	73	0	3
NMTAP	73	0	4
NMTAP	73	192	3
NMTAP	73	192	4
NMTAP	74	0	5
NMTAP	74	192	5
NMTAP	75	0	4
NMTAP	75	0	5
NMTAP	75	192	4
NMTAP	75	192	5
NMTAP	76	0	6
NMTAP	76	192	6
EXTAP	77	0	0
EXTAP	77	0	7
BRTAP	78	0	7
NMTAP	78	96	7
NMTAP	78	192	7
NMTAP	79	0	6
NMTAP	79	192	6
NMTAP	80	0	5
NMTAP	80	192	5
NMTAP	81	0	4
NMTAP	81	0	5
NMTAP	82	0	3
NMTAP	82	96	3
NMTAP	82	192	3
NMTAP	83	0	2
NMTAP	83	192	2
NMTAP	84	0	1
NMTAP	84	192	1
NMTAP	85	0	0
NMTAP	85	0	1
NMTAP	86	0	0
NMTAP	86	96	0
NMTAP	86	192	0
NMTAP	87	0	1
NMTAP	87	192	1
NMTAP	88	0	2
NMTAP	88	192	2
NMTAP	89	0	3
NMTAP	89	0	4
NMTAP	90	0	4
NMTAP	90	96	4
NMTAP	90	192	4
NMTAP	91	0	5
NMTAP	91	192	5
NMTAP	92	0	6
NMTAP	92	192	6
EXTAP	93	0	0
EXTAP	93	0	7
NMTAP	94	0	7
NMTAP	94	96	7
NMTAP	94	192	7
NMTAP	95	0	6
NMTAP	95	192	6
NMTAP	96	0	5
NMTAP	96	96	5
NMTAP	96	192	5
NMTAP	97	0	4
NMTAP	97	192	4
NMTAP	98	0	3
NMTAP	98	96	3
NMTAP	98	192	3
NMTAP	99	0	2
NMTAP	99	192	2
NMTAP	100	0	1
NMTAP	100	96	1
NMTAP	100	192	1
EXTAP	101	0	0
EXTAP	101	0	7
NMTAP	102	0	1
NMTAP	102	96	1
NMTAP	102	192	1
NMTAP	103	0	0
NMTAP	103	0	1
NMTAP	104	0	2
NMTAP	104	96	2
NMTAP	104	192	2
NMTAP	105	0	2
NMTAP	105	0	3
NMTAP	106	0	5
NMTAP	106	96	5
NMTAP	106	192	5
NMTAP	107	0	4
NMTAP	107	0	5
NMTAP	108	0	6
NMTAP	108	96	6
NMTAP	108	192	6
NMTAP	109	0	6
NMTAP	109	0	7
NMHLD	110	0	6	384
NMHLD	110	0	7	384
NMHLD	112	0	4	384
NMHLD	112	0	5	384
NMHLD	114	0	2	384
NMHLD	114	0	3	384
NMHLD	116	0	0	384
NMHLD	116	0	1	384
NMTTP	118	0	0	B	0	L1
NMTTP	118	0	1	B	0	L1
NMTTP	120	0	2	B	0	L1
NMTTP	120	0	3	B	0	L1
NMTTP	122	0	4	B	0	L1
NMTTP	122	0	5	B	0	L1
NMTTP	124	0	6	B	0	L1
NMTTP	124	0	7	B	0	L1
NMTTP	126	0	0	E	0	L1
NMTTP	127	0	0	B	0	L1
NMTTP	127	0	7	B	0	L1
NMTTP	128	0	1	B	0	L1
NMTTP	128	0	6	B	0	L1
NMTTP	129	0	2	B	0	L1
NMTTP	129	0	5	B	0	L1
NMTTP	130	0	3	B	0	L1
NMTTP	130	0	4	B	0	L1
NMTTP	131	0	2	B	0	L1
NMTTP	131	0	5	B	0	L1
NMTTP	132	0	1	B	0	L1
NMTTP	132	0	6	B	0	L1
NMTTP	133	0	0	C	0	L1
BXTAP	134	0	0
NMTAP	134	96	0
NMTAP	134	192	0
NMTAP	135	0	1
NMTAP	135	96	1
NMTAP	135	192	1
NMTAP	136	0	2
NMTAP	136	96	2
NMTAP	136	192	2
NMTAP	137	0	3
NMTAP	137	0	4
NMTAP	138	0	4
NMTAP	138	96	4
NMTAP	138	192	4
NMTAP	139	0	5
NMTAP	139	96	5
NMTAP	139	192	5
NMTAP	140	0	6
NMTAP	140	96	6
NMTAP	140	192	6
EXTAP	141	0	0
EXTAP	141	0	7
NMTAP	142	0	7
NMTAP	142	96	7
NMTAP	142	192	7
NMTAP	143	0	6
NMTAP	143	96	6
NMTAP	143	192	6
NMTAP	144	0	4
NMTAP	144	0	5
NMTAP	144	192	4
NMTAP	144	192	5
NMTAP	145	0	4
NMTAP	145	0	5
NMTAP	146	0	3
NMTAP	146	96	3
NMTAP	146	192	3
NMTAP	147	0	2
NMTAP	147	96	2
NMTAP	147	192	2
NMTAP	148	0	0
NMTAP	148	0	1
NMTAP	148	192	0
NMTAP	148	192	1
NMTAP	149	0	0
NMTAP	149	0	1
BRTAP	150	0	0
NMTAP	150	96	0
NMTAP	150	192	0
NMTAP	151	0	1
NMTAP	151	96	1
NMTAP	151	192	1
NMTAP	152	0	2
NMTAP	152	96	2
NMTAP	152	192	2
NMTAP	153	0	3
NMTAP	153	96	3
NMTAP	153	192	3
NMTAP	154	0	4
NMTAP	154	96	4
NMTAP	154	192	4
NMTAP	155	0	5
NMTAP	155	96	5
NMTAP	155	192	5
NMTAP	156	0	6
NMTAP	156	96	6
NMTAP	156	192	6
NMTAP	157	0	0
NMTAP	157	0	7
NMTAP	158	0	7
NMTAP	158	96	7
NMTAP	158	192	7
NMTAP	159	0	6
NMTAP	159	0	7
NMTAP	159	192	6
NMTAP	159	192	7
NMTAP	160	0	5
NMTAP	160	96	5
NMTAP	160	192	5
NMTAP	161	0	3
NMTAP	161	0	4
NMTAP	161	192	3
NMTAP	161	192	4
NMTAP	162	0	3
NMTAP	162	96	3
NMTAP	162	192	3
NMTAP	163	0	2
NMTAP	163	0	3
NMTAP	163	192	2
NMTAP	163	192	3
NMTAP	164	0	1
NMTAP	164	96	1
NMTAP	164	192	1
NMTAP	165	0	0
NMTAP	165	0	7
NMTAP	165	192	0
NMTAP	165	192	7
BRTAP	166	0	0
BRTAP	166	0	7
NMSTR	168	0	7
NMSI_	168	0	7	96	480	4
NMTAP	171	0	3
NMTAP	171	0	4
NMSTR	172	0	3
NMSI_	172	0	3	96	480	0
NMTAP	175	0	0
NMTAP	175	0	7
NMTAP	176	0	0
NMTAP	177	0	1
NMTAP	178	0	2
NMTAP	179	0	3
NMTAP	179	0	4
NMTAP	179	192	3
NMTAP	179	192	4
NMTAP	180	0	5
NMTAP	180	192	5
NMTAP	181	0	6
NMTAP	181	192	6
NMTAP	182	0	7
NMTAP	182	192	7
NMTAP	183	0	0
NMTAP	183	0	7
NMTAP	184	0	6
NMTAP	184	96	6
NMTAP	184	192	6
NMTAP	185	0	5
NMTAP	185	96	5
NMTAP	185	192	5
NMTAP	186	0	4
NMTAP	186	96	4
NMTAP	186	192	4
NMTAP	187	0	3
NMTAP	187	0	4
NMTAP	187	96	3
NMTAP	187	96	4
NMTAP	187	192	3
NMTAP	187	192	4
NMTAP	188	0	2
NMTAP	188	96	2
NMTAP	188	192	2
NMTAP	189	0	1
NMTAP	189	96	1
NMTAP	189	192	1
EXTAP	190	0	0
EXTAP	190	0	7
NMTAP	190	192	1
NMTAP	190	192	6
NMTAP	190	288	1
NMTAP	190	288	6
BRTAP	191	0	1
BRTAP	191	0	6

T_REC_TAP	291
T_REC_BRK	7
T_REC_XTP	15
T_REC_BXX	2
T_REC_HLD	8
T_REC_XHO	0
T_REC_BHO	0
T_REC_BXH	0
T_REC_STR	5
T_REC_BST	0
T_REC_XST	1
T_REC_XBS	0
T_REC_TTP	28
T_REC_THO	0
T_REC_SLD	6
T_REC_BSL	0
T_REC_ALL	363
T_NUM_TAP	340
T_NUM_BRK	9
T_NUM_HLD	8
T_NUM_SLD	6
T_NUM_ALL	363
T_JUDGE_TAP	349
T_JUDGE_HLD	32
T_JUDGE_SLD	6
T_JUDGE_ALL	387
TTM_EACHPAIRS	59
TTM_SCR_TAP	170000
TTM_SCR_BRK	23400
TTM_SCR_HLD	8000
TTM_SCR_SLD	9000
TTM_SCR_ALL	210400
TTM_SCR_S	203250
TTM_SCR_SS	209500
TTM_RAT_ACV	10042

