VERSION	0.00.00	1.05.00
FES_MODE	0
BPM_DEF	220.000	220.000	220.000	220.000
MET_DEF	4	4
RESOLUTION	384
CLK_DEF	384
COMPATIBLE_CODE	MA2

BPM	0	0	220.000
MET	0	0	4	4
MET	10	0	4	9
MET	16	288	4	4
MET	28	288	8	7
MET	34	336	4	4
MET	35	336	8	7
MET	40	96	8	6
MET	41	0	8	7
MET	41	336	4	4
MET	45	336	4	3
MET	46	240	4	4
MET	49	240	4	3
MET	50	144	4	4
MET	53	144	4	3
MET	54	48	4	4
MET	57	48	4	3
MET	57	336	4	4
MET	74	336	4	9
MET	81	240	4	4
MET	84	240	4	9
MET	91	144	4	4
MET	95	144	8	7
MET	108	192	8	9
MET	109	240	8	7
MET	113	48	4	4
MET	117	48	8	7
MET	118	336	4	4

NMSTR	2	0	1
NMSUR	2	0	1	96	48	5
NMTAP	2	96	6
NMSTR	2	144	7
NMSCL	2	144	7	96	48	3
NMTAP	2	240	1
NMSTR	2	288	0
NMSI_	2	288	0	96	96	6
CNSUR	3	96	6	0	96	2
NMTAP	3	192	4
NMTAP	3	288	4
NMSTR	4	0	6
NMSUL	4	0	6	96	48	2
NMTAP	4	96	1
NMSTR	4	144	0
NMSCR	4	144	0	96	48	4
NMTAP	4	240	6
NMSTR	4	288	7
NMSI_	4	288	7	96	96	1
CNSUL	5	96	1	0	96	5
NMTAP	5	192	3
NMTAP	5	288	3
NMSTR	6	0	1
NMSUR	6	0	1	96	48	5
NMTAP	6	96	6
NMSTR	6	144	7
NMSCL	6	144	7	96	48	3
NMTAP	6	240	1
NMSTR	6	288	0
NMSI_	6	288	0	96	96	6
CNSUR	7	96	6	0	96	2
NMTAP	7	192	4
NMTAP	7	288	4
NMSTR	8	0	6
NMSUL	8	0	6	96	48	2
NMTAP	8	96	1
NMSTR	8	144	0
NMSCR	8	144	0	96	48	4
NMTAP	8	240	6
NMHLD	8	288	7	384
NMSTR	9	288	4
NMSCL	9	288	4	96	48	2
NMTAP	10	0	4
NMSTR	10	0	5
NMSI_	10	0	5	96	48	7
NMSTR	10	96	3
NMSI_	10	96	3	96	48	0
NMTAP	10	96	5
NMTAP	10	192	3
NMSTR	10	192	4
NMSCR	10	192	4	96	96	2
NMTAP	10	288	4
EXTAP	11	96	2
EXTAP	11	96	4
EXTAP	11	144	2
EXTAP	11	144	4
NMTAP	11	240	1
NMTAP	11	240	5
NMSTR	11	288	1
NMSI_	11	288	1	96	48	7
NMTAP	11	288	5
NMSTR	12	0	3
NMSCR	12	0	3	96	48	5
NMSTR	12	96	2
NMSI_	12	96	2	96	48	0
NMTAP	12	96	3
NMTAP	12	192	2
NMSTR	12	192	4
NMSI_	12	192	4	96	48	7
NMSTR	12	288	3
NMSCL	12	288	3	96	96	5
NMTAP	12	288	4
NMTAP	13	0	3
EXTAP	13	192	3
EXTAP	13	192	5
EXTAP	13	240	3
EXTAP	13	240	5
NMTAP	13	336	2
NMTAP	13	336	6
NMTAP	14	0	2
NMHLD	14	0	6	96
NMTAP	14	48	3
NMSTR	14	96	4
NMSCL	14	96	4	96	48	2
NMTAP	14	192	4
NMSTR	14	192	5
NMSI_	14	192	5	96	48	7
NMSTR	14	288	3
NMSI_	14	288	3	96	48	0
NMTAP	14	288	5
NMTAP	15	0	3
NMSTR	15	0	4
NMSCR	15	0	4	96	96	2
NMTAP	15	96	4
EXTAP	15	288	2
EXTAP	15	288	4
EXTAP	15	336	2
EXTAP	15	336	4
NMTAP	16	48	1
NMTAP	16	48	5
NMSTR	16	96	1
NMSI_	16	96	1	96	48	7
NMTAP	16	96	5
NMSTR	16	192	3
NMSCR	16	192	3	96	48	5
NMSTR	16	288	2
NMSI_	16	288	2	96	48	0
NMTAP	16	288	3
NMTAP	17	0	2
NMSTR	17	0	4
NMSI_	17	0	4	96	48	7
NMTAP	17	96	3
NMTAP	17	96	4
NMTAP	17	192	3
NMHLD	17	288	4	96
NMHLD	17	288	6	96
NMHLD	18	48	1	96
NMHLD	18	48	3	96
NMHLD	18	192	5	384
NMHLD	18	192	7	480
NMTAP	19	288	4
NMTAP	20	0	4
NMTAP	20	96	3
NMTAP	20	144	3
NMTAP	20	192	4
NMTAP	20	240	4
NMTTP	20	288	3	E	0	M1
NMTAP	21	48	0
NMTAP	21	96	0
NMTTP	21	96	3	B	0	M1
NMTAP	21	192	7
NMTTP	21	288	4	B	0	M1
NMTAP	21	336	0
NMTAP	22	48	0
NMTTP	22	96	5	E	0	M1
EXTAP	22	240	7
NMTTP	22	288	3	E	0	M1
NMTAP	23	48	0
NMTAP	23	96	0
NMTTP	23	96	3	B	0	M1
NMTAP	23	240	7
NMTTP	23	288	4	B	0	M1
NMTAP	23	336	6
NMTAP	24	48	5
NMTTP	24	96	5	E	0	M1
NMTTP	24	288	3	E	0	M1
NMTAP	25	48	0
NMTAP	25	96	0
NMTTP	25	96	3	B	0	M1
NMTTP	25	288	4	B	0	M1
NMTAP	25	336	7
NMTAP	26	48	7
NMTTP	26	96	5	E	0	M1
NMTAP	26	288	4
NMTAP	26	288	5
NMTAP	26	336	4
NMTAP	26	336	5
NMTAP	27	96	2
NMTAP	27	96	3
NMTAP	27	144	2
NMTAP	27	144	3
NMTAP	27	288	2
NMTAP	27	288	4
NMTAP	27	336	2
NMTAP	27	336	4
NMTAP	28	48	3
NMTAP	28	48	5
NMSTR	28	96	3
NMSCL	28	96	3	96	48	0
NMTAP	28	96	5
NMTAP	28	192	4
NMTAP	28	288	4
NMTAP	28	336	6
NMTTP	29	0	3	E	1	M1
NMTAP	29	48	1
NMTAP	29	96	4
NMTTP	29	144	6	E	1	M1
NMTAP	29	192	7
NMTAP	29	240	3
NMTTP	29	288	2	E	0	M1
NMTAP	29	336	4
NMTAP	30	0	6
NMTTP	30	48	3	E	0	M1
NMTAP	30	96	1
NMTAP	30	144	0
NMTTP	30	192	4	E	0	M1
NMTAP	30	240	6
NMTTP	30	288	3	E	1	M1
NMTAP	30	336	1
NMTAP	31	0	4
NMTTP	31	48	6	E	1	M1
NMTAP	31	96	7
NMTAP	31	144	7
NMTAP	31	192	6
NMTAP	31	240	5
NMTAP	31	288	3
NMTAP	31	288	4
NMTAP	31	336	2
NMTAP	32	0	1
NMTAP	32	48	0
NMTAP	32	96	4
NMTAP	32	144	6
NMTTP	32	192	3	E	1	M1
NMTAP	32	240	1
NMTAP	32	288	4
NMTTP	32	336	6	E	1	M1
NMTAP	33	0	7
NMTAP	33	48	3
NMTTP	33	96	2	E	0	M1
NMTAP	33	144	4
NMTAP	33	192	6
NMTTP	33	240	3	E	0	M1
NMTAP	33	288	1
NMTAP	33	336	0
NMTTP	34	0	4	E	0	M1
NMTAP	34	48	6
NMTAP	34	96	3
NMTTP	34	144	2	E	0	M1
NMTAP	34	192	4
NMTAP	34	240	6
NMTAP	34	288	7
EXTAP	34	336	0
EXTAP	34	336	7
EXTAP	35	0	0
EXTAP	35	0	7
EXTAP	35	96	1
EXTAP	35	96	3
EXTAP	35	192	3
EXTAP	35	192	4
EXTAP	35	288	4
EXTAP	35	288	6
NMTAP	35	336	3
NMTTP	36	0	2	E	1	M1
NMTAP	36	48	4
NMTAP	36	96	6
NMTTP	36	144	4	E	1	M1
NMTAP	36	192	1
NMTAP	36	240	0
NMTAP	36	288	4
NMTTP	36	336	6	E	0	M1
NMTAP	37	0	3
NMTAP	37	48	1
NMTTP	37	96	4	E	0	M1
NMTAP	37	144	6
NMTAP	37	192	7
NMTTP	37	240	3	E	0	M1
NMTAP	37	288	1
NMTAP	37	336	4
NMTTP	38	0	6	E	0	M1
NMTAP	38	48	3
NMTAP	38	96	1
NMTAP	38	144	0
NMTAP	38	192	0
NMTAP	38	240	1
NMTAP	38	288	2
NMTAP	38	336	3
NMTAP	38	336	4
NMTAP	39	0	5
NMTAP	39	48	6
NMTAP	39	96	7
NMTAP	39	144	3
NMTTP	39	192	2	E	1	M1
NMTAP	39	240	4
NMTAP	39	288	6
NMTTP	39	336	4	E	1	M1
NMTAP	40	0	1
BRHLD	40	48	0	48
NMTAP	40	96	4
NMTTP	40	144	6	E	0	M1
NMTAP	40	192	3
NMTAP	40	240	1
NMTTP	40	288	4	E	0	M1
NMTAP	40	336	6
NMTAP	41	0	7
NMTTP	41	48	3	E	1	M1
NMTAP	41	96	1
NMTAP	41	144	4
NMTTP	41	192	6	E	1	M1
NMTAP	41	240	3
NMHLD	41	288	1	96
NMHLD	41	288	5	96
NMHLD	42	48	2	192
NMHLD	42	48	6	192
NMSTR	42	336	1
NMSI_	42	336	1	96	48	4
NMTAP	43	48	4
NMSTR	43	96	5
NMSI_	43	96	5	96	48	0
NMTAP	43	192	0
NMSTR	43	240	1
NMSI_	43	240	1	96	48	4
NMTAP	43	336	4
NMSTR	44	0	5
NMSI_	44	0	5	96	48	2
NMTAP	44	96	0
NMSTR	44	144	1
NMSI_	44	144	1	96	48	4
NMSI_	44	144	1	96	48	6
NMTAP	44	240	1
NMTAP	44	336	5
NMTAP	45	0	5
NMTAP	45	48	4
NMTAP	45	48	6
NMTAP	45	96	4
NMTAP	45	96	6
NMTAP	45	144	7
NMTAP	45	192	0
NMTAP	45	240	1
NMTAP	45	240	7
NMTAP	45	288	1
NMTAP	45	288	7
NMTAP	45	336	2
NMTAP	46	0	2
NMTAP	46	48	1
NMTAP	46	48	3
NMTAP	46	144	3
NMTAP	46	144	5
NMSTR	46	240	6
NMSI_	46	240	6	96	48	3
NMTAP	46	336	3
NMSTR	47	0	2
NMSI_	47	0	2	96	48	7
NMTAP	47	96	7
NMSTR	47	144	6
NMSI_	47	144	6	96	48	3
NMTAP	47	240	3
NMSTR	47	288	2
NMSI_	47	288	2	96	48	5
NMTAP	48	0	7
NMSTR	48	48	6
NMSI_	48	48	6	96	48	1
NMSI_	48	48	6	96	48	3
NMTAP	48	144	6
NMTAP	48	240	2
NMTAP	48	288	2
NMTAP	48	336	1
NMTAP	48	336	3
NMTAP	49	0	1
NMTAP	49	0	3
NMTAP	49	48	0
NMTAP	49	96	7
NMTAP	49	144	0
NMTAP	49	144	6
NMTAP	49	192	0
NMTAP	49	192	6
NMTAP	49	240	5
NMTAP	49	288	5
NMTAP	49	336	4
NMTAP	49	336	6
NMTAP	50	48	0
NMTAP	50	48	7
NMSTR	50	144	1
NMSXL	50	144	1	96	48	3
NMTAP	50	240	4
NMSTR	50	288	5
NMSCR	50	288	5	96	48	0
NMTAP	51	0	0
NMSTR	51	48	1
NMSV_	51	48	1	96	48	4
NMTAP	51	144	4
NMSTR	51	192	5
NMSCL	51	192	5	96	48	3
NMTAP	51	288	0
NMSTR	51	336	1
NMSI_	51	336	1	96	48	4
NMSCL	51	336	1	96	48	7
NMTAP	52	48	1
NMTAP	52	144	5
NMTAP	52	192	5
NMTAP	52	240	4
NMTAP	52	240	6
NMTAP	52	288	4
NMTAP	52	288	6
NMTAP	52	336	7
NMTAP	53	0	0
NMTAP	53	48	1
NMTAP	53	48	7
NMTAP	53	96	1
NMTAP	53	96	7
NMTAP	53	144	2
NMTAP	53	192	2
NMTAP	53	240	1
NMTAP	53	240	3
NMTAP	53	336	3
NMTAP	53	336	5
NMSTR	54	48	6
NMSXR	54	48	6	96	48	4
NMTAP	54	144	3
NMSTR	54	192	2
NMSCL	54	192	2	96	48	7
NMTAP	54	288	7
NMSTR	54	336	6
NMSV_	54	336	6	96	48	3
NMTAP	55	48	3
NMSTR	55	96	2
NMSCR	55	96	2	96	48	4
NMTAP	55	192	7
NMSTR	55	240	6
NMSI_	55	240	6	96	48	3
NMSCR	55	240	6	96	48	0
NMTAP	55	336	6
NMTAP	56	48	2
NMTAP	56	96	2
NMTAP	56	144	1
NMTAP	56	144	3
NMTAP	56	192	1
NMTAP	56	192	3
NMTAP	56	240	0
NMTAP	56	288	7
NMTAP	56	336	0
NMTAP	56	336	6
NMTAP	57	0	0
NMTAP	57	0	6
NMTAP	57	48	5
NMTAP	57	96	5
NMTAP	57	144	4
NMTAP	57	144	6
NMTAP	57	240	1
NMTAP	57	240	3
NMSTR	57	336	2
NMSCL	57	336	2	96	240	5
NMHLD	57	336	4	96
NMHLD	58	96	3	96
NMHLD	58	240	4	96
CNSCR	58	288	5	0	288	2
NMHLD	59	0	3	96
NMTTP	59	144	4	E	1	M1
NMTTP	59	240	5	E	1	M1
NMHLD	59	336	3	96
NMSTR	59	336	5
NMSCR	59	336	5	96	240	2
NMHLD	60	96	4	96
NMHLD	60	240	3	96
CNSCL	60	288	2	0	288	5
NMHLD	61	0	4	96
NMTAP	61	144	3
NMTAP	61	192	3
NMTAP	61	240	4
NMSTR	61	336	2
NMSLL	61	336	2	96	144	6
NMHLD	61	336	4	96
NMHLD	62	96	3	96
CNSCL	62	192	6	0	48	5
NMHLD	62	240	4	96
CNSLR	62	240	5	0	288	1
NMHLD	63	0	3	96
CNSCR	63	144	1	0	48	2
NMTTP	63	144	4	E	1	M1
NMTTP	63	240	5	E	1	M1
NMHLD	63	336	3	96
NMSTR	63	336	5
NMSLR	63	336	5	96	144	1
NMHLD	64	96	4	96
CNSCR	64	192	1	0	48	2
CNSLL	64	240	2	0	288	6
NMHLD	64	240	3	96
NMHLD	65	0	4	96
NMTAP	65	144	3
CNSCL	65	144	6	0	48	5
NMTAP	65	240	3
NMHLD	65	336	4	48
NMHLD	65	336	7	96
NMHLD	66	96	3	48
NMHLD	66	144	7	96
NMSTR	66	336	2
NMSI_	66	336	2	96	96	5
NMHLD	66	336	7	96
CNSUL	67	144	5	0	96	0
NMHLD	67	144	7	96
NMHLD	67	336	3	48
NMHLD	67	336	7	96
NMHLD	68	96	4	48
NMHLD	68	144	7	96
NMSTR	68	336	2
NMSI_	68	336	2	96	96	5
NMHLD	68	336	7	96
CNSUL	69	144	5	0	96	0
NMHLD	69	144	7	96
NMHLD	69	336	3	48
NMTAP	69	336	7
NMTAP	70	0	7
NMHLD	70	96	1	48
NMTAP	70	96	5
NMTAP	70	144	5
NMTAP	70	240	3
NMHLD	70	240	7	48
NMTAP	70	288	3
NMTAP	71	0	1
NMHLD	71	0	5	48
NMTAP	71	48	1
NMTAP	71	144	0
NMTAP	71	192	0
NMTAP	71	240	0
NMTAP	71	288	0
NMHLD	71	336	0	77
NMHLD	72	29	2	76
NMHLD	72	105	4	78
NMHLD	72	183	6	76
NMHLD	72	259	0	77
NMHLD	72	336	2	77
NMHLD	73	29	4	76
NMHLD	73	105	6	78
NMHLD	73	183	0	76
BRHLD	73	259	2	365
BRHLD	73	337	4	287
NMSTR	74	336	1
NMSI_	74	336	1	96	48	4
NMTAP	75	48	6
NMSTR	75	96	7
NMSI_	75	96	7	96	48	3
NMTAP	75	192	3
NMSTR	75	240	2
NMSI_	75	240	2	96	48	0
NMSI_	75	240	2	96	48	4
NMTAP	75	336	2
NMTAP	76	48	6
NMSTR	76	96	6
NMSCR	76	96	6	96	48	1
NMTAP	76	192	3
NMSTR	76	240	4
NMSI_	76	240	4	96	48	0
NMTAP	76	336	4
NMTAP	76	336	7
NMSTR	77	48	6
NMSI_	77	48	6	96	48	3
NMTAP	77	144	1
NMSTR	77	192	0
NMSI_	77	192	0	96	48	4
NMTAP	77	288	4
NMSTR	77	336	5
NMSI_	77	336	5	96	48	3
NMSI_	77	336	5	96	48	7
NMTAP	78	48	5
NMTAP	78	144	1
NMTAP	78	192	1
NMTAP	78	288	3
NMTAP	78	288	5
NMTAP	78	336	2
NMTAP	78	360	4
NMTAP	79	0	2
NMTAP	79	24	4
NMTAP	79	48	3
NMTAP	79	72	5
NMTAP	79	96	3
NMTAP	79	120	5
NMSTR	79	144	2
NMSI_	79	144	2	96	48	5
NMTAP	79	240	6
NMSTR	79	288	7
NMSI_	79	288	7	96	48	3
NMTAP	80	0	3
NMSTR	80	48	2
NMSI_	80	48	2	96	48	0
NMSI_	80	48	2	96	48	4
NMTAP	80	144	2
NMTAP	80	240	6
NMSTR	80	288	6
NMSCR	80	288	6	96	48	1
NMTAP	81	0	3
NMSTR	81	48	4
NMSI_	81	48	4	96	48	0
NMTAP	81	144	4
NMTAP	81	144	7
NMSTR	81	240	6
NMSI_	81	240	6	96	48	3
NMTAP	81	336	1
NMSTR	82	0	0
NMSI_	82	0	0	96	48	4
NMTAP	82	96	5
NMSTR	82	144	6
NMSI_	82	144	6	96	48	1
NMSTR	82	240	2
NMSCR	82	240	2	96	48	5
NMTAP	82	336	7
NMSTR	83	0	6
NMSCR	83	0	6	96	48	1
NMTAP	83	96	3
NMSTR	83	144	2
NMSI_	83	144	2	96	48	5
NMSTR	83	240	6
NMSI_	83	240	6	96	48	1
NMTAP	83	336	2
NMSTR	84	0	3
NMSCL	84	0	3	96	48	0
NMTAP	84	96	4
NMTAP	84	144	4
BRTAP	84	192	5
NMSTR	84	240	6
NMSI_	84	240	6	96	48	3
NMTAP	84	336	1
NMSTR	85	0	0
NMSI_	85	0	0	96	48	4
NMTAP	85	96	4
NMSTR	85	144	5
NMSI_	85	144	5	96	48	3
NMSI_	85	144	5	96	48	7
NMTAP	85	240	5
NMTAP	85	336	1
NMSTR	86	0	1
NMSCL	86	0	1	96	48	6
NMTAP	86	96	4
NMSTR	86	144	3
NMSI_	86	144	3	96	48	7
NMTAP	86	240	0
NMTAP	86	240	3
NMSTR	86	336	1
NMSI_	86	336	1	96	48	4
NMTAP	87	48	6
NMSTR	87	96	7
NMSI_	87	96	7	96	48	3
NMTAP	87	192	3
NMSTR	87	240	2
NMSI_	87	240	2	96	48	0
NMSI_	87	240	2	96	48	4
NMTAP	87	336	2
NMTAP	88	48	6
NMTAP	88	96	6
NMTAP	88	192	2
NMTAP	88	192	4
NMTAP	88	240	5
NMTAP	88	264	3
NMTAP	88	288	5
NMTAP	88	312	3
NMTAP	88	336	4
NMTAP	88	360	2
NMTAP	89	0	4
NMTAP	89	24	2
NMSTR	89	48	5
NMSI_	89	48	5	96	48	2
NMTAP	89	144	1
NMSTR	89	192	0
NMSI_	89	192	0	96	48	4
NMTAP	89	288	4
NMSTR	89	336	5
NMSI_	89	336	5	96	48	3
NMSI_	89	336	5	96	48	7
NMTAP	90	48	5
NMTAP	90	144	1
NMSTR	90	192	1
NMSCL	90	192	1	96	48	6
NMTAP	90	288	4
NMSTR	90	336	3
NMSI_	90	336	3	96	48	7
NMTAP	91	48	0
NMTAP	91	48	3
NMSTR	91	144	1
NMSI_	91	144	1	96	48	4
NMTAP	91	240	6
NMSTR	91	288	7
NMSI_	91	288	7	96	48	3
NMTAP	92	0	2
NMSTR	92	48	1
NMSI_	92	48	1	96	48	6
NMSTR	92	144	5
NMSCL	92	144	5	96	48	2
NMTAP	92	240	0
NMSTR	92	288	1
NMSCL	92	288	1	96	48	6
NMTAP	93	0	5
NMHLD	93	48	4	480
NMTAP	94	144	3
NMTAP	94	240	4
NMTAP	94	336	3
NMTAP	95	0	3
NMTAP	95	48	4
NMTAP	95	96	4
NMTAP	95	144	3
NMTAP	95	192	1
NMTTP	95	240	4	E	1	M1
NMTAP	95	288	6
NMTAP	95	336	3
NMTTP	96	0	1	E	1	M1
NMTAP	96	48	7
NMTAP	96	96	4
NMTTP	96	144	7	E	0	M1
NMTAP	96	192	3
NMTAP	96	240	1
NMTTP	96	288	5	E	0	M1
NMTAP	96	336	6
NMTAP	97	0	0
NMTTP	97	48	3	E	0	M1
NMTAP	97	96	1
NMTTP	97	144	5	E	1	M1
NMTAP	97	192	6
NMTAP	97	240	3
NMTTP	97	288	2	E	1	M1
NMTAP	97	336	0
NMTAP	98	0	0
NMTAP	98	48	1
NMTAP	98	96	2
NMTAP	98	144	3
NMTAP	98	144	4
NMTAP	98	192	5
NMTAP	98	240	6
NMTAP	98	288	7
NMTAP	98	336	3
NMTAP	99	0	1
NMTTP	99	48	4	E	1	M1
NMTAP	99	96	6
NMTAP	99	144	3
NMTTP	99	192	1	E	1	M1
NMTAP	99	240	7
NMTAP	99	288	4
NMTTP	99	336	6	E	0	M1
NMTAP	100	0	3
NMTAP	100	48	1
NMTTP	100	96	4	E	0	M1
NMTAP	100	144	6
NMTAP	100	192	0
NMTTP	100	240	3	E	0	M1
NMTAP	100	288	1
NMTTP	100	336	5	E	1	M1
NMTAP	101	0	6
NMTAP	101	48	3
NMTTP	101	96	2	E	1	M1
NMTAP	101	144	7
EXTAP	101	192	0
EXTAP	101	192	7
EXTAP	101	240	0
EXTAP	101	240	7
EXTAP	101	336	4
EXTAP	101	336	6
EXTAP	102	48	3
EXTAP	102	48	4
EXTAP	102	144	1
EXTAP	102	144	3
NMTAP	102	192	4
NMTTP	102	240	7	E	1	M1
NMTAP	102	288	3
NMTAP	102	336	1
NMTTP	103	0	4	E	1	M1
NMTAP	103	48	6
NMTAP	103	96	0
NMTAP	103	144	3
NMTTP	103	192	1	E	0	M1
NMTAP	103	240	4
NMTAP	103	288	6
NMTTP	103	336	4	E	0	M1
NMTAP	104	0	1
NMTAP	104	48	7
NMTTP	104	96	5	E	0	M1
NMTTP	104	144	7	E	1	M1
NMTAP	104	192	3
NMTAP	104	240	1
NMTTP	104	288	4	E	1	M1
NMTAP	104	336	6
NMTAP	105	0	7
NMTAP	105	48	7
NMTAP	105	96	6
NMTAP	105	144	5
NMTAP	105	192	3
NMTAP	105	192	4
NMTAP	105	240	2
NMTAP	105	288	1
NMTAP	105	336	0
NMTAP	106	0	4
NMTTP	106	48	6	E	1	M1
NMTAP	106	96	3
NMTAP	106	144	1
NMTTP	106	192	4	E	1	M1
NMTAP	106	240	6
NMTAP	106	288	0
NMTAP	106	336	3
NMTTP	107	0	1	E	0	M1
NMTAP	107	48	4
NMTAP	107	96	6
NMTTP	107	144	3	E	0	M1
NMTAP	107	192	1
NMTAP	107	240	7
NMTTP	107	288	4	E	0	M1
NMTTP	107	336	6	E	1	M1
NMTAP	108	0	3
NMTAP	108	48	1
NMTTP	108	96	5	E	1	M1
NMTAP	108	144	6
BRTAP	108	192	0
NMTAP	109	0	3
NMTAP	109	24	4
NMTAP	109	48	3
NMTAP	109	96	3
NMTAP	109	144	3
NMTAP	109	192	3
NMTAP	109	240	4
NMTAP	109	288	6
NMTTP	109	336	2	E	1	M1
NMTAP	110	0	0
NMTAP	110	48	3
NMTTP	110	96	6	E	1	M1
NMTAP	110	144	7
NMTAP	110	192	3
NMTTP	110	240	1	E	0	M1
NMTAP	110	288	5
NMTAP	110	336	7
NMTTP	111	0	4	E	0	M1
NMTAP	111	48	2
NMTAP	111	96	0
NMTTP	111	144	5	E	0	M1
NMTAP	111	192	6
NMTTP	111	240	2	E	1	M1
NMTAP	111	288	0
NMTAP	111	336	3
NMTTP	112	0	6	E	1	M1
NMTAP	112	48	7
NMTAP	112	96	7
NMTAP	112	144	6
NMTAP	112	192	5
NMTAP	112	240	3
NMTAP	112	240	4
NMTAP	112	288	2
NMTAP	112	336	1
NMTAP	113	0	0
NMSTR	113	48	0
NMSCR	113	48	0	96	48	3
NMTAP	113	144	5
NMSTR	113	192	7
NMSCL	113	192	7	96	48	4
NMTAP	113	288	2
NMSTR	113	336	0
NMSI_	113	336	0	96	48	4
NMSTR	114	48	7
NMSCL	114	48	7	96	48	4
NMTAP	114	144	2
NMSTR	114	192	0
NMSCR	114	192	0	96	48	3
NMTAP	114	288	5
NMTAP	114	336	7
NMHLD	115	48	7	77
NMHLD	115	125	5	76
NMHLD	115	201	3	78
NMHLD	115	279	1	76
BRHLD	115	355	7	174
BRHLD	116	48	5	97
EXTAP	116	176	0
EXTAP	116	176	2
EXTAP	116	240	0
EXTAP	116	240	2
BRTAP	116	368	3
BRTAP	116	368	4
BRTAP	117	48	3
BRTAP	117	48	4
NMTAP	117	96	1
NMTTP	117	144	2	E	1	M1
NMTAP	117	144	4
NMTAP	117	192	6
NMTAP	117	240	3
NMTAP	117	288	1
NMTTP	117	288	4	E	1	M1
NMTAP	117	336	5
NMTAP	117	360	6
NMTAP	118	0	7
NMTAP	118	48	5
NMTAP	118	48	6
NMTAP	118	96	5
NMTAP	118	96	6
NMTAP	118	144	5
NMTAP	118	144	6
NMTAP	118	192	5
NMTAP	118	192	6
NMSTR	118	240	5
NMSI_	118	240	5	96	48	0
NMSTR	118	240	6
NMSI_	118	240	6	96	48	2
NMTAP	118	288	5
NMTAP	118	288	6
BRTAP	118	336	5
BRTAP	118	336	6

T_REC_TAP	455
T_REC_BRK	8
T_REC_XTP	37
T_REC_BXX	0
T_REC_HLD	58
T_REC_XHO	0
T_REC_BHO	5
T_REC_BXH	0
T_REC_STR	101
T_REC_BST	0
T_REC_XST	0
T_REC_XBS	0
T_REC_TTP	78
T_REC_THO	0
T_REC_SLD	111
T_REC_BSL	0
T_REC_ALL	853
T_NUM_TAP	671
T_NUM_BRK	13
T_NUM_HLD	58
T_NUM_SLD	111
T_NUM_ALL	853
T_JUDGE_TAP	679
T_JUDGE_HLD	162
T_JUDGE_SLD	111
T_JUDGE_ALL	952
TTM_EACHPAIRS	105
TTM_SCR_TAP	335500
TTM_SCR_BRK	33800
TTM_SCR_HLD	58000
TTM_SCR_SLD	166500
TTM_SCR_ALL	593800
TTM_SCR_S	574750
TTM_SCR_SS	592500
TTM_RAT_ACV	10021

