VERSION	0.00.00	1.05.00
FES_MODE	0
BPM_DEF	220.000	220.000	220.000	220.000
MET_DEF	4	4
RESOLUTION	384
CLK_DEF	384
COMPATIBLE_CODE	MA2

BPM	0	0	220.000
MET	0	0	4	4
MET	10	0	4	9
MET	16	288	4	4
MET	28	288	8	7
MET	34	336	4	4
MET	35	336	8	7
MET	40	96	8	6
MET	41	0	8	7
MET	41	336	4	4
MET	45	336	4	3
MET	46	240	4	4
MET	49	240	4	3
MET	50	144	4	4
MET	53	144	4	3
MET	54	48	4	4
MET	57	48	4	3
MET	57	336	4	4
MET	74	336	4	9
MET	81	240	4	4
MET	84	240	4	9
MET	91	144	4	4
MET	95	144	8	7
MET	108	192	8	9
MET	109	240	8	7
MET	113	48	4	4
MET	117	48	8	7
MET	118	336	4	4

NMSTR	2	0	1
NMSI_	2	0	1	96	96	3
NMHLD	2	0	4	384
CNSI_	2	192	3	0	96	0
CNSI_	2	288	0	0	144	5
NMTAP	3	192	3
NMTAP	3	192	6
NMTAP	3	288	4
NMTAP	3	288	5
NMHLD	4	0	3	384
NMSTR	4	0	6
NMSI_	4	0	6	96	96	4
CNSI_	4	192	4	0	96	7
CNSI_	4	288	7	0	144	2
NMTAP	5	192	0
NMTAP	5	192	1
NMTAP	5	288	2
NMTAP	5	288	7
NMSTR	6	0	0
NMSI_	6	0	0	96	96	6
NMHLD	6	0	1	384
CNSI_	6	192	6	0	96	1
CNSI_	6	288	1	0	144	4
NMTAP	7	192	4
NMTAP	7	192	5
NMTAP	7	288	3
NMTAP	7	288	6
NMHLD	8	0	2	96
NMHLD	8	0	7	96
NMHLD	8	144	1	96
NMHLD	8	144	6	96
BXHLD	8	288	0	384
BXTAP	8	288	5
NMTAP	9	288	4
NMTAP	10	0	1
NMTAP	10	0	3
NMTAP	10	96	2
NMHLD	10	144	2	96
NMTAP	10	240	1
NMTAP	10	288	1
NMTAP	11	0	0
NMTAP	11	0	3
NMTAP	11	96	7
NMHLD	11	144	7	96
NMTAP	11	240	4
NMHLD	11	288	4	96
NMTAP	12	0	5
NMTAP	12	96	4
NMTAP	12	96	6
NMTAP	12	192	5
NMHLD	12	240	5	96
NMTAP	12	336	6
NMTAP	13	0	6
NMTAP	13	96	4
NMTAP	13	96	7
NMTAP	13	192	0
NMHLD	13	240	0	96
NMTAP	13	336	3
NMTAP	14	0	3
NMTTP	14	96	3	B	0	M1
NMTTP	14	96	4	B	0	M1
NMTTP	14	96	5	B	0	M1
NMTTP	14	96	6	B	0	M1
NMTAP	14	192	0
NMTAP	14	192	2
NMTAP	14	288	1
NMHLD	14	336	1	96
NMTAP	15	48	2
NMTAP	15	96	2
NMTAP	15	192	0
NMTAP	15	192	3
NMTAP	15	288	4
NMHLD	15	336	4	96
NMTAP	16	48	7
NMHLD	16	96	7	96
NMTAP	16	192	5
NMTAP	16	288	0
NMTAP	16	288	4
NMTAP	17	0	1
NMTAP	17	0	3
NMTAP	17	48	1
NMTAP	17	48	3
NMTAP	17	144	4
NMTAP	17	144	6
NMTAP	17	192	4
NMTAP	17	192	6
BRTAP	17	288	1
BRTAP	17	288	2
BRTAP	18	48	5
BRTAP	18	48	6
BRSTR	18	192	1
NMSCL	18	192	1	96	576	2
BRTAP	18	192	2
NMSTR	20	288	2
NMSI_	20	288	2	96	96	4
NMTAP	20	288	5
NMSTR	21	96	6
NMSI_	21	96	6	96	96	0
NMSTR	21	288	2
NMSI_	21	288	2	96	96	5
NMSTR	22	96	6
NMSI_	22	96	6	96	96	1
NMSTR	22	288	3
NMSI_	22	288	3	96	96	5
NMSTR	23	96	7
NMSI_	23	96	7	96	96	1
NMTAP	23	288	3
NMTAP	23	336	3
NMTAP	24	48	0
NMTAP	24	48	2
NMTAP	24	96	0
NMTAP	24	96	2
NMTAP	24	192	1
NMTAP	24	192	3
NMSTR	24	288	2
NMSI_	24	288	2	96	96	4
NMSTR	25	96	7
NMSI_	25	96	7	96	96	1
NMSTR	25	288	4
NMSI_	25	288	4	96	96	0
NMTAP	26	96	5
NMTAP	26	192	5
EXTAP	26	288	0
EXTAP	26	288	6
EXTAP	26	336	0
EXTAP	26	336	6
EXTAP	27	96	1
EXTAP	27	96	7
EXTAP	27	144	1
EXTAP	27	144	7
NMTAP	27	288	4
NMTAP	27	288	6
NMTAP	27	336	4
NMTAP	27	336	6
NMTAP	28	48	1
NMTAP	28	48	3
NMTAP	28	96	1
NMTAP	28	96	3
NMTAP	28	192	3
NMTAP	28	192	4
BRTAP	28	288	1
BRTAP	28	288	7
NMTAP	29	0	2
NMTAP	29	0	3
NMTAP	29	96	4
NMTAP	29	96	6
NMTAP	29	192	4
NMTAP	29	192	6
NMTAP	29	288	2
NMTAP	29	288	3
NMTAP	30	0	5
NMTAP	30	0	6
NMTAP	30	96	0
NMTAP	30	96	1
NMTAP	30	192	5
NMTAP	30	192	7
NMTAP	30	288	2
NMTAP	30	288	4
NMTAP	31	0	0
NMTAP	31	0	1
NMTAP	31	96	4
NMTAP	31	96	6
NMSTR	31	192	7
NMSI_	31	192	7	96	48	1
NMSI_	31	192	7	96	48	3
EXTAP	32	0	2
EXTAP	32	0	4
BRTAP	32	96	1
BRTAP	32	96	3
NMTAP	32	192	6
NMTAP	32	192	7
NMTAP	32	288	0
NMTAP	32	288	2
NMTAP	33	0	0
NMTAP	33	0	2
NMTAP	33	96	5
NMTAP	33	96	6
NMTAP	33	192	2
NMTAP	33	192	3
NMTAP	33	288	4
NMTAP	33	288	5
NMHLD	34	0	6	96
NMHLD	34	96	0	96
NMHLD	34	192	2	96
NMTAP	34	288	1
NMTAP	34	336	1
BXTAP	35	0	0
BXTAP	35	0	2
BXTAP	35	96	5
BXTAP	35	96	6
BXTAP	35	192	1
BXTAP	35	192	2
BXTAP	35	288	6
BXTAP	35	288	7
BXTAP	35	336	6
BXTAP	35	336	7
NMTAP	36	48	1
NMTAP	36	48	3
NMTAP	36	144	4
NMTAP	36	144	5
NMTAP	36	240	4
NMTAP	36	240	5
NMTAP	36	336	0
NMTAP	36	336	7
NMTAP	37	48	1
NMTAP	37	48	3
NMTAP	37	144	5
NMTAP	37	144	6
NMTAP	37	240	0
NMTAP	37	240	2
NMTAP	37	336	4
NMTAP	37	336	6
NMTAP	38	48	1
NMTAP	38	48	2
NMTAP	38	144	6
NMTAP	38	144	7
NMTAP	38	240	0
NMTAP	38	240	2
NMTAP	38	336	4
NMTAP	38	336	7
NMTAP	39	48	1
NMTAP	39	48	3
NMTAP	39	144	5
NMTAP	39	144	6
NMTAP	39	240	0
NMTAP	39	240	2
NMTAP	39	336	1
NMTAP	39	336	4
NMTAP	40	48	3
NMTAP	40	48	7
NMTAP	40	144	0
NMTAP	40	144	5
NMTAP	40	240	4
NMTAP	40	240	7
NMTAP	40	336	2
NMTAP	40	336	3
NMTAP	41	48	0
NMTAP	41	48	1
NMTAP	41	144	4
NMTAP	41	144	6
NMTAP	41	240	1
NMTAP	41	240	7
NMTAP	41	288	1
NMTAP	41	288	7
NMTTP	42	48	2	B	0	M1
NMTTP	42	48	3	B	0	M1
NMTTP	42	48	4	B	1	M1
NMTTP	42	48	5	B	0	M1
NMTTP	42	48	6	B	0	M1
NMTAP	42	336	0
NMSTR	43	0	0
NMSUR	43	0	0	96	96	4
NMTAP	43	240	6
NMSTR	43	288	6
NMSUL	43	288	6	96	96	2
BRTAP	44	144	0
NMTAP	44	240	1
NMHLD	44	336	1	48
NMHLD	44	336	2	48
NMHLD	45	48	1	48
NMHLD	45	48	2	48
NMHLD	45	144	0	48
NMHLD	45	144	2	48
NMHLD	45	240	1	48
NMHLD	45	240	2	48
NMHLD	45	336	1	48
NMHLD	45	336	2	48
NMHLD	46	48	1	48
NMHLD	46	48	3	48
NMTAP	46	144	1
NMTAP	46	144	3
NMTAP	46	240	4
NMTAP	46	240	6
NMTAP	46	288	4
NMSTR	46	288	6
NMSUL	46	288	6	96	96	2
NMTAP	47	144	0
NMSTR	47	192	0
NMSUR	47	192	0	96	96	4
BRTAP	48	48	7
NMTAP	48	144	6
NMHLD	48	240	5	48
NMHLD	48	240	6	48
NMHLD	48	336	5	48
NMHLD	48	336	6	48
NMHLD	49	48	5	48
NMHLD	49	48	7	48
NMHLD	49	144	4	48
NMHLD	49	144	6	48
NMHLD	49	240	5	48
NMHLD	49	240	7	48
NMTTP	49	336	0	C	1	M1
NMTAP	50	144	7
NMSTR	50	192	7
NMSCR	50	192	7	96	96	2
NMTAP	51	48	3
NMSTR	51	96	3
NMSUL	51	96	3	96	96	6
BRTAP	51	336	4
NMTAP	52	48	5
NMHLD	52	144	4	48
NMHLD	52	144	6	48
NMHLD	52	240	4	48
NMHLD	52	240	6	48
NMHLD	52	336	5	48
NMHLD	52	336	6	48
NMHLD	53	48	5	48
NMHLD	53	48	7	48
NMHLD	53	144	5	48
NMHLD	53	144	7	48
NMHLD	53	240	5	48
NMHLD	53	240	6	48
NMTAP	53	336	4
NMTAP	53	336	7
NMTAP	54	48	0
NMSTR	54	96	0
NMSCL	54	96	0	96	96	5
NMTAP	54	336	4
NMSTR	55	0	4
NMSUR	55	0	4	96	96	1
BRTAP	55	240	3
NMTAP	55	336	2
NMHLD	56	48	1	48
NMHLD	56	48	3	48
NMHLD	56	144	1	48
NMHLD	56	144	3	48
NMHLD	56	240	0	48
NMHLD	56	240	2	48
NMHLD	56	336	1	48
NMHLD	56	336	7	48
NMHLD	57	48	0	48
NMHLD	57	48	2	48
NMTTP	57	144	0	C	1	M1
BXHLD	57	336	6	96
NMTAP	58	48	4
NMHLD	58	96	4	96
NMTAP	58	192	5
NMHLD	58	240	5	96
NMTAP	58	336	7
NMHLD	59	0	7	96
NMTAP	59	96	6
NMSTR	59	144	6
NMSI_	59	144	6	96	48	4
BXHLD	59	336	2	96
NMTAP	60	48	3
NMHLD	60	96	3	96
NMTAP	60	192	0
NMHLD	60	240	0	144
NMTAP	60	336	1
NMHLD	61	0	1	144
NMTAP	61	96	3
NMSTR	61	144	3
NMSI_	61	144	3	96	48	0
BXHLD	61	336	7	96
NMTAP	62	48	5
NMHLD	62	96	5	96
NMTAP	62	192	4
NMHLD	62	240	4	96
NMTAP	62	336	2
NMHLD	63	0	2	96
NMTAP	63	96	0
NMSTR	63	144	0
NMSI_	63	144	0	96	48	6
NMHLD	63	336	5	96
NMTAP	64	48	7
NMHLD	64	96	7	96
NMTAP	64	192	0
NMHLD	64	240	0	96
NMTAP	64	336	2
NMHLD	65	0	2	96
NMTAP	65	96	4
NMSTR	65	144	4
NMSI_	65	144	4	96	48	0
EXTAP	65	336	7
NMTAP	66	0	7
NMTAP	66	48	7
NMTAP	66	144	4
NMTAP	66	144	6
NMTAP	66	240	1
NMTAP	66	240	3
NMTAP	66	336	0
NMTAP	67	0	0
NMTAP	67	48	0
NMTAP	67	144	1
NMTAP	67	144	3
NMTAP	67	240	4
NMTAP	67	240	6
NMTAP	67	336	7
NMTAP	68	0	7
NMTAP	68	48	7
NMTAP	68	144	5
NMTAP	68	144	6
NMTAP	68	240	1
NMTAP	68	240	3
NMTAP	68	336	0
NMTAP	69	0	0
NMTAP	69	48	0
NMTAP	69	144	1
NMTAP	69	144	2
NMTAP	69	240	4
NMTAP	69	240	6
EXTAP	69	336	5
EXTAP	69	336	7
EXTAP	70	0	5
EXTAP	70	0	7
EXTAP	70	96	0
EXTAP	70	96	2
EXTAP	70	144	0
EXTAP	70	144	2
EXTAP	70	240	5
EXTAP	70	240	6
EXTAP	70	288	5
EXTAP	70	288	6
EXTAP	71	0	1
EXTAP	71	0	2
EXTAP	71	48	1
EXTAP	71	48	2
EXTAP	71	144	0
EXTAP	71	192	0
EXTAP	71	240	4
EXTAP	71	288	4
NMHLD	71	336	2	77
NMHLD	72	30	3	78
NMHLD	72	108	1	79
NMHLD	72	187	5	72
NMHLD	72	259	4	77
NMHLD	72	336	6	77
NMHLD	73	29	2	79
NMHLD	73	108	0	79
NMHLD	73	187	1	77
NMHLD	73	264	7	72
NMTTP	73	336	0	C	1	M1
NMTAP	74	240	0
NMTAP	74	240	7
NMSTR	74	336	1
NMSI_	74	336	1	96	96	4
NMTAP	74	336	6
NMSTR	75	96	5
NMSI_	75	96	5	96	96	0
NMTAP	75	240	3
NMHLD	75	336	1	96
NMTAP	76	48	7
NMTAP	76	96	7
NMTAP	76	192	3
NMTAP	76	192	5
NMTAP	76	240	3
NMTAP	76	240	5
NMTAP	76	336	4
NMTAP	76	336	6
NMTAP	77	48	1
NMSTR	77	48	7
NMSI_	77	48	7	96	96	4
NMSTR	77	192	2
NMSI_	77	192	2	96	96	7
NMTAP	77	336	5
NMHLD	78	48	6	96
NMTAP	78	144	0
NMTAP	78	192	0
NMTAP	78	288	1
NMTAP	78	288	3
NMTAP	78	336	1
NMTAP	78	336	3
BRTAP	79	48	5
BRTAP	79	48	7
NMTAP	79	144	0
NMSTR	79	144	4
NMSI_	79	144	4	96	96	7
NMSTR	79	288	1
NMSI_	79	288	1	96	96	4
NMTAP	80	48	7
NMHLD	80	144	0	96
NMTAP	80	240	4
NMTAP	80	288	4
NMTAP	81	0	2
NMTAP	81	0	6
NMTAP	81	48	2
NMTAP	81	48	6
EXTAP	81	144	0
EXTAP	81	144	5
NMTAP	81	240	2
NMTAP	81	240	7
NMTAP	81	336	4
NMTAP	81	336	5
NMTAP	82	0	3
NMTAP	82	0	6
NMTAP	82	96	2
NMTAP	82	96	3
NMTAP	82	144	1
NMTAP	82	144	4
BRTAP	82	240	5
BRTAP	82	240	6
NMTAP	82	336	0
NMTAP	82	336	1
BRTAP	83	0	2
BRTAP	83	0	7
NMTAP	83	96	6
NMTAP	83	96	7
BRTAP	83	144	0
BRTAP	83	144	5
BRTAP	83	240	1
BRTAP	83	240	2
NMTAP	83	336	4
NMTAP	83	336	5
BRTAP	84	0	3
BRTAP	84	0	6
NMTAP	84	96	0
NMTAP	84	144	0
EXTAP	84	192	7
NMSTR	84	240	1
NMSI_	84	240	1	96	96	6
NMSTR	85	0	5
NMSI_	85	0	5	96	96	2
NMTAP	85	144	7
NMHLD	85	240	1	96
NMTAP	85	336	2
NMTAP	86	0	2
NMTAP	86	96	6
NMTAP	86	96	7
NMTAP	86	144	0
NMTAP	86	144	5
NMTAP	86	240	2
NMTAP	86	240	3
NMSTR	86	336	0
NMSI_	86	336	0	96	96	4
NMSTR	87	96	5
NMSI_	87	96	5	96	96	0
NMTAP	87	240	3
NMHLD	87	336	1	96
NMTAP	88	48	7
NMTAP	88	96	7
NMTAP	88	192	4
NMTAP	88	192	5
NMTAP	88	240	3
NMTAP	88	240	6
BRTAP	88	336	1
BRTAP	88	336	3
NMSTR	89	48	0
NMSI_	89	48	0	96	96	5
NMSTR	89	192	4
NMSI_	89	192	4	96	96	0
NMTAP	89	336	3
NMHLD	90	48	1	96
NMTAP	90	144	7
NMTAP	90	192	7
NMTAP	90	288	0
NMTAP	90	288	6
NMTAP	90	336	1
NMTAP	90	336	5
EXTAP	91	48	3
EXTAP	91	48	4
NMTAP	91	144	0
NMTAP	91	144	7
NMTAP	91	240	4
NMTAP	91	240	5
NMTAP	91	288	3
NMTAP	91	288	6
NMTAP	92	0	0
NMTAP	92	0	1
NMTAP	92	48	2
NMTAP	92	48	7
BRTAP	92	144	0
BRTAP	92	144	4
NMTAP	92	240	5
NMTAP	92	240	7
BRTAP	92	288	0
BRTAP	92	288	4
NMTAP	93	0	5
NMTAP	93	0	7
BRSTR	93	48	0
NMSF_	93	48	0	96	384	4
BRTAP	93	48	4
NMTAP	94	336	2
NMTAP	94	336	6
NMTAP	95	48	1
NMTAP	95	48	7
NMSTR	95	144	0
NMSI_	95	144	0	96	48	4
NMSTR	95	240	7
NMSI_	95	240	7	96	48	5
NMTAP	95	336	1
NMSTR	96	48	0
NMSI_	96	48	0	96	48	2
NMSTR	96	144	6
NMSI_	96	144	6	96	48	4
NMTAP	96	240	7
NMTAP	96	336	0
NMSTR	97	48	1
NMSI_	97	48	1	96	48	4
NMSTR	97	144	0
NMSI_	97	144	0	96	48	5
NMTAP	97	240	2
NMTAP	97	336	3
NMSTR	98	48	6
NMSI_	98	48	6	96	48	2
NMSTR	98	48	7
NMSI_	98	48	7	96	48	3
EXTAP	98	240	1
EXTAP	98	240	4
NMSTR	98	336	2
NMSI_	98	336	2	96	48	6
NMSTR	99	48	5
NMSI_	99	48	5	96	48	3
NMTAP	99	144	0
NMSTR	99	240	1
NMSI_	99	240	1	96	48	7
NMSTR	99	336	6
NMSI_	99	336	6	96	48	2
NMTAP	100	48	2
NMTAP	100	144	0
NMSTR	100	240	1
NMSI_	100	240	1	96	48	4
NMSTR	100	336	5
NMSI_	100	336	5	96	48	0
NMTAP	101	48	3
NMTAP	101	144	2
NMTAP	101	192	2
BXTAP	101	240	1
BXTAP	101	240	3
BRTAP	101	336	6
BRTAP	101	336	7
BRTAP	102	48	4
BRTAP	102	48	6
BRTAP	102	144	0
BRSTR	102	192	0
NMSI_	102	192	0	96	48	4
NMSTR	102	288	5
NMSI_	102	288	5	96	48	0
NMTAP	103	0	3
NMSTR	103	96	2
NMSI_	103	96	2	96	48	4
NMSTR	103	192	0
NMSI_	103	192	0	96	48	6
NMTAP	103	288	1
NMTAP	104	0	3
NMSTR	104	96	5
NMSI_	104	96	5	96	48	0
NMSTR	104	192	4
NMSI_	104	192	4	96	48	1
NMTAP	104	288	7
NMTAP	105	0	7
NMSTR	105	96	0
NMSI_	105	96	0	96	48	4
NMSTR	105	96	6
NMSI_	105	96	6	96	48	3
BXTAP	105	288	2
BXTAP	105	288	5
NMSTR	106	0	1
NMSI_	106	0	1	96	48	4
NMSTR	106	96	5
NMSI_	106	96	5	96	48	0
NMSTR	106	192	2
NMSI_	106	192	2	96	48	7
NMTAP	106	288	6
NMSTR	107	0	5
NMSI_	107	0	5	96	48	0
NMSTR	107	96	1
NMSI_	107	96	1	96	48	4
NMTAP	107	192	7
NMSTR	107	288	6
NMSI_	107	288	6	96	48	3
NMSTR	108	0	2
NMSI_	108	0	2	96	48	7
NMSTR	108	96	5
NMSI_	108	96	5	96	48	0
BRHLD	108	192	1	432
NMSTR	109	240	7
NMSI_	109	240	7	96	48	5
NMSTR	109	336	3
NMSI_	109	336	3	96	48	1
NMSTR	110	48	0
NMSI_	110	48	0	96	48	4
NMTAP	110	144	3
NMSTR	110	240	1
NMSI_	110	240	1	96	48	5
NMSTR	110	336	6
NMSI_	110	336	6	96	48	0
NMSTR	111	48	2
NMSI_	111	48	2	96	48	4
NMSTR	111	144	6
NMSI_	111	144	6	96	48	2
NMSTR	111	240	1
NMSI_	111	240	1	96	48	7
NMSTR	111	336	5
NMSI_	111	336	5	96	48	3
NMTAP	112	48	1
NMTAP	112	144	2
NMTAP	112	192	2
NMTAP	112	240	0
NMTAP	112	288	0
NMTAP	112	336	3
NMTAP	113	0	3
BRTAP	113	48	7
NMTAP	113	144	1
NMTAP	113	144	2
BRTAP	113	192	0
BRTAP	113	192	3
NMTAP	113	288	5
NMTAP	113	288	6
BRTAP	113	336	4
BRTAP	113	336	7
BRTAP	114	48	0
BRTAP	114	48	2
NMTAP	114	144	5
NMTAP	114	144	6
BRTAP	114	192	4
BRTAP	114	192	7
NMTAP	114	288	1
NMTAP	114	288	2
BRTAP	114	336	0
BRTAP	114	336	3
NMHLD	115	48	5	77
NMHLD	115	126	4	78
NMHLD	115	204	3	79
NMHLD	115	283	4	72
NMHLD	115	355	3	77
NMTAP	116	48	2
NMTAP	116	180	1
NMTAP	116	180	4
NMHLD	116	240	1	128
NMHLD	116	240	4	128
BXTAP	117	48	2
NMTAP	117	96	4
NMTAP	117	144	0
BXTAP	117	192	5
NMTAP	117	240	3
NMTAP	117	288	7
NMTAP	117	336	0
NMTAP	118	0	1
NMTAP	118	0	7
NMTAP	118	48	6
NMTAP	118	96	4
NMTAP	118	144	3
NMTAP	118	192	0
NMTAP	118	192	2
NMTAP	118	240	0
NMTAP	118	240	2
NMTAP	118	288	0
NMTAP	118	288	2
BRTAP	118	336	3
BRTAP	118	336	7

T_REC_TAP	357
T_REC_BRK	50
T_REC_XTP	38
T_REC_BXX	17
T_REC_HLD	98
T_REC_XHO	0
T_REC_BHO	1
T_REC_BXH	4
T_REC_STR	75
T_REC_BST	3
T_REC_XST	0
T_REC_XBS	0
T_REC_TTP	12
T_REC_THO	0
T_REC_SLD	79
T_REC_BSL	0
T_REC_ALL	734
T_NUM_TAP	482
T_NUM_BRK	75
T_NUM_HLD	98
T_NUM_SLD	79
T_NUM_ALL	734
T_JUDGE_TAP	552
T_JUDGE_HLD	197
T_JUDGE_SLD	79
T_JUDGE_ALL	828
TTM_EACHPAIRS	199
TTM_SCR_TAP	241000
TTM_SCR_BRK	195000
TTM_SCR_HLD	98000
TTM_SCR_SLD	118500
TTM_SCR_ALL	652500
TTM_SCR_S	625650
TTM_SCR_SS	645000
TTM_RAT_ACV	10116

