VERSION	0.00.00	1.05.00
FES_MODE	0
BPM_DEF	220.000	220.000	220.000	220.000
MET_DEF	4	4
RESOLUTION	384
CLK_DEF	384
COMPATIBLE_CODE	MA2

BPM	0	0	220.000
MET	0	0	4	4
MET	10	0	4	9
MET	16	288	4	4
MET	28	288	8	7
MET	34	336	4	4
MET	35	336	8	7
MET	40	96	8	6
MET	41	0	8	7
MET	41	336	4	4
MET	45	336	4	3
MET	46	240	4	4
MET	49	240	4	3
MET	50	144	4	4
MET	53	144	4	3
MET	54	48	4	4
MET	57	48	4	3
MET	57	336	4	4
MET	74	336	4	9
MET	81	240	4	4
MET	84	240	4	9
MET	91	144	4	4
MET	95	144	8	7
MET	108	192	8	9
MET	109	240	8	7
MET	113	48	4	4
MET	117	48	8	7
MET	118	336	4	4

NMTAP	2	0	2
NMTAP	2	96	2
NMTAP	2	192	2
NMTAP	3	0	1
NMTAP	3	96	1
NMTAP	3	192	1
NMTAP	4	0	0
NMTAP	4	96	0
NMTAP	4	192	0
NMTAP	5	0	6
NMTAP	5	0	7
NMTAP	5	192	6
NMTAP	5	192	7
NMTAP	6	0	5
NMTAP	6	96	5
NMTAP	6	192	5
NMTAP	7	0	6
NMTAP	7	96	6
NMTAP	7	192	6
NMTAP	8	0	7
NMTAP	8	96	7
NMTAP	8	192	7
NMTAP	9	0	0
NMTAP	9	0	1
NMTAP	10	0	2
NMTAP	10	96	2
NMTAP	10	192	1
NMTAP	10	288	1
NMTAP	11	0	0
NMTAP	11	96	0
NMTAP	11	192	6
NMTAP	11	192	7
NMTAP	11	288	6
NMTAP	11	288	7
NMTAP	12	96	5
NMTAP	12	192	5
NMTAP	12	288	6
NMTAP	13	0	6
NMTAP	13	96	7
NMTAP	13	192	7
NMTAP	13	288	0
NMTAP	13	288	1
NMTAP	14	0	0
NMTAP	14	0	1
NMTAP	14	192	1
NMTAP	14	288	1
NMTAP	15	0	2
NMTAP	15	96	2
NMTAP	15	192	3
NMTAP	15	288	3
NMTAP	16	0	4
NMTAP	16	0	5
NMTAP	16	96	4
NMTAP	16	96	5
NMTAP	16	288	6
NMTAP	17	0	6
NMTAP	17	96	5
NMTAP	17	192	5
NMTAP	17	288	4
NMTAP	18	0	4
NMSTR	18	96	3
NMSCL	18	96	3	96	480	0
NMSTR	18	96	4
NMSCR	18	96	4	96	480	7
NMHLD	20	288	1	192
NMHLD	21	96	0	192
NMHLD	21	288	7	192
NMTAP	22	96	6
NMHLD	22	288	6	192
NMHLD	23	96	7	192
NMHLD	23	288	0	192
NMTAP	24	96	1
NMHLD	24	288	1	192
NMHLD	25	96	2	192
NMHLD	25	288	3	192
NMTAP	26	96	4
NMHLD	26	288	6	192
NMHLD	27	96	5	192
NMHLD	27	288	4	192
NMTAP	28	96	3
EXTAP	28	288	5
EXTAP	29	0	5
EXTAP	29	96	5
EXTAP	29	192	4
EXTAP	29	192	5
EXTAP	29	288	4
EXTAP	29	288	5
NMTAP	30	192	6
NMTAP	30	288	6
NMTAP	31	0	6
NMTAP	31	96	6
NMTAP	31	96	7
NMTAP	31	192	6
NMTAP	31	192	7
NMTAP	32	96	0
NMTAP	32	192	0
NMTAP	32	288	0
NMTAP	33	0	0
NMTAP	33	0	1
NMTAP	33	96	0
NMTAP	33	96	1
NMTAP	34	0	2
NMTAP	34	0	3
NMTAP	34	96	2
NMTAP	34	96	3
NMTAP	34	192	1
NMTAP	34	192	4
NMTAP	34	288	1
NMTAP	34	288	4
NMTAP	35	0	1
NMTAP	35	0	4
EXTAP	35	336	2
EXTAP	36	48	2
EXTAP	36	144	2
EXTAP	36	240	2
EXTAP	36	240	3
EXTAP	36	336	2
EXTAP	36	336	3
NMTAP	37	240	1
NMTAP	37	336	1
NMTAP	38	48	1
NMTAP	38	144	0
NMTAP	38	144	1
NMTAP	38	240	0
NMTAP	38	240	1
NMTAP	39	144	7
NMTAP	39	240	7
NMTAP	39	336	7
NMTAP	40	48	6
NMTAP	40	48	7
NMSTR	40	144	6
NMSXL	40	144	6	96	624	3
NMTAP	40	144	7
NMTTP	42	336	1	B	0	L1
NMTTP	43	48	2	B	0	L1
NMTTP	43	144	3	B	0	L1
NMTTP	43	336	6	B	0	L1
NMTTP	44	48	5	B	0	L1
NMTTP	44	144	4	B	0	L1
NMTTP	44	336	1	B	0	L1
NMTTP	45	48	2	B	0	L1
NMTTP	45	144	3	B	0	L1
NMTTP	45	240	4	B	0	L1
NMTTP	45	336	0	C	1	L1
NMTTP	46	240	7	B	0	L1
NMTTP	46	336	6	B	0	L1
NMTTP	47	48	4	B	0	L1
NMTTP	47	48	5	B	0	L1
NMTTP	47	240	0	B	0	L1
NMTTP	47	336	1	B	0	L1
NMTTP	48	48	2	B	0	L1
NMTTP	48	48	3	B	0	L1
NMTTP	48	240	6	B	0	L1
NMTTP	48	336	5	B	0	L1
NMTTP	49	48	4	B	0	L1
NMTTP	49	144	3	B	0	L1
NMTTP	49	240	0	C	1	L1
NMTAP	50	144	1
NMTAP	50	240	1
NMTAP	50	336	0
NMTAP	50	336	1
NMTAP	51	144	2
NMTAP	51	240	2
NMTAP	51	336	2
NMTAP	51	336	3
NMTAP	52	144	4
NMTAP	52	240	4
NMTAP	52	336	4
NMTAP	52	336	5
NMTAP	53	144	6
NMTAP	53	144	7
NMTAP	53	240	6
NMTAP	53	240	7
NMTAP	54	48	6
NMTAP	54	144	6
NMTAP	54	240	6
NMTAP	54	240	7
NMTAP	55	48	5
NMTAP	55	144	5
NMTAP	55	240	4
NMTAP	55	240	5
NMTAP	56	48	3
NMTAP	56	144	3
NMTAP	56	240	2
NMTAP	56	240	3
NMTAP	57	48	0
NMTAP	57	48	1
NMTAP	57	144	0
NMTAP	57	144	1
NMSTR	57	336	1
NMSI_	57	336	1	96	288	4
NMTAP	59	144	5
NMSTR	59	336	6
NMSI_	59	336	6	96	288	2
NMTAP	61	144	1
NMSTR	61	336	0
NMSI_	61	336	0	96	288	4
NMTAP	63	144	5
NMSTR	63	336	5
NMSI_	63	336	5	96	288	0
NMTAP	65	144	0
NMTAP	65	144	1
NMSTR	65	336	0
NMSI_	65	336	0	96	288	5
NMSTR	65	336	1
NMSI_	65	336	1	96	288	4
NMTAP	67	144	6
NMTAP	67	144	7
NMSTR	67	336	6
NMSI_	67	336	6	96	288	3
NMSTR	67	336	7
NMSI_	67	336	7	96	288	2
NMTAP	69	144	0
NMTAP	69	144	1
NMSTR	69	336	0
NMSI_	69	336	0	96	288	5
NMSTR	69	336	1
NMSI_	69	336	1	96	288	4
NMTAP	71	144	6
NMTAP	71	144	7
NMSTR	71	336	0
NMSXL	71	336	0	96	672	3
NMSTR	71	336	7
NMSXR	71	336	7	96	672	4
NMTAP	74	336	5
NMTAP	75	48	5
NMTAP	75	144	6
NMTAP	75	144	7
NMTAP	75	240	6
NMTAP	75	240	7
NMTAP	75	336	0
NMTAP	76	48	0
NMTAP	76	144	0
NMTAP	76	144	1
NMTAP	76	240	0
NMTAP	76	240	1
NMTAP	77	48	2
NMTAP	77	144	2
NMTAP	77	240	0
NMTAP	77	240	1
NMTAP	77	336	0
NMTAP	77	336	1
NMTAP	78	48	7
NMTAP	78	144	7
NMTAP	78	240	6
NMTAP	78	240	7
NMTAP	78	336	6
NMTAP	78	336	7
NMTAP	79	144	6
NMTAP	79	240	6
NMTAP	79	336	4
NMTAP	79	336	5
NMTAP	80	48	4
NMTAP	80	48	5
NMTAP	80	144	3
NMTAP	80	240	3
NMTAP	80	336	2
NMTAP	80	336	3
NMTAP	81	48	2
NMTAP	81	48	3
NMTAP	81	240	0
NMTAP	81	240	1
NMTAP	81	336	0
NMTAP	81	336	1
NMTAP	82	48	2
NMTAP	82	144	2
NMTAP	82	240	3
NMTAP	82	240	4
NMTAP	82	336	3
NMTAP	82	336	4
NMTAP	83	48	5
NMTAP	83	144	5
NMTAP	83	240	6
NMTAP	83	240	7
NMTAP	83	336	6
NMTAP	83	336	7
NMTAP	84	48	0
NMTAP	84	48	5
NMTAP	84	240	6
NMTAP	84	240	7
NMTAP	84	336	6
NMTAP	84	336	7
NMTAP	85	48	5
NMTAP	85	144	4
NMTAP	85	240	3
NMTAP	85	336	2
NMTAP	86	48	0
NMTAP	86	48	1
NMTAP	86	144	0
NMTAP	86	144	1
NMTAP	86	336	0
NMTAP	86	336	1
NMTAP	87	48	0
NMTAP	87	48	1
NMTAP	87	144	2
NMTAP	87	240	3
NMTAP	87	336	4
NMTAP	88	48	5
NMTAP	88	144	6
NMTAP	88	144	7
NMTAP	88	240	6
NMTAP	88	240	7
NMTAP	89	48	4
NMTAP	89	48	5
NMTAP	89	144	4
NMTAP	89	144	5
NMTAP	89	240	6
NMTAP	89	336	7
NMTAP	90	48	0
NMTAP	90	144	1
NMTAP	90	240	2
NMTAP	90	240	3
NMTAP	90	336	2
NMTAP	90	336	3
NMTAP	91	144	4
NMTAP	91	240	4
NMTAP	91	336	3
NMTAP	92	48	3
NMTAP	92	144	3
NMTAP	92	144	4
NMTAP	92	240	3
NMTAP	92	240	4
NMSTR	92	336	3
NMSXR	92	336	3	96	672	0
NMSTR	92	336	4
NMSXL	92	336	4	96	672	7
NMTAP	95	144	6
NMTAP	95	192	6
NMTAP	95	240	6
NMTAP	95	336	6
NMTAP	95	336	7
NMTAP	96	48	5
NMTAP	96	96	5
NMTAP	96	144	5
NMTAP	96	240	3
NMTAP	96	240	4
NMTAP	97	48	3
NMTAP	97	96	3
NMTAP	97	144	3
NMTAP	97	240	2
NMTAP	97	240	3
NMTAP	97	336	1
NMTAP	98	0	1
NMTAP	98	48	1
NMTAP	98	144	0
NMTAP	98	144	7
NMTAP	98	336	1
NMTAP	99	0	1
NMTAP	99	48	1
NMTAP	99	144	0
NMTAP	99	144	1
NMTAP	99	240	2
NMTAP	99	288	2
NMTAP	99	336	2
NMTAP	100	48	3
NMTAP	100	48	4
NMTAP	100	240	4
NMTAP	100	288	4
NMTAP	100	336	4
NMTAP	101	48	4
NMTAP	101	48	5
NMTAP	101	144	6
BRTAP	101	240	0
BRTAP	101	240	7
EXTAP	102	192	6
NMTAP	102	288	5
NMTAP	103	0	4
NMTAP	103	96	3
NMTAP	103	192	2
NMTAP	103	288	0
NMTAP	103	288	1
NMTAP	104	96	1
NMTAP	104	192	2
NMTAP	104	288	3
NMTAP	105	0	4
NMTAP	105	96	5
NMTAP	105	192	6
NMTAP	105	192	7
NMTAP	106	0	7
NMTAP	106	96	6
NMTAP	106	192	5
NMTAP	106	288	4
NMTAP	107	0	3
NMTAP	107	96	2
NMTAP	107	192	1
NMTAP	107	288	0
NMTAP	108	0	7
NMTAP	108	96	6
BRTAP	108	192	4
BRTAP	108	192	5
NMTAP	109	240	2
NMTAP	109	240	3
NMTAP	109	336	2
NMTAP	109	336	3
NMTAP	110	48	1
NMTAP	110	96	1
NMTAP	110	144	1
NMTAP	110	240	0
NMTAP	110	288	0
NMTAP	110	336	0
NMTAP	111	48	6
NMTAP	111	48	7
NMTAP	111	144	4
NMTAP	111	144	5
NMTAP	111	240	4
NMTAP	111	240	5
NMTAP	111	336	6
NMTAP	112	0	6
NMTAP	112	48	6
NMTAP	112	144	7
NMTAP	112	192	7
NMTAP	112	240	7
NMTAP	112	336	0
NMTAP	112	336	1
NMTAP	113	48	2
NMTAP	113	48	3
NMTAP	113	144	2
NMTAP	113	144	3
NMTAP	113	240	2
NMTAP	113	240	3
NMTAP	113	336	2
NMTAP	113	336	3
NMTAP	114	48	4
NMTAP	114	48	5
NMTAP	114	144	4
NMTAP	114	144	5
NMTAP	114	240	4
NMTAP	114	240	5
NMTAP	114	336	4
NMTAP	114	336	5
NMSTR	115	48	3
NMSCL	115	48	3	96	480	0
NMSTR	115	48	4
NMSCR	115	48	4	96	480	7
NMTAP	117	48	0
NMTAP	117	48	7
NMTAP	117	144	0
NMTAP	117	144	7
NMTAP	117	240	1
NMTAP	117	240	6
NMTAP	117	336	1
NMTAP	117	336	6
NMTAP	118	48	2
NMTAP	118	48	5
NMTAP	118	144	2
NMTAP	118	144	5
NMTAP	118	240	3
NMTAP	118	240	4
BXTAP	118	336	3
BXTAP	118	336	4

T_REC_TAP	355
T_REC_BRK	4
T_REC_XTP	15
T_REC_BXX	2
T_REC_HLD	12
T_REC_XHO	0
T_REC_BHO	0
T_REC_BXH	0
T_REC_STR	19
T_REC_BST	0
T_REC_XST	0
T_REC_XBS	0
T_REC_TTP	24
T_REC_THO	0
T_REC_SLD	19
T_REC_BSL	0
T_REC_ALL	450
T_NUM_TAP	413
T_NUM_BRK	6
T_NUM_HLD	12
T_NUM_SLD	19
T_NUM_ALL	450
T_JUDGE_TAP	419
T_JUDGE_HLD	48
T_JUDGE_SLD	19
T_JUDGE_ALL	486
TTM_EACHPAIRS	113
TTM_SCR_TAP	206500
TTM_SCR_BRK	15600
TTM_SCR_HLD	12000
TTM_SCR_SLD	28500
TTM_SCR_ALL	262600
TTM_SCR_S	254150
TTM_SCR_SS	262000
TTM_RAT_ACV	10022

