VERSION	0.00.00	1.05.00
FES_MODE	0
BPM_DEF	220.000	220.000	220.000	220.000
MET_DEF	4	4
RESOLUTION	384
CLK_DEF	384
COMPATIBLE_CODE	MA2

BPM	0	0	220.000
MET	0	0	4	4
MET	10	0	4	9
MET	16	288	4	4
MET	28	288	8	7
MET	34	336	4	4
MET	35	336	8	7
MET	40	96	8	6
MET	41	0	8	7
MET	41	336	4	4
MET	45	336	4	3
MET	46	240	4	4
MET	49	240	4	3
MET	50	144	4	4
MET	53	144	4	3
MET	54	48	4	4
MET	57	48	4	3
MET	57	336	4	4
MET	74	336	4	9
MET	81	240	4	4
MET	84	240	4	9
MET	91	144	4	4
MET	95	144	8	7
MET	101	192	4	4
MET	102	192	8	7
MET	108	192	8	9
MET	109	240	8	7
MET	113	48	4	4
MET	117	48	8	7
MET	118	336	4	4

NMTAP	2	0	7
NMTAP	2	192	7
NMTAP	3	0	6
NMTAP	4	0	5
NMTAP	4	192	5
NMTAP	5	0	4
NMTAP	6	0	3
NMTAP	6	192	3
NMTAP	7	0	2
NMTAP	8	0	1
NMTAP	8	192	1
EXTAP	9	0	0
EXTAP	9	0	7
NMTAP	10	0	0
NMTAP	10	192	0
NMTAP	11	0	0
NMTAP	11	0	1
NMTAP	12	96	2
NMTAP	12	288	2
NMTAP	13	96	3
NMTAP	13	96	4
NMTAP	14	192	5
NMTAP	15	0	5
NMTAP	15	192	6
NMTAP	15	192	7
NMTAP	16	288	0
NMTAP	17	96	0
NMHLD	17	288	0	288
NMHLD	17	288	7	288
NMTAP	20	288	7
NMTAP	21	96	7
NMTAP	21	288	6
NMTAP	22	96	6
NMTAP	22	288	5
NMTAP	23	96	5
NMTAP	23	288	4
NMTAP	23	288	5
NMTAP	24	96	4
NMTAP	24	96	5
NMTAP	24	288	3
NMTAP	25	96	3
NMTAP	25	288	2
NMTAP	26	96	2
NMTAP	26	288	1
NMTAP	27	96	1
NMTAP	27	288	0
NMTAP	27	288	1
BRTAP	28	288	0
NMTAP	29	0	0
NMTAP	29	96	0
NMTAP	29	192	0
NMTAP	30	192	1
NMTAP	30	288	1
NMTAP	31	0	1
NMTAP	31	96	1
NMTAP	32	96	2
NMTAP	32	192	2
NMTAP	32	288	2
NMTAP	33	0	2
NMTAP	34	0	3
NMTAP	34	96	3
NMTAP	34	192	3
NMTAP	34	288	3
EXTAP	35	336	4
EXTAP	36	48	4
EXTAP	36	144	4
EXTAP	36	240	4
NMTAP	37	240	5
NMTAP	37	336	5
NMTAP	38	48	5
NMTAP	38	144	5
NMTAP	39	144	6
NMTAP	39	240	6
NMTAP	39	336	6
NMTAP	40	48	6
EXTAP	41	0	7
EXTAP	41	96	7
EXTAP	41	192	7
BXTAP	41	288	0
BXTAP	41	288	7
EXSTR	42	336	7
NMSI_	42	336	7	96	288	3
NMTAP	44	336	2
NMTAP	45	144	2
NMTAP	45	336	2
EXSTR	46	240	1
NMSI_	46	240	1	96	288	4
NMTAP	48	240	5
NMTAP	49	48	5
NMTAP	49	240	5
EXSTR	50	144	6
NMSI_	50	144	6	96	288	3
NMTAP	52	144	2
NMTAP	52	336	2
NMTAP	53	144	2
EXSTR	54	48	1
NMSI_	54	48	1	96	288	5
NMTAP	56	48	6
NMTAP	56	240	6
NMTAP	57	48	6
BXTAP	57	336	7
EXTAP	58	48	7
EXTAP	58	144	7
NMTAP	58	336	6
NMTAP	59	144	6
NMTAP	59	144	7
NMTAP	59	336	5
NMTAP	60	48	5
NMTAP	60	144	5
NMTAP	60	336	4
NMTAP	61	144	3
NMTAP	61	144	4
NMTAP	61	336	3
NMTAP	62	48	3
NMTAP	62	144	3
NMTAP	62	336	2
NMTAP	63	144	2
NMTAP	63	144	3
NMTAP	63	336	1
NMTAP	64	48	1
NMTAP	64	144	1
NMTAP	64	336	0
NMTAP	65	144	0
NMTAP	65	144	7
NMSTR	65	336	7
NMSI_	65	336	7	96	288	3
NMSTR	67	336	2
NMSI_	67	336	2	96	288	6
NMSTR	69	336	7
NMSI_	69	336	7	96	288	3
EXSTR	71	336	3
NMSI_	71	336	3	96	288	0
EXSTR	71	336	4
NMSI_	71	336	4	96	288	7
EXTAP	74	336	0
EXTAP	75	48	0
EXTAP	75	144	0
BXTAP	75	336	0
BXTAP	75	336	1
NMTAP	77	48	2
NMTAP	77	144	2
NMTAP	77	240	2
BXTAP	78	48	3
BXTAP	78	48	4
NMTAP	79	144	4
NMTAP	79	240	4
NMTAP	79	336	4
BXTAP	80	144	4
BXTAP	80	144	5
NMTAP	81	240	6
NMTAP	81	336	6
NMTAP	82	48	6
EXHLD	82	240	0	384
EXHLD	82	240	7	384
NMTTP	84	240	0	B	0	L1
NMTTP	84	240	7	B	0	L1
NMTTP	85	240	1	B	0	L1
NMTTP	85	240	2	B	0	L1
NMTTP	86	336	3	B	0	L1
NMTTP	86	336	4	B	0	L1
NMTTP	87	336	5	B	0	L1
NMTTP	87	336	6	B	0	L1
NMTTP	89	48	0	B	0	L1
NMTTP	89	48	7	B	0	L1
NMTTP	90	48	1	B	0	L1
NMTTP	90	48	6	B	0	L1
NMTTP	91	144	2	B	0	L1
NMTTP	91	144	5	B	0	L1
NMTHO	92	144	0	288	C	1	L1
NMTAP	95	144	1
NMTAP	95	240	1
NMTAP	95	336	1
NMTAP	96	48	0
NMTAP	96	48	1
NMTAP	97	48	2
NMTAP	97	144	2
NMTAP	97	240	2
NMTAP	97	336	2
NMTAP	97	336	3
NMTAP	98	336	5
NMTAP	99	48	5
NMTAP	99	144	5
NMTAP	99	240	4
NMTAP	99	240	5
NMTAP	100	240	6
NMTAP	100	336	6
NMTAP	101	48	6
NMTAP	101	144	6
NMTAP	101	144	7
NMTAP	102	192	6
NMTAP	102	192	7
NMTAP	102	288	6
NMTAP	102	288	7
NMTAP	103	0	6
NMTAP	103	0	7
NMTAP	103	96	6
NMTAP	103	96	7
NMTAP	104	96	4
NMTAP	104	96	5
NMTAP	104	192	4
NMTAP	104	192	5
NMTAP	104	288	4
NMTAP	104	288	5
NMTAP	105	0	4
NMTAP	105	0	5
NMTAP	106	0	2
NMTAP	106	0	3
NMTAP	106	96	2
NMTAP	106	96	3
NMTAP	106	192	2
NMTAP	106	192	3
NMTAP	106	288	2
NMTAP	106	288	3
NMTAP	107	288	0
NMTAP	107	288	1
NMTAP	108	0	0
NMTAP	108	0	1
NMTAP	108	96	0
NMTAP	108	96	1
BRTAP	108	192	0
BRTAP	108	192	1
NMTAP	109	240	0
NMTAP	109	336	0
NMTAP	110	48	1
NMTAP	110	144	1
NMTAP	110	240	2
NMTAP	110	240	3
NMTAP	110	336	2
NMTAP	110	336	3
NMTAP	111	48	2
NMTAP	111	48	3
NMTAP	111	144	4
NMTAP	111	240	4
NMTAP	111	336	5
NMTAP	112	48	5
NMTAP	112	144	6
NMTAP	112	144	7
NMTAP	112	240	6
NMTAP	112	240	7
NMTAP	112	336	6
NMTAP	112	336	7
NMTAP	113	48	0
NMTAP	113	144	0
NMTAP	113	240	7
NMTAP	113	336	7
NMTAP	114	48	0
NMTAP	114	48	7
NMTAP	114	144	0
NMTAP	114	144	7
NMTAP	114	240	0
NMTAP	114	240	7
NMTAP	114	336	0
NMTAP	114	336	7
NMSTR	115	48	0
NMSI_	115	48	0	96	288	3
NMSTR	115	48	7
NMSI_	115	48	7	96	288	4
NMTAP	117	48	3
NMTAP	117	48	4
NMTAP	117	144	3
NMTAP	117	144	4
NMTAP	117	240	2
NMTAP	117	240	5
NMTAP	117	336	2
NMTAP	117	336	5
NMTAP	118	48	1
NMTAP	118	48	6
NMTAP	118	144	1
NMTAP	118	144	6
NMTAP	118	240	0
NMTAP	118	240	7
BRTAP	118	336	0
BRTAP	118	336	7

T_REC_TAP	204
T_REC_BRK	5
T_REC_XTP	14
T_REC_BXX	9
T_REC_HLD	2
T_REC_XHO	2
T_REC_BHO	0
T_REC_BXH	0
T_REC_STR	5
T_REC_BST	0
T_REC_XST	6
T_REC_XBS	0
T_REC_TTP	14
T_REC_THO	1
T_REC_SLD	11
T_REC_BSL	0
T_REC_ALL	273
T_NUM_TAP	243
T_NUM_BRK	14
T_NUM_HLD	5
T_NUM_SLD	11
T_NUM_ALL	273
T_JUDGE_TAP	257
T_JUDGE_HLD	34
T_JUDGE_SLD	11
T_JUDGE_ALL	302
TTM_EACHPAIRS	57
TTM_SCR_TAP	121500
TTM_SCR_BRK	36400
TTM_SCR_HLD	5000
TTM_SCR_SLD	16500
TTM_SCR_ALL	179400
TTM_SCR_S	172700
TTM_SCR_SS	178000
TTM_RAT_ACV	10078

