VERSION	0.00.00	1.05.00
FES_MODE	0
BPM_DEF	180.000	180.000	180.000	180.000
MET_DEF	4	4
RESOLUTION	384
CLK_DEF	384
COMPATIBLE_CODE	MA2

BPM	0	0	180.000
MET	0	0	4	4

NMHLD	2	0	2	72
NMHLD	2	72	3	72
NMTAP	2	144	2
NMTAP	2	192	2
NMTAP	2	288	1
NMTAP	2	288	3
NMHLD	3	0	1	72
NMHLD	3	72	3	72
NMTAP	3	144	1
NMTAP	3	192	1
NMTAP	3	288	2
NMTAP	3	288	4
NMHLD	4	0	5	72
NMHLD	4	72	4	72
NMTAP	4	144	5
NMTAP	4	192	5
NMTAP	4	288	4
NMTAP	4	288	6
NMHLD	5	0	6	72
NMHLD	5	72	4	72
NMTAP	5	144	5
EXTAP	5	192	5
EXTAP	5	264	4
NMTAP	5	264	6
EXTAP	5	336	1
NMTAP	5	336	5
NMTAP	6	0	1
EXTAP	6	0	5
NMTAP	6	48	2
EXTAP	6	72	4
NMTAP	6	96	2
NMTAP	6	120	4
EXTAP	6	144	2
NMTAP	6	168	4
EXTAP	6	192	2
NMTAP	6	216	4
EXTAP	6	240	2
NMTAP	6	264	4
EXTAP	6	288	2
NMTAP	6	312	4
NMTAP	6	336	2
NMTAP	6	360	4
EXTAP	7	0	1
NMTAP	7	24	3
NMTAP	7	48	1
EXTAP	7	72	3
NMTAP	7	96	1
NMTAP	7	120	3
EXTAP	7	144	1
NMTAP	7	168	3
EXTAP	7	192	1
NMTAP	7	216	3
EXTAP	7	240	1
NMTAP	7	264	3
EXTAP	7	288	1
EXHLD	8	0	0	48
EXHLD	8	72	1	48
EXHLD	8	72	7	48
NMTAP	8	144	2
EXTAP	8	144	6
NMTAP	8	192	2
EXTAP	8	192	6
EXTAP	8	240	5
NMTAP	8	264	4
EXTAP	8	288	5
NMTAP	8	312	4
NMTAP	8	336	5
EXTAP	9	0	3
NMTAP	9	0	6
EXTAP	9	72	1
NMTAP	9	72	4
NMTAP	9	144	0
EXTAP	9	144	7
EXHLD	9	240	7	6
EXHLD	9	288	7	6
BRTAP	10	0	0
BRSTR	10	0	1
NMSI_	10	0	1	96	48	4
NMTAP	10	72	0
NMTAP	10	96	1
NMTAP	10	144	7
NMTAP	10	192	6
NMTAP	10	240	5
NMTAP	10	264	4
NMTAP	10	288	5
NMTAP	10	336	3
NMTAP	10	336	6
NMTAP	11	0	2
NMSTR	11	0	7
NMSI_	11	0	7	96	48	3
NMTAP	11	72	1
NMTAP	11	96	7
NMTAP	11	144	0
NMTAP	11	192	1
NMTAP	11	216	3
NMTAP	11	240	1
NMTAP	11	288	2
NMTAP	11	288	4
NMSTR	12	0	6
NMSI_	12	0	6	96	48	3
NMTAP	12	72	7
NMTAP	12	96	6
NMTAP	12	144	0
NMTAP	12	192	1
NMTAP	12	240	2
NMTAP	12	264	3
NMTAP	12	288	2
NMTAP	12	336	1
NMTAP	12	336	4
NMSTR	13	0	0
NMSI_	13	0	0	96	48	4
NMTAP	13	0	5
NMTAP	13	72	6
NMTAP	13	96	0
NMTAP	13	144	7
NMTAP	13	192	6
NMTAP	13	216	4
NMTAP	13	240	6
NMTAP	13	288	3
NMTAP	13	288	5
NMSTR	14	0	2
NMSI_	14	0	2	96	48	7
NMTAP	14	0	4
NMTAP	14	72	3
NMTAP	14	96	2
NMTAP	14	144	4
NMTAP	14	192	5
NMTAP	14	240	6
NMTAP	14	264	7
NMTAP	14	288	6
NMTAP	14	336	0
NMTAP	14	336	5
NMTAP	15	0	1
NMSTR	15	0	4
NMSI_	15	0	4	96	48	0
NMTAP	15	72	2
NMTAP	15	96	4
NMTAP	15	144	3
NMTAP	15	192	2
NMTAP	15	216	0
NMTAP	15	240	2
NMTAP	15	288	1
NMTAP	15	288	7
NMSTR	16	0	5
NMSI_	16	0	5	96	48	0
NMTAP	16	72	4
NMTAP	16	96	5
NMTAP	16	144	3
NMTAP	16	192	2
NMTAP	16	240	1
NMTAP	16	264	0
NMTAP	16	288	1
NMTAP	16	336	2
NMTAP	16	336	7
NMTAP	17	0	2
NMTAP	17	0	7
NMTAP	17	72	0
NMTAP	17	72	5
NMTAP	17	144	1
NMTAP	17	144	6
NMTAP	17	192	1
NMTAP	17	192	6
NMTAP	17	288	3
NMTAP	17	288	4
BRSTR	18	0	2
NMSLL	18	0	2	96	192	6
NMTAP	18	96	4
NMTAP	18	192	4
NMTAP	18	288	4
CNSI_	18	288	6	0	96	4
NMTAP	19	0	3
CNSCR	19	0	4	0	288	1
NMTAP	19	96	3
NMTAP	19	192	3
NMTAP	19	288	3
NMSTR	20	0	5
NMSLR	20	0	5	96	192	1
NMTAP	20	96	3
NMTAP	20	192	3
CNSI_	20	288	1	0	96	3
NMTAP	20	288	3
CNSCL	21	0	3	0	288	6
NMTAP	21	0	4
NMTAP	21	96	4
NMTAP	21	192	4
NMTAP	21	288	4
NMSTR	22	0	2
NMSLL	22	0	2	96	192	5
NMTAP	22	96	4
NMTAP	22	192	4
NMTAP	22	288	4
CNSLR	22	288	5	0	288	1
NMTAP	23	0	3
NMTAP	23	96	3
NMTAP	23	192	3
NMSTR	23	288	4
NMSI_	23	288	4	96	48	0
BRHLD	24	0	1	288
BRTAP	24	0	4
NMTAP	24	288	0
NMTAP	24	312	7
NMTAP	24	336	6
NMTAP	24	360	5
NMTAP	25	0	0
NMTAP	25	0	4
NMTAP	25	48	1
NMTAP	25	72	3
NMTAP	25	120	6
NMTAP	25	144	4
NMTAP	25	192	0
NMTAP	25	192	7
NMTAP	25	240	0
NMTAP	25	240	7
BRTAP	25	288	1
BRTAP	25	288	6
NMHLD	26	0	1	72
NMTAP	26	72	0
NMTAP	26	144	2
NMTAP	26	144	7
NMSTR	26	192	2
NMSCR	26	192	2	96	48	5
NMTAP	26	192	7
NMTAP	26	240	6
NMTAP	26	288	6
NMHLD	27	0	5	48
NMHLD	27	0	6	48
NMHLD	27	72	4	48
NMHLD	27	72	7	48
NMTAP	27	144	0
NMSTR	27	144	3
NMSLL	27	144	3	96	96	5
NMTAP	27	240	7
NMTAP	27	288	7
NMTAP	28	0	4
NMHLD	28	0	6	72
NMHLD	28	72	0	72
NMTAP	28	144	2
NMHLD	28	192	1	72
NMTAP	28	192	3
NMHLD	28	264	7	72
NMTAP	28	336	5
NMTAP	29	0	4
NMHLD	29	0	6	72
NMHLD	29	72	0	72
NMTAP	29	144	2
NMTAP	29	192	1
NMTAP	29	192	3
NMTAP	29	288	0
NMTAP	29	288	4
NMHLD	30	0	6	72
NMTAP	30	72	7
NMTAP	30	144	0
NMTAP	30	144	5
NMTAP	30	192	0
NMSTR	30	192	5
NMSCL	30	192	5	96	48	2
NMTAP	30	240	1
NMTAP	30	288	1
NMHLD	31	0	1	48
NMHLD	31	0	2	48
NMHLD	31	72	0	48
NMHLD	31	72	3	48
NMSTR	31	144	4
NMSLR	31	144	4	96	96	2
NMTAP	31	144	7
NMTAP	31	240	0
NMTAP	31	288	0
NMTAP	32	0	1
NMHLD	32	0	7	72
NMTAP	32	72	4
NMTAP	32	144	0
NMTAP	32	144	6
NMHLD	32	192	0	72
NMTAP	32	192	6
NMTAP	32	264	2
NMTAP	32	336	1
NMTAP	32	336	7
NMTAP	33	0	1
NMHLD	33	0	7	72
NMHLD	33	72	5	72
NMTAP	33	144	3
NMTAP	33	192	2
NMTAP	33	192	6
BRTAP	33	288	0
BRTAP	33	288	7
NMTAP	34	0	2
NMTAP	34	24	3
NMTAP	34	48	2
NMTAP	34	72	3
NMTAP	34	96	2
NMTAP	34	120	3
NMTAP	34	144	2
NMTAP	34	168	3
NMTAP	34	192	1
NMTAP	34	216	4
NMTAP	34	240	1
NMTAP	34	264	4
NMTAP	34	288	1
NMTAP	34	312	4
NMTAP	34	336	1
NMTAP	34	360	4
NMTAP	35	0	2
NMTAP	35	24	3
NMTAP	35	48	2
NMTAP	35	72	3
NMSTR	35	96	1
NMSI_	35	96	1	96	48	3
NMSI_	35	96	1	96	48	6
BRTAP	35	192	1
NMTAP	36	0	5
NMTAP	36	24	4
NMTAP	36	48	5
NMTAP	36	72	4
NMTAP	36	96	5
NMTAP	36	120	4
NMTAP	36	144	5
NMTAP	36	168	4
NMTAP	36	192	6
NMTAP	36	216	3
NMTAP	36	240	6
NMTAP	36	264	3
NMTAP	36	288	6
NMTAP	36	312	3
NMTAP	36	336	6
NMTAP	36	360	3
NMTAP	37	0	5
NMSTR	37	48	5
NMSI_	37	48	5	96	48	3
NMSTR	37	144	5
NMSI_	37	144	5	96	48	0
NMSI_	37	144	5	96	48	1
BRTAP	37	240	5
NMTAP	38	0	1
NMTAP	38	24	3
NMTAP	38	48	1
NMTAP	38	72	3
NMTAP	38	96	1
NMTAP	38	120	3
NMTAP	38	144	1
NMTAP	38	168	3
NMTAP	38	192	2
NMTAP	38	216	4
NMTAP	38	240	2
NMTAP	38	264	4
NMTAP	38	288	2
NMTAP	38	312	4
NMTAP	38	336	2
NMTAP	38	360	4
NMTAP	39	0	3
NMSTR	39	48	3
NMSI_	39	48	3	96	48	1
NMSTR	39	96	3
NMSI_	39	96	3	96	48	6
NMSTR	39	144	3
BRSCL	39	144	3	96	96	5
EXTAP	40	0	7
EXTAP	40	72	4
NMTAP	40	72	5
EXTAP	40	144	2
NMTAP	40	144	3
EXTAP	40	192	1
NMTAP	40	192	7
NMTAP	40	264	2
EXTAP	40	264	3
NMTAP	40	336	4
EXTAP	40	336	5
NMTTP	41	0	6	B	0	M1
NMTTP	41	0	6	E	1	M1
NMTTP	41	0	6	A	0	M1
NMTTP	41	0	6	D	0	M1
NMTTP	41	0	7	E	0	M1
NMTTP	41	0	7	D	0	M1
NMTTP	41	72	1	B	0	M1
NMTTP	41	72	1	E	0	M1
NMTTP	41	72	1	A	0	M1
NMTTP	41	72	1	D	0	M1
NMTTP	41	72	2	E	1	M1
NMTTP	41	72	2	D	0	M1
BRTAP	41	144	0
BRTAP	41	144	7
BRTAP	42	0	0
EXTAP	42	12	1
EXTAP	42	24	2
EXHLD	42	36	3	24
BRSTR	42	72	0
NMSCL	42	72	0	96	48	4
EXTAP	42	84	1
EXTAP	42	96	2
EXHLD	42	108	3	24
BRTAP	42	144	0
NMTAP	42	240	7
NMTAP	42	288	6
NMTAP	42	336	5
NMHLD	43	0	0	48
NMHLD	43	0	4	48
NMHLD	43	72	1	48
NMHLD	43	72	3	48
NMTAP	43	144	5
NMSTR	43	192	4
NMSI_	43	192	4	96	48	0
NMSI_	43	192	4	96	48	1
NMTAP	43	192	6
NMTAP	43	288	4
BRTAP	44	0	7
EXTAP	44	12	6
EXTAP	44	24	5
EXHLD	44	36	4	24
BRSTR	44	72	7
NMSCR	44	72	7	96	72	3
EXTAP	44	84	6
EXTAP	44	96	5
EXHLD	44	108	4	24
BRTAP	44	144	7
NMTAP	44	240	0
NMTAP	44	288	1
NMTAP	44	336	2
NMTAP	45	0	3
NMTAP	45	0	7
NMSTR	45	48	6
NMSI_	45	48	6	96	48	2
NMTAP	45	72	4
NMTAP	45	96	5
EXTAP	45	144	6
EXTAP	45	144	7
NMTAP	45	240	0
BRTAP	45	288	1
BRTAP	45	288	7
NMHLD	46	0	2	72
NMTAP	46	0	6
NMTAP	46	72	3
NMTAP	46	96	2
NMTAP	46	144	1
NMTAP	46	144	4
NMTAP	46	192	6
NMTAP	46	216	7
NMTAP	46	240	6
NMTAP	46	288	0
NMTAP	46	288	5
NMTAP	46	336	1
NMHLD	47	0	2	48
NMHLD	47	0	3	48
NMHLD	47	72	0	48
NMHLD	47	72	7	48
NMTAP	47	144	4
NMSTR	47	144	5
NMSI_	47	144	5	96	48	2
EXTAP	47	240	0
EXTAP	47	240	5
EXTAP	47	288	0
NMTAP	48	0	1
NMTAP	48	0	3
NMTAP	48	48	2
NMTAP	48	72	3
NMTAP	48	96	1
NMTAP	48	144	5
NMTAP	48	168	4
NMTAP	48	192	6
NMTAP	48	240	0
NMTAP	48	240	1
NMTAP	48	288	2
NMTAP	48	288	7
NMTAP	48	336	3
NMTAP	48	336	6
NMTAP	49	0	4
NMTAP	49	0	5
NMSTR	49	48	4
NMSI_	49	48	4	96	48	0
NMSTR	49	48	5
NMSI_	49	48	5	96	48	1
NMTAP	49	144	4
NMTAP	49	144	5
BXTAP	49	240	2
BXTAP	49	240	7
BRTAP	50	0	7
EXTAP	50	12	6
EXTAP	50	24	5
EXHLD	50	36	4	24
BRSTR	50	72	7
NMSLR	50	72	7	96	48	3
EXTAP	50	84	6
EXTAP	50	96	5
EXHLD	50	108	4	24
BRTAP	50	144	7
NMTAP	50	240	0
NMTAP	50	288	1
NMTAP	50	336	2
NMHLD	51	0	3	48
NMHLD	51	0	7	48
NMHLD	51	72	4	48
NMHLD	51	72	6	48
NMTAP	51	144	2
NMTAP	51	192	1
NMSTR	51	192	3
NMSI_	51	192	3	96	48	6
NMSI_	51	192	3	96	48	7
EXTAP	51	288	3
BRTAP	52	0	0
EXTAP	52	12	1
EXTAP	52	24	2
EXHLD	52	36	3	24
BRSTR	52	72	0
NMSLL	52	72	0	96	48	4
EXTAP	52	84	1
EXTAP	52	96	2
EXHLD	52	108	3	24
BRTAP	52	144	0
NMTAP	52	240	7
NMTAP	52	288	6
NMTAP	52	336	5
NMTAP	53	0	0
NMTAP	53	0	4
NMSTR	53	48	1
NMSI_	53	48	1	96	48	4
NMSI_	53	48	1	96	48	6
NMTAP	53	72	3
NMTAP	53	96	2
EXTAP	53	144	1
NMTAP	53	240	3
NMTAP	53	240	7
BRTAP	53	288	3
BRTAP	53	288	7
NMHLD	54	0	1	72
NMTAP	54	72	0
NMTAP	54	96	1
NMTAP	54	144	2
NMTAP	54	144	7
NMTAP	54	192	5
NMTAP	54	216	4
NMTAP	54	240	5
NMTAP	54	288	3
NMTAP	54	288	6
NMTAP	54	336	7
NMHLD	55	0	0	48
NMHLD	55	0	1	48
NMHLD	55	72	3	48
NMHLD	55	72	4	48
NMSTR	55	144	6
NMSI_	55	144	6	96	48	2
NMSTR	55	192	7
NMSI_	55	192	7	96	48	3
NMTAP	55	240	6
NMTAP	55	288	7
NMHLD	56	0	1	48
NMTAP	56	48	3
NMHLD	56	72	3	48
NMTAP	56	120	4
NMHLD	56	144	4	48
NMTAP	56	192	6
NMTAP	56	216	7
NMTAP	56	240	5
NMTAP	56	288	0
NMTAP	56	288	4
NMTAP	57	0	0
EXTAP	57	12	1
EXTAP	57	24	2
EXTAP	57	36	3
EXTAP	57	48	4
EXTAP	57	60	5
EXTAP	57	72	6
EXTAP	57	84	7
EXTAP	57	96	0
EXTAP	57	108	1
EXTAP	57	120	2
EXTAP	57	132	3
EXTAP	57	144	4
EXTAP	57	156	5
EXTAP	57	168	6
EXTAP	57	180	7
EXSTR	57	192	0
NMSF_	57	192	0	96	48	4
NMTAP	57	288	0
BRTAP	58	0	2
BRTAP	58	0	6
NMTAP	58	192	1
NMTAP	58	192	4
NMTAP	58	240	2
NMTAP	58	240	3
NMTAP	58	288	1
NMTAP	58	288	4
NMHLD	59	0	4	48
NMHLD	59	72	3	48
NMHLD	59	72	5	48
NMTAP	59	144	2
NMTAP	59	144	6
NMSTR	59	192	2
NMSI_	59	192	2	96	48	0
NMSTR	59	192	6
NMSI_	59	192	6	96	48	4
NMHLD	60	0	1	72
NMHLD	60	72	3	72
NMSTR	60	144	2
NMSLR	60	144	2	96	72	0
NMTAP	60	192	2
CNSI_	60	312	0	0	72	6
NMHLD	61	0	5	72
NMHLD	61	72	4	72
NMSTR	61	144	5
NMSUL	61	144	5	96	96	3
NMTAP	61	192	5
NMHLD	62	0	1	72
NMHLD	62	72	0	72
NMSTR	62	144	2
NMSV_	62	144	2	96	72	3
NMTAP	62	192	2
CNSI_	62	312	3	0	48	5
NMHLD	63	0	6	72
NMHLD	63	72	7	72
NMSTR	63	144	0
NMSXR	63	144	0	96	144	4
NMTAP	63	192	0
NMHLD	64	0	3	72
NMHLD	64	72	2	72
NMSTR	64	144	1
NMSLR	64	144	1	96	96	5
NMTAP	64	192	1
NMTAP	65	0	4
NMTAP	65	0	6
NMTAP	65	72	1
NMTAP	65	72	3
NMTAP	65	144	0
NMTAP	65	144	7
NMTAP	65	192	0
NMTAP	65	192	7
BRTAP	65	288	2
BRTAP	65	288	5
NMTAP	66	0	1
NMTAP	66	0	4
NMTAP	66	48	2
NMTAP	66	72	3
NMTAP	66	120	3
NMTAP	66	144	1
NMTAP	66	192	0
NMTAP	66	192	7
NMTAP	66	240	5
NMTAP	66	264	4
NMTAP	66	312	4
NMTAP	66	336	6
NMTAP	67	0	0
NMTAP	67	0	7
NMTAP	67	48	1
NMTAP	67	72	3
NMTAP	67	120	3
NMTAP	67	144	2
NMTAP	67	192	4
NMTAP	67	192	5
NMTAP	67	240	6
NMTAP	67	264	7
NMTAP	67	312	7
NMTAP	67	336	5
NMTAP	68	0	2
NMTAP	68	0	3
NMTAP	68	48	1
NMTAP	68	72	0
NMTAP	68	120	6
NMTAP	68	144	7
NMTAP	68	192	4
NMTAP	68	192	5
NMTAP	68	240	6
NMTAP	68	264	7
NMTAP	68	312	1
NMTAP	68	336	0
NMTAP	69	0	2
NMTAP	69	0	3
NMTAP	69	48	1
NMTAP	69	72	0
NMTAP	69	120	6
NMTAP	69	144	7
NMSTR	69	192	4
NMSI_	69	192	4	96	48	2
NMSTR	69	192	5
NMSI_	69	192	5	96	48	7
NMTAP	69	288	4
NMTAP	69	288	5
NMTTP	70	0	1	E	0	M1
EXHLD	70	0	1	96
NMTTP	70	24	2	E	0	M1
NMTTP	70	48	3	E	0	M1
NMTTP	70	72	4	E	0	M1
NMTTP	70	96	5	E	0	M1
NMTTP	70	192	0	E	0	M1
NMHLD	70	192	6	96
NMTTP	70	216	7	E	0	M1
NMTTP	70	240	6	E	0	M1
NMTTP	70	264	5	E	0	M1
NMTTP	70	288	4	E	0	M1
NMTTP	71	0	1	E	0	M1
EXHLD	71	0	1	288
NMTTP	71	24	2	E	0	M1
NMTTP	71	48	3	E	0	M1
NMTTP	71	72	4	E	0	M1
NMTTP	71	96	5	E	0	M1
NMTTP	71	120	6	E	0	M1
NMTTP	71	144	7	E	0	M1
NMTTP	71	168	0	D	0	M1
NMTTP	71	192	1	D	0	M1
NMTTP	71	216	2	D	0	M1
NMTTP	71	240	3	D	0	M1
NMTTP	71	264	4	D	0	M1
NMTTP	71	288	5	D	0	M1
NMTTP	72	0	0	A	0	M1
NMTTP	72	24	0	E	0	M1
NMTTP	72	48	7	E	0	M1
NMTTP	72	72	6	A	0	M1
NMTTP	72	96	1	E	0	M1
NMTTP	72	120	0	B	0	M1
NMTTP	72	144	6	B	0	M1
NMTTP	72	168	6	E	0	M1
NMTTP	72	192	1	A	0	M1
NMTTP	72	216	1	B	0	M1
NMTTP	72	240	5	B	0	M1
NMTTP	72	264	5	A	0	M1
NMTTP	72	288	2	E	0	M1
NMTTP	72	312	2	B	0	M1
NMTTP	72	336	4	B	0	M1
NMTTP	72	360	5	E	0	M1
NMTTP	73	0	2	A	0	M1
NMTTP	73	24	3	E	0	M1
NMTTP	73	48	4	E	0	M1
NMTTP	73	72	4	A	0	M1
NMTTP	73	96	7	A	0	M1
NMTTP	73	120	7	B	0	M1
NMTTP	73	144	0	C	0	M1
NMTTP	73	168	3	B	0	M1
BRSTR	73	192	0
BRSI_	73	192	0	96	48	4
NMTTP	73	192	3	A	1	M1
NMTAP	73	288	0
NMHLD	74	0	6	72
NMHLD	74	72	4	72
NMTAP	74	144	5
NMHLD	74	192	2	72
NMHLD	74	264	3	72
NMTAP	74	336	1
NMHLD	75	0	1	48
NMHLD	75	72	0	48
NMHLD	75	72	2	48
NMTAP	75	144	3
NMTAP	75	144	7
NMSTR	75	192	3
NMSI_	75	192	3	96	48	0
NMSTR	75	192	7
NMSI_	75	192	7	96	48	4
NMHLD	76	0	1	72
NMHLD	76	72	2	72
NMTAP	76	144	3
NMHLD	76	192	4	72
NMHLD	76	264	5	72
NMTAP	76	336	6
NMHLD	77	0	7	72
NMHLD	77	72	0	72
NMTAP	77	144	1
NMSTR	77	192	1
NMSI_	77	192	1	96	48	3
NMSV_	77	192	1	96	48	4
NMHLD	78	0	5	72
NMHLD	78	72	6	72
NMTAP	78	144	7
NMTAP	78	192	0
NMTAP	78	192	1
NMTAP	78	240	2
NMTAP	78	288	3
NMTAP	78	288	4
NMTAP	78	336	5
NMHLD	79	0	4	48
NMHLD	79	0	6	48
NMHLD	79	72	1	48
NMHLD	79	72	3	48
NMHLD	79	144	0	48
NMHLD	79	144	7	48
NMTAP	79	240	2
NMTAP	79	240	5
NMTAP	79	288	2
NMTAP	79	288	5
NMHLD	80	0	6	48
NMTAP	80	48	7
NMTAP	80	72	6
NMTAP	80	144	0
NMTAP	80	144	5
NMHLD	80	192	1	48
NMTAP	80	240	0
NMTAP	80	264	1
NMTAP	80	336	2
NMTAP	80	336	7
NMTAP	81	0	3
NMTAP	81	0	6
NMTAP	81	48	5
NMTAP	81	72	4
NMTAP	81	120	2
NMTAP	81	144	3
NMSTR	81	192	1
NMSI_	81	192	1	96	48	4
NMSTR	81	192	5
NMSI_	81	192	5	96	48	0
EXTAP	81	288	1
EXTAP	81	288	5
BRTAP	82	0	2
BRTAP	82	0	6
NMTAP	83	288	2
NMTAP	83	288	6
NMTAP	84	0	1
NMTAP	84	24	5
NMTAP	84	48	1
NMTAP	84	72	5
NMTAP	84	96	1
BXTAP	84	144	2
BXTAP	84	144	6
BXTAP	84	216	0
BXTAP	84	216	4
BXTAP	84	288	1
BXTAP	84	288	5
BRTAP	85	0	0
NMTAP	85	0	6
EXTAP	85	12	1
EXTAP	85	24	2
EXHLD	85	36	3	24
BRSTR	85	72	1
NMSCL	85	72	1	96	72	4
EXTAP	85	84	2
EXTAP	85	96	3
EXHLD	85	108	4	24
BRTAP	85	144	1
NMTAP	85	240	0
EXTAP	85	288	2
NMTAP	85	288	7
NMTAP	85	336	5
NMHLD	86	0	0	48
NMHLD	86	0	4	48
NMHLD	86	72	6	48
NMHLD	86	72	7	48
NMTAP	86	144	2
NMTAP	86	144	3
NMSTR	86	192	1
NMSI_	86	192	1	96	48	5
NMTAP	86	192	5
NMTAP	86	288	1
NMTAP	86	288	7
BRTAP	87	0	7
EXTAP	87	12	6
EXTAP	87	24	5
EXHLD	87	36	4	24
BRSTR	87	72	6
NMSCR	87	72	6	96	72	3
EXTAP	87	84	5
EXTAP	87	96	4
EXHLD	87	108	3	24
BRTAP	87	144	6
NMTAP	87	240	7
NMTAP	87	288	0
EXTAP	87	288	5
NMTAP	87	336	6
NMTAP	88	0	2
NMTAP	88	0	7
NMSTR	88	48	1
NMSI_	88	48	1	96	48	6
NMSV_	88	48	1	96	48	4
NMTAP	88	72	0
NMTAP	88	96	2
EXTAP	88	144	1
NMTAP	88	240	3
NMTAP	88	240	7
BRTAP	88	288	3
BRTAP	88	288	7
NMTAP	89	0	1
NMTAP	89	0	4
NMTAP	89	48	2
NMTAP	89	72	3
NMTAP	89	96	1
NMTAP	89	144	0
NMTAP	89	144	7
NMTAP	89	192	5
NMTAP	89	216	4
NMTAP	89	240	6
NMTAP	89	288	0
NMTAP	89	288	7
NMTAP	89	336	1
NMTAP	89	360	0
NMTAP	90	0	2
NMSTR	90	48	6
NMSI_	90	48	6	96	48	2
NMSI_	90	48	6	96	48	3
NMTAP	90	72	7
NMTAP	90	96	5
NMTAP	90	240	1
NMTAP	90	240	4
NMTAP	90	288	1
NMTAP	90	288	4
NMTAP	91	0	0
NMTAP	91	0	5
NMTAP	91	48	1
NMTAP	91	72	3
NMTAP	91	96	2
NMTAP	91	144	5
NMTAP	91	168	4
NMTAP	91	192	6
NMTAP	91	240	0
NMTAP	91	240	1
NMTAP	91	288	2
NMTAP	91	288	3
NMTAP	91	336	4
NMTAP	91	336	5
NMTAP	92	0	6
NMTAP	92	0	7
NMSTR	92	48	0
NMSI_	92	48	0	96	48	4
NMSTR	92	48	1
NMSI_	92	48	1	96	48	5
NMTAP	92	96	2
NMTAP	92	96	7
NMTAP	92	144	0
NMTAP	92	144	1
BXTAP	92	240	6
BXTAP	92	240	7
BRTAP	93	0	0
NMTAP	93	0	7
EXTAP	93	12	1
EXTAP	93	24	2
EXHLD	93	36	3	24
BRSTR	93	72	1
NMSCL	93	72	1	96	72	4
EXTAP	93	84	2
EXTAP	93	96	3
EXHLD	93	108	4	24
BRTAP	93	144	1
NMTAP	93	240	0
EXTAP	93	288	2
NMTAP	93	288	7
NMTAP	93	336	5
NMHLD	94	0	0	48
NMHLD	94	0	4	48
NMHLD	94	72	2	48
NMHLD	94	72	3	48
NMTAP	94	144	6
NMTAP	94	144	7
NMSTR	94	192	1
NMSI_	94	192	1	96	48	4
NMSTR	94	192	5
NMSI_	94	192	5	96	48	0
NMTAP	94	288	1
NMTAP	94	288	5
NMTAP	95	0	1
BRTAP	95	0	7
EXTAP	95	12	6
EXTAP	95	24	5
EXHLD	95	36	4	24
BRSTR	95	72	6
NMSCR	95	72	6	96	72	3
EXTAP	95	84	5
EXTAP	95	96	4
EXHLD	95	108	3	24
BRTAP	95	144	6
NMTAP	95	240	7
NMTAP	95	288	0
EXTAP	95	288	5
NMTAP	95	336	2
NMTAP	96	0	3
NMTAP	96	0	7
NMSTR	96	48	5
NMSI_	96	48	5	96	48	0
NMSV_	96	48	5	96	48	2
NMTAP	96	72	4
NMTAP	96	96	6
EXTAP	96	144	5
NMTAP	96	240	3
NMTAP	96	240	7
NMTAP	96	288	4
NMTAP	96	288	6
NMTAP	97	0	0
NMTAP	97	0	5
NMTAP	97	48	1
NMTAP	97	72	3
NMTAP	97	96	2
NMTAP	97	144	3
NMTAP	97	144	4
NMTAP	97	192	5
NMTAP	97	216	4
NMTAP	97	240	6
NMTAP	97	288	1
NMTAP	97	288	7
NMTAP	97	336	1
NMTAP	97	360	0
NMTAP	98	0	2
NMTAP	98	48	6
NMTAP	98	72	4
NMTAP	98	96	5
NMTAP	98	144	3
NMTAP	98	144	4
NMSTR	98	192	2
BRSI_	98	192	2	96	48	6
BRSI_	98	192	2	96	48	7
NMTAP	98	216	3
NMTAP	98	240	1
NMTAP	98	288	2
NMTAP	99	0	0
NMHLD	99	0	5	48
NMTAP	99	48	7
NMHLD	99	72	7	48
NMTAP	99	120	0
NMHLD	99	144	0	48
NMTAP	99	192	1
NMTAP	99	216	0
NMTAP	99	240	2
NMTAP	99	288	6
NMTAP	99	312	7
NMTAP	99	336	5
NMTAP	100	0	0
NMTAP	100	0	4
NMTAP	100	12	1
NMTAP	100	24	2
NMTAP	100	36	3
NMTAP	100	48	4
NMTAP	100	60	5
NMTAP	100	72	6
NMTAP	100	84	7
NMTAP	100	96	0
NMTAP	100	108	1
NMTAP	100	120	2
NMTAP	100	132	3
NMTAP	100	144	4
NMTAP	100	156	5
NMTAP	100	168	6
NMTAP	100	180	7
NMSTR	100	192	0
BRSF_	100	192	0	96	48	4
NMTAP	100	288	0
NMTTP	101	0	0	C	1	M1
NMTTP	101	0	2	B	0	M1
NMTTP	101	0	2	A	0	M1
NMTTP	101	0	6	B	0	M1
NMTTP	101	0	6	A	0	M1
NMTAP	101	192	2
NMTAP	101	192	7
NMTAP	101	240	1
NMTAP	101	264	0
NMTAP	101	288	1
NMTAP	101	312	0
NMTAP	101	336	1
NMSTR	102	0	2
NMSCL	102	0	2	96	48	7
NMTAP	102	72	4
NMTAP	102	96	2
NMTAP	102	144	5
NMTAP	102	192	6
NMTAP	102	216	7
NMTAP	102	240	6
NMTAP	102	288	0
NMTAP	102	288	5
NMSTR	103	0	1
NMSCR	103	0	1	96	48	4
NMTAP	103	72	0
NMTAP	103	96	1
NMTAP	103	144	7
NMTAP	103	192	3
NMTAP	103	192	6
NMTAP	103	240	5
NMTAP	103	264	4
NMTAP	103	288	5
NMTAP	103	312	4
NMTAP	103	336	5
NMSTR	104	0	6
NMSI_	104	0	6	96	48	3
NMTAP	104	72	7
NMTAP	104	96	6
NMTAP	104	144	0
NMTAP	104	192	1
NMTAP	104	216	3
NMTAP	104	240	1
NMTAP	104	288	0
NMTAP	104	288	4
NMSTR	105	0	5
NMSCR	105	0	5	96	48	0
NMTAP	105	72	4
NMTAP	105	96	5
NMTAP	105	144	3
NMTAP	105	192	2
NMTAP	105	192	7
NMTAP	105	240	1
NMTAP	105	264	0
NMTAP	105	288	1
NMTAP	105	312	0
NMTAP	105	336	1
NMSTR	106	0	2
NMSI_	106	0	2	96	48	6
NMTAP	106	72	3
NMTAP	106	96	2
NMTAP	106	144	4
NMTAP	106	192	5
NMTAP	106	216	7
NMTAP	106	240	5
NMTAP	106	288	0
NMTAP	106	288	4
NMSTR	107	0	2
NMSCL	107	0	2	96	48	7
NMTAP	107	72	3
NMTAP	107	96	2
NMTAP	107	144	4
NMTAP	107	192	0
NMTAP	107	192	5
NMTAP	107	240	6
NMTAP	107	264	7
NMTAP	107	288	6
NMTAP	107	312	7
NMTAP	107	336	6
NMTAP	108	0	4
NMTAP	108	0	5
NMTAP	108	72	2
NMTAP	108	72	3
NMTAP	108	144	0
NMTAP	108	144	4
NMSTR	108	192	0
NMSV_	108	192	0	96	48	3
NMSTR	108	192	4
NMSV_	108	192	4	96	48	7
NMTAP	108	216	1
NMTAP	108	216	5
NMTAP	108	240	2
NMTAP	108	240	6
NMHLD	109	0	2	48
NMHLD	109	0	6	48
NMHLD	109	72	0	48
NMHLD	109	72	1	48
NMHLD	109	144	5	48
NMHLD	109	144	6	48
NMHLD	109	216	2	48
NMHLD	109	216	3	48
BRSTR	109	288	0
NMSCR	109	288	0	96	96	3
BRHLD	109	288	4	336
CNSUR	110	96	3	0	144	1

T_REC_TAP	631
T_REC_BRK	38
T_REC_XTP	90
T_REC_BXX	10
T_REC_HLD	105
T_REC_XHO	23
T_REC_BHO	2
T_REC_BXH	0
T_REC_STR	60
T_REC_BST	12
T_REC_XST	1
T_REC_XBS	0
T_REC_TTP	65
T_REC_THO	0
T_REC_SLD	78
T_REC_BSL	5
T_REC_ALL	1120
T_NUM_TAP	847
T_NUM_BRK	67
T_NUM_HLD	128
T_NUM_SLD	78
T_NUM_ALL	1120
T_JUDGE_TAP	907
T_JUDGE_HLD	192
T_JUDGE_SLD	83
T_JUDGE_ALL	1182
TTM_EACHPAIRS	196
TTM_SCR_TAP	423500
TTM_SCR_BRK	174200
TTM_SCR_HLD	128000
TTM_SCR_SLD	117000
TTM_SCR_ALL	842700
TTM_SCR_S	810950
TTM_SCR_SS	836000
TTM_RAT_ACV	10080

