VERSION	0.00.00	1.05.00
FES_MODE	0
BPM_DEF	180.000	180.000	180.000	180.000
MET_DEF	4	4
RESOLUTION	384
CLK_DEF	384
COMPATIBLE_CODE	MA2

BPM	0	0	180.000
MET	0	0	4	4

NMTAP	2	0	4
NMTAP	2	96	4
NMTAP	2	192	4
NMTAP	2	288	4
NMTAP	3	0	3
NMTAP	3	96	3
NMTAP	3	192	3
NMTAP	3	288	3
NMTAP	4	0	5
NMTAP	4	96	5
NMTAP	4	192	5
NMTAP	4	288	5
NMTAP	5	0	2
NMSTR	5	96	2
NMSCR	5	96	2	96	96	5
NMHLD	6	0	4	72
NMHLD	6	0	6	72
NMTAP	6	144	3
NMTAP	6	144	7
NMTAP	6	192	3
NMTAP	6	192	7
NMTAP	6	288	0
NMHLD	7	0	1	72
NMHLD	7	0	3	72
NMTAP	7	144	0
NMTAP	7	144	4
NMTAP	7	192	0
NMTAP	7	192	4
NMTAP	7	288	7
NMHLD	8	0	4	72
NMHLD	8	0	6	72
NMTAP	8	144	3
NMTAP	8	144	7
NMTAP	8	192	3
NMTAP	8	192	7
NMTAP	8	288	0
EXTAP	9	0	1
EXTAP	9	0	3
EXTAP	9	72	4
EXTAP	9	72	6
EXTAP	9	144	0
EXTAP	9	144	7
NMTTP	9	240	3	E	0	M1
NMTTP	9	288	5	E	0	M1
NMHLD	10	0	6	72
NMTAP	10	72	4
NMTAP	10	144	7
NMTAP	10	192	7
NMTAP	10	288	0
NMTAP	10	288	1
NMHLD	11	0	2	72
NMTAP	11	72	3
NMTAP	11	144	1
NMTAP	11	144	4
NMSTR	11	192	1
NMSCR	11	192	1	96	48	4
NMTAP	11	192	4
NMHLD	12	0	6	72
NMTAP	12	72	4
NMTAP	12	144	7
NMTAP	12	192	7
NMTAP	12	288	0
NMTAP	12	288	1
NMHLD	13	0	2	72
NMTAP	13	72	3
NMTAP	13	144	4
NMTAP	13	144	5
NMTAP	13	192	4
NMTAP	13	192	5
NMTAP	13	288	0
NMTAP	13	288	6
NMHLD	14	0	1	72
NMTAP	14	72	3
NMTAP	14	144	0
NMTAP	14	192	0
NMTAP	14	288	6
NMTAP	14	288	7
NMHLD	15	0	5	72
NMTAP	15	72	4
NMTAP	15	144	3
NMTAP	15	144	6
NMTAP	15	192	3
NMSTR	15	192	6
NMSCL	15	192	6	96	48	3
NMHLD	16	0	1	72
NMTAP	16	72	3
NMTAP	16	144	0
NMTAP	16	192	0
NMTAP	16	288	6
NMTAP	16	288	7
NMHLD	17	0	5	72
NMTAP	17	72	4
NMTAP	17	144	3
NMTAP	17	144	6
NMTAP	17	192	3
NMTAP	17	192	6
EXTAP	17	288	0
EXTAP	17	288	7
EXHLD	18	0	1	768
NMTAP	18	96	3
NMTAP	18	192	2
NMTAP	18	288	2
NMTAP	19	0	3
NMSTR	19	96	3
NMSCR	19	96	3	96	48	5
NMHLD	20	0	6	768
NMTAP	20	96	4
NMTAP	20	192	5
NMTAP	20	288	5
NMTAP	21	0	4
NMSTR	21	96	4
NMSCR	21	96	4	96	96	0
NMHLD	22	0	1	672
NMTAP	22	96	3
NMTAP	22	192	2
NMTAP	22	288	2
NMTAP	23	0	3
NMSTR	23	96	3
NMSCR	23	96	3	96	96	7
EXHLD	24	0	0	288
EXHLD	24	0	7	288
EXTAP	25	0	1
EXTAP	25	0	3
EXTAP	25	72	4
EXTAP	25	72	6
EXTAP	25	144	3
EXTAP	25	144	4
EXTAP	25	192	3
EXTAP	25	192	4
BRTAP	25	288	0
BRTAP	25	288	5
NMTAP	26	0	6
NMSTR	26	0	7
NMSI_	26	0	7	96	48	2
NMTAP	26	240	3
NMHLD	26	288	3	288
NMSTR	27	0	1
NMSUR	27	0	1	96	96	6
NMTAP	27	288	5
NMTAP	27	288	7
NMHLD	28	0	4	72
NMHLD	28	0	6	72
NMTAP	28	144	1
NMTAP	28	144	3
NMHLD	28	192	1	72
NMHLD	28	192	3	72
NMTAP	28	336	0
NMTAP	28	336	6
NMHLD	29	0	0	72
NMHLD	29	0	6	72
NMTAP	29	144	3
NMTAP	29	144	4
NMTAP	29	192	3
NMTAP	29	192	4
NMTAP	29	288	2
NMTAP	29	288	7
NMSTR	30	0	0
NMSI_	30	0	0	96	48	5
NMTAP	30	0	1
NMTAP	30	240	4
NMHLD	30	288	4	288
NMSTR	31	0	6
NMSUL	31	0	6	96	96	1
NMTAP	31	336	0
NMTAP	31	336	2
NMHLD	32	0	0	72
NMHLD	32	0	2	72
NMTAP	32	144	3
NMTAP	32	144	5
NMHLD	32	192	3	72
NMHLD	32	192	5	72
NMTAP	32	336	5
NMTAP	32	336	7
NMHLD	33	0	5	72
NMHLD	33	0	7	72
NMTAP	33	144	3
NMTAP	33	144	4
NMTAP	33	192	3
NMTAP	33	192	4
NMTAP	33	288	1
NMTAP	33	288	7
NMTAP	34	0	6
NMSTR	34	48	6
NMSI_	34	48	6	96	48	2
NMTAP	34	144	0
NMSTR	34	192	0
NMSI_	34	192	0	96	48	4
NMTAP	34	288	5
NMTAP	34	336	5
NMTAP	35	48	6
NMTAP	35	48	7
NMSTR	35	96	6
NMSI_	35	96	6	96	48	3
NMSTR	35	96	7
NMSI_	35	96	7	96	48	2
NMTAP	36	0	1
NMSTR	36	48	1
NMSI_	36	48	1	96	48	5
NMTAP	36	144	7
NMSTR	36	192	7
NMSI_	36	192	7	96	48	3
NMTAP	36	288	2
NMTAP	36	336	2
NMTAP	37	48	0
NMTAP	37	48	1
NMSTR	37	96	0
NMSI_	37	96	0	96	48	5
NMSTR	37	96	1
NMSI_	37	96	1	96	48	4
NMTAP	38	0	6
NMSTR	38	48	6
NMSI_	38	48	6	96	48	2
NMTAP	38	144	0
NMSTR	38	192	0
NMSI_	38	192	0	96	48	4
NMTAP	38	288	5
NMTAP	38	336	5
NMTAP	39	48	6
NMTAP	39	48	7
NMSTR	39	96	6
NMSI_	39	96	6	96	48	3
NMSTR	39	96	7
NMSI_	39	96	7	96	48	2
NMTAP	40	0	1
NMTAP	40	0	3
NMHLD	40	72	1	72
NMHLD	40	72	3	72
NMTAP	40	192	4
NMTAP	40	192	6
NMHLD	40	264	4	72
NMHLD	40	264	6	72
BRSTR	41	0	3
BRSI_	41	0	3	96	48	0
BRSTR	41	0	4
BRSI_	41	0	4	96	48	7
EXTAP	42	0	0
EXTAP	42	0	1
NMTAP	42	72	2
NMTAP	42	72	7
NMTAP	42	144	3
NMHLD	42	144	6	144
NMTAP	42	240	4
NMTAP	42	288	4
NMTAP	43	0	4
NMTAP	43	0	5
NMHLD	43	72	2	216
NMSTR	43	72	3
NMSI_	43	72	3	96	72	7
NMTAP	44	0	2
NMTAP	44	0	7
NMTAP	44	72	3
NMTAP	44	72	6
NMSTR	44	144	4
NMSI_	44	144	4	96	48	2
NMSTR	44	144	5
NMSI_	44	144	5	96	48	1
NMSTR	45	0	0
NMSSL	45	0	0	96	144	4
NMHLD	45	0	3	240
NMHLD	46	0	5	72
NMHLD	46	72	6	72
NMTAP	46	144	7
NMTAP	46	240	0
NMTAP	46	240	1
NMTAP	46	288	0
NMTAP	46	288	1
NMHLD	47	0	3	72
NMHLD	47	72	4	72
NMTAP	47	144	5
NMTAP	47	240	6
NMTAP	47	240	7
NMTAP	47	288	6
NMTAP	47	288	7
NMTAP	48	0	0
NMSTR	48	0	1
NMSCR	48	0	1	96	96	5
NMTAP	48	240	7
NMTAP	48	288	7
EXTAP	49	0	4
EXTAP	49	0	6
EXTAP	49	72	3
EXTAP	49	72	4
EXTAP	49	144	1
EXTAP	49	144	3
BRTAP	49	240	2
BRTAP	49	240	7
EXTAP	50	0	6
EXTAP	50	0	7
NMTAP	50	72	0
NMTAP	50	72	5
NMHLD	50	144	1	144
NMTAP	50	144	4
NMTAP	50	240	3
NMTAP	50	288	3
NMTAP	51	0	2
NMTAP	51	0	3
NMSTR	51	72	4
NMSI_	51	72	4	96	72	0
NMHLD	51	72	5	216
NMTAP	52	0	0
NMTAP	52	0	5
NMTAP	52	72	1
NMTAP	52	72	4
NMSTR	52	144	2
NMSI_	52	144	2	96	48	6
NMSTR	52	144	3
NMSI_	52	144	3	96	48	5
NMHLD	53	0	4	240
NMSTR	53	0	7
NMSSR	53	0	7	96	144	3
NMHLD	54	0	2	72
NMHLD	54	72	1	72
NMTAP	54	144	0
NMTAP	54	240	6
NMTAP	54	240	7
NMTAP	54	288	6
NMTAP	54	288	7
NMHLD	55	0	4	72
NMHLD	55	72	3	72
NMTAP	55	144	2
NMTAP	55	240	0
NMTAP	55	240	1
NMTAP	55	288	0
NMTAP	55	288	1
NMTAP	56	0	6
NMTAP	56	0	7
NMTAP	56	72	0
NMTAP	56	72	5
NMHLD	56	144	1	144
NMTAP	56	144	4
NMTAP	56	240	3
NMSTR	56	288	3
NMSCL	56	288	3	96	192	5
BRTAP	57	192	0
NMHLD	58	0	6	72
NMHLD	58	72	4	72
NMTAP	58	144	5
NMTAP	58	192	5
NMTAP	58	288	1
NMTAP	58	288	7
NMHLD	59	0	2	72
NMHLD	59	72	4	72
NMTAP	59	144	3
NMTAP	59	192	3
NMTAP	59	288	0
NMTAP	59	288	6
NMHLD	60	0	6	72
NMHLD	60	72	4	72
NMTAP	60	144	5
NMTAP	60	192	5
NMTAP	60	288	1
NMTAP	60	288	7
NMHLD	61	0	2	72
NMHLD	61	72	4	72
NMTAP	61	144	3
NMTAP	61	192	3
NMTAP	61	288	0
NMTAP	61	288	6
NMHLD	62	0	5	72
NMTAP	62	72	4
NMTAP	62	144	6
NMTAP	62	144	7
NMSTR	62	192	6
NMSCL	62	192	6	96	48	3
NMTAP	62	192	7
NMHLD	63	0	2	72
NMTAP	63	72	3
NMTAP	63	144	0
NMTAP	63	144	1
NMTAP	63	192	0
NMSTR	63	192	1
NMSCR	63	192	1	96	48	4
NMHLD	64	0	5	72
NMTAP	64	72	4
NMTAP	64	144	6
NMTAP	64	144	7
NMSTR	64	192	6
NMSCL	64	192	6	96	48	3
NMTAP	64	192	7
NMHLD	65	0	2	72
NMTAP	65	72	3
NMTAP	65	144	0
NMTAP	65	144	1
NMTAP	65	192	0
NMTAP	65	192	1
BXTAP	65	288	4
BXTAP	65	288	5
NMHLD	66	0	6	480
NMTTP	66	96	6	E	0	M1
NMTTP	66	192	3	E	0	M1
NMTTP	66	288	0	B	0	M1
NMTTP	67	0	5	B	0	M1
NMTTP	67	96	2	B	0	M1
EXTAP	67	192	0
EXTAP	67	192	7
NMTAP	67	288	3
NMTAP	67	288	5
NMHLD	68	0	1	480
NMTTP	68	96	2	E	0	M1
NMTTP	68	192	5	E	0	M1
NMTTP	68	288	7	B	0	M1
NMTTP	69	0	2	B	0	M1
NMTTP	69	96	5	B	0	M1
EXTAP	69	192	0
EXTAP	69	192	7
NMTAP	69	288	2
NMTAP	69	288	4
NMSTR	70	0	6
NMSCL	70	0	6	96	96	3
NMTAP	70	0	7
NMSTR	70	192	0
NMSCR	70	192	0	96	96	4
NMSTR	71	0	7
NMSUL	71	0	7	96	192	4
NMHLD	72	0	3	72
NMHLD	72	72	2	72
NMTAP	72	144	1
NMHLD	72	192	4	72
NMHLD	72	264	5	72
NMTAP	72	336	6
NMHLD	73	0	3	72
NMHLD	73	72	2	72
NMTAP	73	144	1
BRTAP	73	192	7
NMTAP	74	0	4
NMHLD	74	0	5	576
NMTAP	74	96	4
NMTAP	74	192	6
NMTAP	74	288	6
NMTTP	75	0	0	E	0	M1
NMTTP	75	96	0	C	0	M1
NMTTP	75	192	4	E	0	M1
NMSTR	76	0	6
NMSI_	76	0	6	96	48	3
NMSTR	76	192	1
NMSI_	76	192	1	96	48	4
NMSTR	77	0	5
NMSUL	77	0	5	96	192	3
NMHLD	78	0	2	576
NMTAP	78	0	3
NMTAP	78	96	3
NMTAP	78	192	1
NMTAP	78	288	1
NMTTP	79	0	0	E	0	M1
NMTTP	79	96	0	C	0	M1
NMTTP	79	192	4	E	0	M1
NMSTR	80	0	6
NMSI_	80	0	6	96	48	3
NMSTR	80	0	7
NMSI_	80	0	7	96	48	2
NMSTR	80	192	0
NMSI_	80	192	0	96	48	5
NMSTR	80	192	1
NMSI_	80	192	1	96	48	4
NMSTR	81	0	6
NMSI_	81	0	6	96	48	3
NMSTR	81	0	7
NMSI_	81	0	7	96	48	2
EXTAP	81	192	0
EXTAP	81	192	1
EXTAP	81	288	2
EXSTR	81	288	7
NMSCR	81	288	7	96	288	5
BXHLD	82	0	3	288
NMHLD	83	0	1	288
NMHLD	83	0	5	288
NMTAP	84	0	2
NMTAP	84	0	4
NMTAP	84	48	2
NMTAP	84	48	4
BXSTR	84	144	3
BRSI_	84	144	3	96	48	0
BXSTR	84	144	4
BRSI_	84	144	4	96	48	7
EXTAP	85	0	6
EXTAP	85	0	7
NMTAP	85	72	3
NMTAP	85	72	4
NMHLD	85	144	0	144
NMTAP	85	144	2
NMTAP	85	240	7
NMTAP	85	288	7
NMTAP	86	0	4
NMTAP	86	0	5
NMSTR	86	72	2
NMSCR	86	72	2	96	120	7
NMHLD	86	72	3	216
NMTAP	87	0	0
NMTAP	87	0	5
NMTAP	87	72	1
NMTAP	87	72	6
NMSTR	87	144	2
NMSI_	87	144	2	96	48	7
NMSTR	87	144	7
NMSI_	87	144	7	96	48	3
NMHLD	88	0	4	240
NMSTR	88	0	7
NMSSR	88	0	7	96	144	3
NMHLD	89	0	5	72
NMHLD	89	72	6	72
NMTAP	89	144	7
NMTAP	89	240	0
NMTAP	89	240	1
NMTAP	89	288	0
NMTAP	89	288	1
NMHLD	90	0	2	72
NMHLD	90	72	3	72
NMTAP	90	144	4
NMTAP	90	240	4
NMTAP	90	240	5
NMTAP	90	288	4
NMTAP	90	288	5
NMSTR	91	0	3
NMSI_	91	0	3	96	48	7
NMSTR	91	0	6
NMSI_	91	0	6	96	48	4
NMTAP	91	240	0
NMTAP	91	240	5
NMTAP	91	288	0
NMTAP	91	288	5
EXTAP	92	0	1
EXTAP	92	0	3
EXTAP	92	72	3
EXTAP	92	72	4
EXTAP	92	144	4
EXTAP	92	144	6
BRTAP	92	240	2
BRTAP	92	240	7
EXTAP	93	0	0
EXTAP	93	0	1
NMTAP	93	72	3
NMTAP	93	72	4
NMTAP	93	144	5
NMHLD	93	144	7	144
NMTAP	93	240	0
NMTAP	93	288	0
NMTAP	94	0	2
NMTAP	94	0	3
NMHLD	94	72	4	216
NMSTR	94	72	5
NMSCL	94	72	5	96	120	0
NMTAP	95	0	2
NMTAP	95	0	7
NMTAP	95	72	1
NMTAP	95	72	6
NMSTR	95	144	0
NMSI_	95	144	0	96	48	4
NMSTR	95	144	5
NMSI_	95	144	5	96	48	0
NMSTR	96	0	0
NMSSL	96	0	0	96	144	4
NMHLD	96	0	3	240
NMHLD	97	0	2	72
NMHLD	97	72	1	72
NMTAP	97	144	0
NMTAP	97	240	6
NMTAP	97	240	7
NMTAP	97	288	6
NMTAP	97	288	7
NMHLD	98	0	5	72
NMHLD	98	72	4	72
NMTAP	98	144	3
NMTAP	98	240	2
NMTAP	98	240	3
NMTAP	98	288	2
NMTAP	98	288	3
NMTAP	99	0	6
NMTAP	99	0	7
NMTAP	99	72	0
NMTAP	99	72	5
NMHLD	99	144	1	144
NMTAP	99	144	4
NMTAP	99	240	3
NMSTR	99	288	3
NMSCL	99	288	3	96	192	5
BRTAP	100	192	0
NMHLD	101	0	1	72
NMTAP	101	72	3
NMTAP	101	144	0
NMTAP	101	192	0
NMTAP	101	240	7
NMTAP	101	288	0
NMTAP	101	288	6
NMHLD	102	0	5	72
NMTAP	102	72	4
NMTAP	102	144	3
NMTAP	102	144	6
NMTAP	102	192	3
NMSTR	102	192	6
NMSCL	102	192	6	96	48	3
NMTAP	102	288	2
NMHLD	103	0	1	72
NMTAP	103	72	3
NMTAP	103	144	0
NMTAP	103	192	0
NMTAP	103	240	7
NMTAP	103	288	0
NMTAP	103	288	6
NMHLD	104	0	5	72
NMTAP	104	72	4
NMTAP	104	144	2
NMTAP	104	144	3
NMTAP	104	192	2
NMTAP	104	192	3
NMTAP	104	288	1
NMTAP	104	288	7
NMHLD	105	0	6	72
NMTAP	105	72	4
NMTAP	105	144	7
NMTAP	105	192	7
NMTAP	105	240	0
NMTAP	105	288	1
NMTAP	105	288	7
NMHLD	106	0	2	72
NMTAP	106	72	3
NMTAP	106	144	1
NMTAP	106	144	4
NMSTR	106	192	1
NMSCR	106	192	1	96	48	4
NMTAP	106	192	4
NMTAP	106	288	5
NMHLD	107	0	6	72
NMTAP	107	72	4
NMTAP	107	144	7
NMTAP	107	192	7
NMTAP	107	240	0
NMTAP	107	288	1
NMTAP	107	288	7
NMHLD	108	0	2	72
NMTAP	108	72	3
NMTAP	108	144	1
NMTAP	108	144	4
NMTAP	108	192	1
NMTAP	108	192	4
EXTAP	108	288	0
EXTAP	108	288	7
BXTAP	109	0	1
BXTAP	109	72	4
BXTAP	109	144	7
BXSTR	109	216	0
NMSXL	109	216	0	96	264	5
BXTAP	109	288	6

T_REC_TAP	332
T_REC_BRK	9
T_REC_XTP	45
T_REC_BXX	6
T_REC_HLD	96
T_REC_XHO	3
T_REC_BHO	0
T_REC_BXH	1
T_REC_STR	60
T_REC_BST	2
T_REC_XST	1
T_REC_XBS	3
T_REC_TTP	18
T_REC_THO	0
T_REC_SLD	62
T_REC_BSL	4
T_REC_ALL	642
T_NUM_TAP	456
T_NUM_BRK	25
T_NUM_HLD	99
T_NUM_SLD	62
T_NUM_ALL	642
T_JUDGE_TAP	476
T_JUDGE_HLD	334
T_JUDGE_SLD	66
T_JUDGE_ALL	876
TTM_EACHPAIRS	176
TTM_SCR_TAP	228000
TTM_SCR_BRK	65000
TTM_SCR_HLD	99000
TTM_SCR_SLD	93000
TTM_SCR_ALL	485000
TTM_SCR_S	468050
TTM_SCR_SS	482500
TTM_RAT_ACV	10051

