VERSION	0.00.00	1.05.00
FES_MODE	0
BPM_DEF	180.000	180.000	180.000	180.000
MET_DEF	4	4
RESOLUTION	384
CLK_DEF	384
COMPATIBLE_CODE	MA2

BPM	0	0	180.000
MET	0	0	4	4

NMTAP	2	0	6
NMTAP	2	96	6
NMTAP	2	192	6
NMTAP	3	0	5
NMTAP	3	96	5
NMTAP	3	192	5
NMTAP	4	0	4
NMTAP	4	96	4
NMTAP	4	192	4
NMTAP	5	0	2
NMTAP	5	0	3
NMTAP	6	0	1
NMTAP	6	96	1
NMTAP	6	192	1
NMTAP	7	0	2
NMTAP	7	96	2
NMTAP	7	192	2
NMTAP	8	0	3
NMTAP	8	96	3
NMTAP	8	192	3
NMTAP	9	0	4
NMTAP	9	0	5
NMTAP	10	0	6
NMTAP	10	96	6
NMTAP	10	192	6
NMTAP	10	192	7
NMTAP	11	0	5
NMTAP	11	96	5
NMTAP	11	192	4
NMTAP	11	192	5
NMTAP	12	0	3
NMTAP	12	96	3
NMTAP	12	192	2
NMTAP	12	192	3
NMTAP	13	0	0
NMTAP	13	0	1
NMTAP	13	96	0
NMTAP	13	96	1
NMTAP	13	192	0
NMTAP	13	192	1
NMTAP	14	0	1
NMTAP	14	96	1
NMTAP	14	192	0
NMTAP	14	192	1
NMTAP	15	0	2
NMTAP	15	96	2
NMTAP	15	192	2
NMTAP	15	192	3
NMTAP	16	0	4
NMTAP	16	96	4
NMTAP	16	192	4
NMTAP	16	192	5
NMTAP	17	0	6
NMTAP	17	0	7
NMTAP	17	96	6
NMTAP	17	96	7
NMTAP	17	192	6
NMTAP	17	192	7
NMHLD	18	0	5	192
NMHLD	18	192	4	192
NMHLD	19	0	3	192
NMTAP	19	192	2
NMHLD	20	0	2	192
NMHLD	20	192	3	192
NMHLD	21	0	4	192
NMTAP	21	192	5
NMHLD	22	0	6	192
NMHLD	22	192	5	192
NMHLD	23	0	4	192
NMTAP	23	192	3
NMHLD	24	0	1	192
NMHLD	24	192	2	192
NMHLD	25	0	3	192
NMTAP	25	192	4
NMTAP	26	0	3
NMTAP	26	96	3
NMTAP	26	192	2
NMTAP	27	0	1
NMTAP	27	96	1
NMTAP	27	192	0
NMTAP	28	0	7
NMTAP	28	96	7
NMTAP	28	192	6
NMTAP	29	0	5
NMTAP	29	96	5
NMTAP	29	192	4
NMTAP	29	192	5
NMTAP	30	0	4
NMTAP	30	96	4
NMTAP	30	192	5
NMTAP	31	0	6
NMTAP	31	96	6
NMTAP	31	192	7
NMTAP	32	0	0
NMTAP	32	96	0
NMTAP	32	192	1
NMTAP	33	0	2
NMTAP	33	96	2
NMTAP	33	192	2
NMTAP	33	192	3
NMSTR	34	0	2
NMSI_	34	0	2	96	192	5
NMSTR	35	0	6
NMSI_	35	0	6	96	192	3
NMSTR	36	0	1
NMSI_	36	0	1	96	192	4
NMSTR	37	0	5
NMSI_	37	0	5	96	192	0
NMSTR	38	0	1
NMSI_	38	0	1	96	192	5
NMSTR	39	0	7
NMSI_	39	0	7	96	192	3
NMSTR	40	0	1
NMSXR	40	0	1	96	480	3
NMTAP	42	0	2
NMTAP	42	96	2
NMTAP	42	192	1
NMTAP	42	288	1
NMTAP	43	0	0
NMTAP	43	96	0
NMTAP	43	192	6
NMTAP	43	192	7
NMTAP	44	0	5
NMTAP	44	96	5
NMTAP	44	192	6
NMTAP	44	288	6
NMTAP	45	0	7
NMTAP	45	96	7
NMTAP	45	192	0
NMTAP	45	192	1
NMTAP	46	0	1
NMTAP	46	96	1
NMTAP	46	192	2
NMTAP	46	288	2
NMTAP	47	0	3
NMTAP	47	96	3
NMTAP	47	192	4
NMTAP	47	192	5
NMTAP	48	0	6
NMTAP	48	96	6
NMTAP	48	192	5
NMTAP	48	288	5
NMTAP	49	0	4
NMTAP	49	96	4
NMTAP	49	192	2
NMTAP	49	192	3
NMTAP	50	0	2
NMTAP	50	96	2
NMTAP	50	192	1
NMTAP	50	288	1
NMTAP	51	0	0
NMTAP	51	96	0
NMTAP	51	192	6
NMTAP	51	192	7
NMTAP	52	0	5
NMTAP	52	96	5
NMTAP	52	192	6
NMTAP	52	288	6
NMTAP	53	0	7
NMTAP	53	96	7
NMTAP	53	192	0
NMTAP	53	192	1
NMTAP	54	0	1
NMTAP	54	96	1
NMTAP	54	192	2
NMTAP	54	288	2
NMTAP	55	0	3
NMTAP	55	96	3
NMTAP	55	192	4
NMTAP	55	192	5
NMTAP	56	0	6
NMTAP	56	96	6
NMTAP	56	192	5
NMTAP	56	288	5
NMTAP	57	0	4
NMTAP	57	96	4
NMTAP	57	192	2
NMTAP	57	192	3
NMTAP	58	0	1
NMTAP	58	96	2
NMTAP	58	192	3
NMTAP	58	288	4
NMTAP	59	0	5
NMTAP	59	96	6
NMTAP	59	192	0
NMTAP	59	192	7
NMTAP	60	0	6
NMTAP	60	96	5
NMTAP	60	192	4
NMTAP	60	288	3
NMTAP	61	0	2
NMTAP	61	96	1
NMTAP	61	192	0
NMTAP	61	192	7
NMTAP	62	0	0
NMTAP	62	96	1
NMTAP	62	192	2
NMTAP	62	288	3
NMTAP	63	0	4
NMTAP	63	96	5
NMTAP	63	192	6
NMTAP	63	288	7
NMTAP	64	0	0
NMTAP	64	96	1
NMTAP	64	192	2
NMTAP	64	288	3
NMTAP	65	0	3
NMTAP	65	0	4
NMTAP	65	96	3
NMTAP	65	96	4
BRTAP	65	192	3
BRTAP	65	192	4
NMTTP	66	0	1	B	0	L1
NMTTP	66	96	2	B	0	L1
NMTTP	66	192	3	B	0	L1
NMTTP	67	0	6	B	0	L1
NMTTP	67	96	5	B	0	L1
NMTTP	67	192	4	B	0	L1
NMTTP	68	0	1	B	0	L1
NMTTP	68	96	2	B	0	L1
NMTTP	68	192	3	B	0	L1
NMTTP	68	288	4	B	0	L1
NMTTP	69	0	5	B	0	L1
NMTTP	69	96	6	B	0	L1
NMTTP	69	192	0	C	0	L1
NMTTP	70	0	7	B	0	L1
NMTTP	70	96	6	B	0	L1
NMTTP	70	192	4	B	0	L1
NMTTP	70	192	5	B	0	L1
NMTTP	71	0	0	B	0	L1
NMTTP	71	96	1	B	0	L1
NMTTP	71	192	2	B	0	L1
NMTTP	71	192	3	B	0	L1
NMTTP	72	0	6	B	0	L1
NMTTP	72	96	5	B	0	L1
NMTTP	72	192	4	B	0	L1
NMTTP	72	288	3	B	0	L1
NMTTP	73	0	2	B	0	L1
NMTTP	73	96	1	B	0	L1
NMTTP	73	192	0	C	1	L1
EXHLD	74	0	6	192
EXTAP	74	192	7
NMTAP	75	0	6
NMTAP	75	96	6
NMTAP	75	192	6
NMTAP	75	192	7
NMHLD	76	0	5	192
NMTAP	76	192	4
NMTAP	77	0	5
NMTAP	77	96	5
NMTAP	77	192	4
NMTAP	77	192	5
NMHLD	78	0	2	192
NMTAP	78	192	3
NMTAP	79	0	2
NMTAP	79	96	2
NMTAP	79	192	2
NMTAP	79	192	3
NMHLD	80	0	1	192
NMTAP	80	192	0
NMTAP	81	0	1
NMTAP	81	96	1
NMTAP	81	192	0
NMTAP	81	192	1
NMHLD	82	0	0	192
NMHLD	82	0	7	192
NMSTR	83	0	6
NMSUL	83	0	6	96	480	3
NMTAP	85	0	2
NMTAP	85	96	2
NMTAP	85	192	0
NMTAP	85	192	1
NMTAP	85	288	0
NMTAP	85	288	1
NMTAP	86	0	7
NMTAP	86	96	7
NMTAP	86	192	6
NMTAP	86	192	7
NMTAP	87	0	5
NMTAP	87	96	5
NMTAP	87	192	6
NMTAP	87	192	7
NMTAP	87	288	6
NMTAP	87	288	7
NMTAP	88	0	0
NMTAP	88	96	0
NMTAP	88	192	0
NMTAP	88	192	1
NMTAP	89	0	1
NMTAP	89	96	1
NMTAP	89	192	2
NMTAP	89	192	3
NMTAP	89	288	2
NMTAP	89	288	3
NMTAP	90	0	4
NMTAP	90	96	4
NMTAP	90	192	4
NMTAP	90	192	5
NMTAP	91	0	6
NMTAP	91	96	6
NMTAP	91	192	4
NMTAP	91	192	5
NMTAP	91	288	4
NMTAP	91	288	5
NMTAP	92	0	3
NMTAP	92	96	3
NMTAP	92	192	2
NMTAP	92	192	3
NMTAP	93	0	2
NMTAP	93	96	2
NMTAP	93	192	0
NMTAP	93	192	1
NMTAP	93	288	0
NMTAP	93	288	1
NMTAP	94	0	7
NMTAP	94	96	7
NMTAP	94	192	6
NMTAP	94	192	7
NMTAP	94	288	6
NMTAP	94	288	7
NMTAP	95	0	5
NMTAP	95	96	5
NMTAP	95	192	6
NMTAP	95	192	7
NMTAP	95	288	6
NMTAP	95	288	7
NMTAP	96	0	0
NMTAP	96	96	0
NMTAP	96	192	0
NMTAP	96	192	1
NMTAP	97	0	1
NMTAP	97	96	1
NMTAP	97	192	2
NMTAP	97	192	3
NMTAP	97	288	2
NMTAP	97	288	3
NMTAP	98	0	4
NMTAP	98	96	4
NMTAP	98	192	4
NMTAP	98	192	5
NMTAP	98	288	4
NMTAP	98	288	5
NMTAP	99	0	6
NMTAP	99	96	6
NMTAP	99	192	4
NMTAP	99	192	5
NMTAP	99	288	4
NMTAP	99	288	5
NMTAP	100	0	3
NMTAP	100	96	3
NMTAP	100	192	2
NMTAP	100	192	3
BRTAP	101	0	1
NMTAP	101	96	1
NMTAP	101	192	1
NMTAP	101	288	0
NMTAP	101	288	1
NMTAP	102	0	2
NMTAP	102	96	2
NMTAP	102	192	2
NMTAP	102	288	2
NMTAP	102	288	3
NMTAP	103	0	4
NMTAP	103	96	4
NMTAP	103	192	4
NMTAP	103	288	4
NMTAP	103	288	5
NMTAP	104	0	6
NMTAP	104	0	7
NMTAP	104	96	6
NMTAP	104	96	7
NMTAP	104	192	6
NMTAP	104	192	7
NMTAP	105	0	6
NMTAP	105	96	6
NMTAP	105	192	6
NMTAP	105	288	6
NMTAP	105	288	7
NMTAP	106	0	5
NMTAP	106	96	5
NMTAP	106	192	5
NMTAP	106	288	4
NMTAP	106	288	5
NMTAP	107	0	3
NMTAP	107	96	3
NMTAP	107	192	3
NMTAP	107	288	2
NMTAP	107	288	3
NMTAP	108	0	0
NMTAP	108	0	1
NMTAP	108	96	0
NMTAP	108	96	1
NMTAP	108	192	0
NMTAP	108	192	1
EXTAP	109	0	1
EXTAP	109	0	7
EXTAP	109	72	1
EXTAP	109	72	7
EXTAP	109	144	1
EXTAP	109	144	7
EXTAP	109	216	1
EXTAP	109	216	7
BXTAP	109	288	1
BXTAP	109	288	7

T_REC_TAP	328
T_REC_BRK	3
T_REC_XTP	9
T_REC_BXX	2
T_REC_HLD	17
T_REC_XHO	1
T_REC_BHO	0
T_REC_BXH	0
T_REC_STR	8
T_REC_BST	0
T_REC_XST	0
T_REC_XBS	0
T_REC_TTP	28
T_REC_THO	0
T_REC_SLD	8
T_REC_BSL	0
T_REC_ALL	404
T_NUM_TAP	373
T_NUM_BRK	5
T_NUM_HLD	18
T_NUM_SLD	8
T_NUM_ALL	404
T_JUDGE_TAP	378
T_JUDGE_HLD	72
T_JUDGE_SLD	8
T_JUDGE_ALL	458
TTM_EACHPAIRS	77
TTM_SCR_TAP	186500
TTM_SCR_BRK	13000
TTM_SCR_HLD	18000
TTM_SCR_SLD	12000
TTM_SCR_ALL	229500
TTM_SCR_S	222150
TTM_SCR_SS	229000
TTM_RAT_ACV	10021

