VERSION	0.00.00	1.05.00
FES_MODE	0
BPM_DEF	180.000	180.000	180.000	180.000
MET_DEF	4	4
RESOLUTION	384
CLK_DEF	384
COMPATIBLE_CODE	MA2

BPM	0	0	180.000
MET	0	0	4	4

NMTAP	6	0	0
NMTAP	6	192	0
NMTAP	7	0	0
NMTAP	8	0	7
NMTAP	8	192	7
NMTAP	9	0	0
NMTAP	9	0	7
NMTAP	10	0	7
NMTAP	10	192	7
NMTAP	11	0	6
NMTAP	12	0	5
NMTAP	12	192	5
NMTAP	13	0	4
NMTAP	14	0	3
NMTAP	14	192	3
NMTAP	15	0	2
NMTAP	16	0	1
NMTAP	16	192	1
NMTAP	17	0	0
NMTAP	17	0	7
NMTAP	18	0	0
NMTAP	18	192	0
NMTAP	19	0	1
NMTAP	19	192	1
NMTAP	20	0	2
NMTAP	20	192	2
NMTAP	21	0	3
NMTAP	21	0	4
NMTAP	22	0	5
NMTAP	22	192	5
NMTAP	23	0	6
NMTAP	23	192	6
NMHLD	24	0	0	384
NMHLD	24	0	7	384
NMTAP	26	0	7
NMTAP	26	192	7
NMTAP	27	0	6
NMTAP	27	192	6
NMTAP	28	0	4
NMTAP	28	0	5
NMTAP	29	0	4
NMTAP	29	0	5
NMTAP	30	0	3
NMTAP	30	192	3
NMTAP	31	0	2
NMTAP	31	192	2
NMTAP	32	0	0
NMTAP	32	0	1
NMTAP	33	0	0
NMTAP	33	0	1
NMTTP	34	0	0	B	0	L1
NMTTP	35	0	7	B	0	L1
NMTTP	36	0	1	B	0	L1
NMTTP	37	0	6	B	0	L1
NMTTP	38	0	2	B	0	L1
NMTTP	39	0	5	B	0	L1
NMTHO	40	0	0	384	C	1	L1
BXTAP	42	0	0
NMTAP	42	96	0
NMTAP	42	192	0
NMTAP	43	0	1
NMTAP	43	192	1
NMTAP	44	0	2
NMTAP	44	192	2
NMTAP	45	0	2
NMTAP	45	0	3
NMTAP	46	0	4
NMTAP	46	96	4
NMTAP	46	192	4
NMTAP	47	0	5
NMTAP	47	192	5
NMTAP	48	0	6
NMTAP	48	192	6
NMTAP	49	0	6
NMTAP	49	0	7
NMTAP	50	0	7
NMTAP	50	96	7
NMTAP	50	192	7
NMTAP	51	0	6
NMTAP	51	192	6
NMTAP	52	0	5
NMTAP	52	96	5
NMTAP	52	192	5
NMTAP	53	0	3
NMTAP	53	0	4
NMTAP	54	0	3
NMTAP	54	96	3
NMTAP	54	192	3
NMTAP	55	0	2
NMTAP	55	192	2
NMTAP	56	0	1
NMTAP	56	96	1
NMTAP	56	192	1
BRTAP	57	0	0
BRTAP	57	0	7
NMTAP	58	0	1
NMTAP	58	192	1
NMTAP	59	0	0
NMTAP	59	0	1
NMTAP	59	192	0
NMTAP	59	192	1
NMTAP	60	0	2
NMTAP	60	192	2
NMTAP	61	0	3
NMTAP	61	0	4
NMTAP	61	192	3
NMTAP	61	192	4
NMTAP	62	0	5
NMTAP	62	192	5
NMTAP	63	0	6
NMTAP	63	0	7
NMTAP	63	192	6
NMTAP	63	192	7
NMTAP	64	0	0
NMTAP	64	192	0
NMTAP	65	0	0
NMTAP	65	0	7
NMSTR	66	0	7
NMSI_	66	0	7	96	288	3
NMSTR	68	0	2
NMSI_	68	0	2	96	288	7
NMSTR	70	0	6
NMSI_	70	0	6	96	288	2
NMSTR	72	0	1
NMSI_	72	0	1	96	288	5
NMHLD	74	0	6	384
NMHLD	74	0	7	384
NMHLD	76	0	4	384
NMHLD	76	0	5	384
NMHLD	78	0	2	384
NMHLD	78	0	3	384
NMHLD	80	0	0	384
NMHLD	80	0	1	384
NMHLD	82	0	0	384
NMHLD	82	0	7	384
EXTAP	84	0	0
EXTAP	84	0	7
EXTAP	84	192	0
EXTAP	84	192	7
BRTAP	85	0	0
NMTAP	85	96	0
NMTAP	85	192	0
NMTAP	86	0	1
NMTAP	86	96	1
NMTAP	86	192	1
NMTAP	87	0	2
NMTAP	87	96	2
NMTAP	87	192	2
NMTAP	88	0	2
NMTAP	88	0	3
NMTAP	88	192	2
NMTAP	88	192	3
NMTAP	89	0	4
NMTAP	89	96	4
NMTAP	89	192	4
NMTAP	90	0	5
NMTAP	90	96	5
NMTAP	90	192	5
NMTAP	91	0	6
NMTAP	91	96	6
NMTAP	91	192	6
NMTAP	92	0	6
NMTAP	92	0	7
EXTAP	92	192	6
EXTAP	92	192	7
NMTAP	93	0	7
NMTAP	93	96	7
NMTAP	93	192	7
NMTAP	94	0	6
NMTAP	94	96	6
NMTAP	94	192	6
NMTAP	95	0	5
NMTAP	95	96	5
NMTAP	95	192	5
NMTAP	96	0	4
NMTAP	96	96	4
NMTAP	96	192	3
NMTAP	96	192	4
NMTAP	97	0	3
NMTAP	97	96	3
NMTAP	97	192	3
NMTAP	98	0	2
NMTAP	98	96	2
NMTAP	98	192	2
NMTAP	99	0	1
NMTAP	99	96	1
NMTAP	99	192	1
BRTAP	100	0	0
BRTAP	100	0	7
NMTAP	101	0	0
NMTAP	101	96	0
NMTAP	101	192	0
NMTAP	102	0	0
NMTAP	102	0	1
NMTAP	102	96	0
NMTAP	102	96	1
NMTAP	102	192	0
NMTAP	102	192	1
NMTAP	103	0	2
NMTAP	103	96	2
NMTAP	103	192	2
NMTAP	104	0	3
NMTAP	104	0	4
NMTAP	104	96	3
NMTAP	104	96	4
NMTAP	104	192	3
NMTAP	104	192	4
NMTAP	105	0	4
NMTAP	105	96	4
NMTAP	105	192	4
NMTAP	106	0	4
NMTAP	106	0	5
NMTAP	106	96	4
NMTAP	106	96	5
NMTAP	106	192	4
NMTAP	106	192	5
NMTAP	107	0	6
NMTAP	107	96	6
NMTAP	107	192	6
NMTAP	108	0	0
NMTAP	108	0	7
NMTAP	108	96	0
NMTAP	108	96	7
NMTAP	108	192	0
NMTAP	108	192	7
NMHLD	109	0	1	576
NMHLD	109	0	6	576

T_REC_TAP	186
T_REC_BRK	5
T_REC_XTP	6
T_REC_BXX	1
T_REC_HLD	14
T_REC_XHO	0
T_REC_BHO	0
T_REC_BXH	0
T_REC_STR	4
T_REC_BST	0
T_REC_XST	0
T_REC_XBS	0
T_REC_TTP	6
T_REC_THO	1
T_REC_SLD	4
T_REC_BSL	0
T_REC_ALL	227
T_NUM_TAP	202
T_NUM_BRK	6
T_NUM_HLD	15
T_NUM_SLD	4
T_NUM_ALL	227
T_JUDGE_TAP	208
T_JUDGE_HLD	128
T_JUDGE_SLD	4
T_JUDGE_ALL	340
TTM_EACHPAIRS	45
TTM_SCR_TAP	101000
TTM_SCR_BRK	15600
TTM_SCR_HLD	15000
TTM_SCR_SLD	6000
TTM_SCR_ALL	137600
TTM_SCR_S	132900
TTM_SCR_SS	137000
TTM_RAT_ACV	10043

