VERSION	0.00.00	1.05.00
FES_MODE	0
BPM_DEF	168.000	168.000	168.000	168.000
MET_DEF	4	4
RESOLUTION	384
CLK_DEF	672
COMPATIBLE_CODE	MA2

BPM	0	0	168.000
MET	0	0	4	7

NMTAP	2	192	0
NMTAP	2	204	1
NMTAP	2	216	2
NMTAP	2	228	3
NMTAP	2	240	4
NMTAP	2	252	5
NMTAP	2	264	6
NMTAP	2	276	7
NMTAP	2	288	0
NMTAP	2	300	1
NMTAP	2	312	2
NMTAP	2	324	3
NMTAP	2	336	4
NMTAP	2	348	5
NMTAP	2	360	6
NMTAP	2	372	7
NMHLD	3	0	0	528
NMTAP	3	32	1
NMTAP	3	64	2
NMTAP	3	96	3
NMTAP	3	128	4
NMTAP	3	160	5
BRSTR	3	192	6
NMSLR	3	192	6	96	384	4
NMSTR	5	96	1
NMSI_	5	96	1	96	96	5
NMHLD	5	96	5	336
CNSV_	5	288	5	0	288	3
NMSTR	7	0	3
NMSUL	7	0	3	96	48	4
NMHLD	7	0	4	336
CNSI_	7	144	4	0	336	7
NMTAP	8	144	0
NMTAP	8	192	1
NMTAP	8	240	2
NMHLD	8	288	3	144
NMTAP	8	288	5
NMTAP	9	48	2
NMHLD	9	96	2	144
NMTAP	9	240	0
NMTAP	9	336	0
NMTAP	9	336	7
NMTAP	10	0	6
NMTAP	10	48	1
NMTAP	10	96	2
NMTAP	10	96	4
NMTAP	10	144	1
NMHLD	10	192	0	96
NMTAP	10	192	6
NMTAP	10	208	5
NMTAP	10	224	4
NMTAP	10	240	3
NMTAP	10	288	7
NMTAP	10	336	1
NMHLD	11	0	2	96
NMTAP	11	0	6
NMTAP	11	16	5
NMTAP	11	32	4
NMTAP	11	48	3
NMTAP	11	96	6
NMTAP	11	144	1
NMTAP	11	192	0
NMTAP	11	192	6
NMTAP	11	208	5
NMTAP	11	224	4
NMTAP	11	240	3
NMTAP	11	288	6
NMTAP	11	288	7
NMTAP	11	304	5
NMTAP	11	320	4
NMTAP	11	336	3
NMTAP	12	0	0
NMTAP	12	0	6
NMTAP	12	96	1
NMHLD	12	96	7	96
NMTAP	12	112	2
NMTAP	12	128	3
NMTAP	12	144	4
NMTAP	12	192	0
NMTAP	12	240	6
NMTAP	12	288	1
NMHLD	12	288	5	96
NMTAP	12	304	2
NMTAP	12	320	3
NMTAP	12	336	4
NMTAP	13	0	1
NMTAP	13	48	6
NMTAP	13	96	1
NMTAP	13	96	7
NMTAP	13	112	2
NMTAP	13	128	3
NMTAP	13	144	4
NMTAP	13	192	0
NMTAP	13	192	1
NMTAP	13	208	2
NMTAP	13	224	3
NMTAP	13	240	4
NMTAP	13	288	1
NMTAP	13	288	7
NMHLD	14	0	0	96
NMTAP	14	0	6
NMTAP	14	16	5
NMTAP	14	32	4
NMTAP	14	48	3
NMTAP	14	96	7
NMTAP	14	144	1
NMHLD	14	192	2	96
NMTAP	14	192	6
NMTAP	14	208	5
NMTAP	14	224	4
NMTAP	14	240	3
NMTAP	14	288	6
NMTAP	14	336	1
NMTAP	15	0	0
NMTAP	15	0	6
NMTAP	15	16	5
NMTAP	15	32	4
NMTAP	15	48	3
NMTAP	15	96	6
NMHLD	15	96	7	96
NMTAP	15	112	5
NMTAP	15	128	4
NMTAP	15	144	3
NMTAP	15	160	2
NMTAP	15	176	1
NMSTR	15	192	0
NMSF_	15	192	0	96	48	4
BRTAP	15	288	0
NMTAP	16	0	1
NMTAP	16	24	5
NMTAP	16	48	3
NMSTR	16	72	4
NMSI_	16	72	4	96	48	0
NMTAP	16	96	0
NMTAP	16	168	4
NMTAP	16	168	6
BRSTR	16	240	1
NMSXR	16	240	1	96	144	6
BRSTR	16	240	5
NMSXR	16	240	5	96	144	2
NMSTR	17	192	0
NMTTP	17	192	0	C	1	M1
NMSSL	17	192	0	96	480	4
NMTTP	19	96	0	C	1	M1
NMSTR	19	96	7
NMSSR	19	96	7	96	480	3
NMHLD	21	0	2	48
NMHLD	21	0	4	48
NMHLD	21	96	2	48
NMHLD	21	96	3	48
NMHLD	21	192	1	48
NMHLD	21	192	2	48
NMHLD	21	288	0	48
NMHLD	21	288	2	48
NMHLD	22	0	2	48
NMHLD	22	0	7	48
NMHLD	22	96	2	48
NMHLD	22	96	6	48
NMTAP	22	192	3
NMTAP	22	192	5
NMTAP	22	240	3
NMTAP	22	240	5
NMHLD	22	288	3	48
NMHLD	22	288	5	48
NMHLD	23	0	4	48
NMHLD	23	0	5	48
NMHLD	23	96	5	48
NMHLD	23	96	6	48
NMHLD	23	192	5	48
NMHLD	23	192	7	48
NMHLD	23	288	0	48
NMHLD	23	288	5	48
NMHLD	24	0	1	48
NMHLD	24	0	5	48
NMTAP	24	96	2
NMTAP	24	96	4
NMTAP	24	144	2
NMTAP	24	144	4
NMTAP	24	192	1
NMTAP	24	192	5
NMTAP	24	240	2
NMTAP	24	264	3
NMTAP	24	288	2
NMTAP	24	336	3
NMTAP	24	360	4
NMTAP	25	0	3
NMTAP	25	48	4
NMTAP	25	72	5
NMTAP	25	96	4
NMTAP	25	144	5
NMTAP	25	168	6
NMTAP	25	192	5
NMTAP	25	240	6
NMTAP	25	264	7
NMTAP	25	288	6
NMTAP	25	336	7
NMTAP	25	360	0
NMTAP	26	0	7
NMTAP	26	48	1
NMTAP	26	48	6
NMTAP	26	96	2
NMTAP	26	96	4
NMTAP	26	144	5
NMTAP	26	168	4
NMTAP	26	192	5
NMTAP	26	240	4
NMTAP	26	264	3
NMTAP	26	288	4
NMTAP	26	336	3
NMTAP	26	360	2
NMTAP	27	0	3
NMTAP	27	48	2
NMTAP	27	72	1
NMTAP	27	96	2
NMTAP	27	144	1
NMTAP	27	168	0
NMTAP	27	192	1
NMTAP	27	240	2
NMTAP	27	240	7
NMSTR	27	288	6
NMSLR	27	288	6	96	96	2
NMTAP	27	312	4
NMTAP	27	336	6
NMTAP	27	360	4
NMTAP	28	0	6
NMTAP	28	48	3
NMSTR	28	96	3
NMSI_	28	96	3	96	48	6
NMTAP	28	192	3
NMTAP	28	192	7
CNSI_	28	240	6	0	48	4
CNSI_	28	288	4	0	48	0
NMTAP	28	288	7
NMTAP	28	312	6
NMSTR	28	336	5
NMSI_	28	336	5	96	48	1
NMTAP	29	48	0
NMTAP	29	48	5
NMSTR	29	96	7
NMSI_	29	96	7	96	48	5
NMTAP	29	144	0
NMSTR	29	192	7
NMSI_	29	192	7	96	48	3
NMTAP	29	240	4
NMTAP	29	288	7
NMTAP	29	336	0
NMTAP	29	360	1
NMSTR	30	0	2
NMSCL	30	0	2	96	48	7
NMTAP	30	96	2
NMHLD	30	96	6	144
NMTAP	30	192	5
NMTAP	30	216	4
NMSTR	30	240	3
NMSI_	30	240	3	96	48	7
NMTAP	30	336	5
NMTAP	31	0	5
NMTAP	31	48	0
NMTAP	31	48	4
NMSTR	31	96	1
NMSLL	31	96	1	96	96	5
NMTAP	31	120	3
NMTAP	31	144	1
NMTAP	31	168	3
NMTAP	31	192	1
NMTAP	31	240	4
NMSTR	31	288	4
NMSI_	31	288	4	96	48	1
NMTAP	32	0	0
NMTAP	32	0	4
CNSI_	32	48	1	0	48	3
NMTAP	32	96	0
CNSI_	32	96	3	0	48	7
NMTAP	32	120	1
NMSTR	32	144	2
NMSI_	32	144	2	96	48	6
NMTAP	32	240	2
NMTAP	32	240	7
NMSTR	32	288	0
NMSI_	32	288	0	96	48	2
NMTAP	32	336	7
NMSTR	33	0	0
NMSI_	33	0	0	96	48	4
NMTAP	33	48	3
NMTAP	33	96	0
NMTAP	33	144	7
NMTAP	33	168	6
NMSTR	33	192	5
NMSCR	33	192	5	96	48	0
NMHLD	33	288	1	144
NMTAP	33	288	5
NMTAP	34	0	2
NMTAP	34	24	3
NMSTR	34	48	4
NMSI_	34	48	4	96	48	0
NMTAP	34	144	2
NMTAP	34	192	1
NMTAP	34	240	2
NMSTR	34	288	3
NMSCL	34	288	3	96	96	5
NMTAP	34	312	5
NMTAP	34	336	2
NMTAP	34	360	4
NMHLD	35	0	1	96
NMSTR	35	192	0
NMSI_	35	192	0	96	48	4
NMTAP	35	192	4
NMTAP	35	288	5
NMTAP	35	312	6
NMSTR	35	336	7
NMSCR	35	336	7	96	48	2
NMSTR	36	48	3
NMSLL	36	48	3	96	96	4
NMTAP	36	96	3
NMSTR	36	144	4
NMSLL	36	144	4	96	96	7
NMTAP	36	192	5
NMTAP	36	240	5
NMTAP	36	288	6
NMTAP	36	336	6
NMTAP	36	360	5
NMTAP	37	0	0
NMSTR	37	0	4
NMSV_	37	0	4	96	48	1
NMTAP	37	96	3
CNSCL	37	144	1	0	96	7
NMTAP	37	144	3
NMTAP	37	192	2
NMSTR	37	240	2
NMSI_	37	240	2	96	48	7
NMSTR	37	288	6
NMSI_	37	288	6	96	48	3
NMTAP	37	336	2
NMTAP	38	0	6
NMTAP	38	96	0
NMTAP	38	96	4
NMTAP	38	144	1
NMTAP	38	144	5
NMSTR	38	192	1
NMSI_	38	192	1	96	48	5
NMTAP	38	240	5
NMSTR	38	288	0
NMSI_	38	288	0	96	48	4
NMTAP	38	336	4
CNSI_	38	336	5	0	48	0
CNSI_	39	48	4	0	48	1
NMTAP	39	48	6
NMTAP	39	96	5
NMHLD	39	144	4	72
NMTAP	39	192	7
NMTAP	39	216	0
NMTAP	39	240	5
NMTAP	39	264	6
NMTAP	39	288	3
NMTAP	39	312	4
NMTAP	39	336	1
NMTAP	39	360	2
NMTAP	40	0	7
NMTAP	40	24	0
NMTAP	40	48	5
NMTAP	40	72	6
NMTAP	40	96	3
NMTAP	40	96	7
NMTAP	40	144	1
NMTAP	40	168	3
NMTAP	40	192	2
NMTAP	40	240	6
NMTAP	40	264	4
NMTAP	40	288	5
NMSTR	40	336	0
NMSI_	40	336	0	96	48	3
NMSTR	40	336	4
NMSI_	40	336	4	96	48	7
NMTAP	41	0	1
NMTAP	41	0	5
BRTAP	41	48	0
NMTTP	41	48	0	C	1	M1
BRTAP	41	48	4
NMTAP	42	0	5
NMTAP	42	24	4
NMTAP	42	48	5
NMTAP	42	72	4
NMTAP	42	96	4
NMTAP	42	144	2
NMTAP	42	168	3
NMTAP	42	192	2
NMTAP	42	216	3
NMTAP	42	240	3
NMTAP	42	288	5
NMTAP	42	312	4
NMTAP	42	336	5
NMTAP	42	360	4
NMTAP	43	0	4
NMTAP	43	48	2
NMTAP	43	72	3
NMTAP	43	96	2
NMTAP	43	120	3
NMTAP	43	144	3
NMTAP	43	192	2
NMTAP	43	192	4
NMTAP	43	240	2
NMTAP	43	240	4
NMTAP	43	288	3
NMTAP	43	312	4
NMTAP	43	336	3
NMTAP	43	360	4
NMTAP	44	0	4
NMTAP	44	48	5
NMTAP	44	72	4
NMTAP	44	96	5
NMTAP	44	120	4
NMTAP	44	144	4
NMTAP	44	192	3
NMTAP	44	216	4
NMTAP	44	240	3
NMTAP	44	264	4
NMTAP	44	288	4
NMTAP	44	336	5
NMTAP	44	360	4
NMTAP	45	0	5
NMTAP	45	24	4
NMTAP	45	48	4
NMTAP	45	96	3
NMTAP	45	96	4
NMTAP	45	144	3
NMTAP	45	144	4
NMTAP	45	192	5
NMTAP	45	216	4
NMTAP	45	240	5
NMTAP	45	264	4
NMTAP	45	288	6
NMTAP	45	312	4
NMTAP	45	336	5
NMTAP	45	360	4
NMTAP	46	0	5
NMTAP	46	24	4
NMTAP	46	48	6
NMTAP	46	72	4
NMTAP	46	96	5
NMTAP	46	120	4
NMTAP	46	144	5
NMTAP	46	168	4
NMTAP	46	192	6
NMTAP	46	216	4
NMTAP	46	240	5
NMTAP	46	264	4
NMTAP	46	288	5
NMTAP	46	312	4
NMTAP	46	336	6
NMTAP	47	0	3
NMTAP	47	0	5
NMTAP	47	48	3
NMTAP	47	48	5
NMTAP	47	96	2
NMTAP	47	120	3
NMTAP	47	144	2
NMTAP	47	168	3
NMTAP	47	192	1
NMTAP	47	216	3
NMTAP	47	240	2
NMTAP	47	264	3
NMTAP	47	288	2
NMTAP	47	312	3
NMTAP	47	336	1
NMTAP	47	360	3
NMTAP	48	0	2
NMTAP	48	24	3
NMTAP	48	48	2
NMTAP	48	72	3
NMTAP	48	96	1
NMTAP	48	120	3
NMSTR	48	144	2
NMSI_	48	144	2	96	48	5
NMTAP	48	192	1
NMTAP	48	192	4
NMTAP	49	0	5
NMTAP	49	24	4
NMTAP	49	48	5
NMTAP	49	72	4
NMHLD	49	96	6	48
NMTAP	49	144	4
NMTAP	49	168	5
NMTAP	49	192	4
NMTAP	49	216	5
NMHLD	49	240	3	48
NMTAP	49	288	5
NMTAP	49	312	4
NMTAP	49	336	5
NMTAP	49	360	4
NMHLD	50	0	6	48
NMTAP	50	48	4
NMTAP	50	72	5
NMTAP	50	96	4
NMTAP	50	120	5
NMHLD	50	144	3	48
NMTAP	50	192	6
NMTAP	50	216	5
NMTAP	50	240	4
NMTAP	50	264	3
NMTAP	50	288	2
NMTAP	50	312	3
NMTAP	50	336	2
NMTAP	50	360	3
NMHLD	51	0	1	48
NMTAP	51	48	3
NMTAP	51	72	2
NMTAP	51	96	3
NMTAP	51	120	2
NMHLD	51	144	4	48
NMTAP	51	192	2
NMTAP	51	216	3
NMTAP	51	240	2
NMTAP	51	264	3
NMHLD	51	288	1	48
NMTAP	51	336	3
NMTAP	51	360	2
NMTAP	52	0	3
NMTAP	52	24	2
NMHLD	52	48	4	48
NMTAP	52	96	5
NMTAP	52	120	6
NMTAP	52	144	7
NMTAP	52	168	0
NMTAP	52	192	1
NMTAP	52	216	0
NMTAP	52	240	1
NMTAP	52	264	0
NMTAP	52	288	2
NMTAP	52	312	2
NMTAP	52	336	0
NMTAP	52	360	1
NMTAP	53	0	0
NMTAP	53	24	1
NMTAP	53	48	7
NMTAP	53	72	7
NMTAP	53	96	1
NMTAP	53	120	0
NMTAP	53	144	1
NMTAP	53	168	0
NMTAP	53	192	2
NMTAP	53	216	2
NMTAP	53	240	0
NMTAP	53	264	1
NMTAP	53	288	0
NMTAP	53	312	1
NMTAP	53	336	7
NMTAP	53	360	7
NMTAP	54	0	2
NMTAP	54	24	1
NMTAP	54	48	0
NMTAP	54	72	7
NMTAP	54	96	6
NMTAP	54	120	7
NMTAP	54	144	6
NMTAP	54	168	7
NMTAP	54	192	5
NMTAP	54	216	5
NMTAP	54	240	7
NMTAP	54	264	6
NMTAP	54	288	7
NMTAP	54	312	6
NMTAP	54	336	0
NMTAP	55	0	2
NMTAP	55	0	4
NMTTP	55	48	0	C	1	M1
BRSTR	55	48	7
BRSCL	55	48	7	96	1296	3
NMSCR	55	48	7	96	1296	3
NMTTP	59	0	1	E	0	M1
NMTTP	59	24	0	E	0	M1
NMTTP	59	48	7	E	0	M1
NMTTP	59	72	6	E	0	M1
NMTTP	59	96	5	E	0	M1
NMTTP	59	120	4	E	0	M1
NMTTP	59	144	3	E	0	M1
NMTTP	59	168	2	E	0	M1
NMSTR	59	192	0
NMSI_	59	192	0	96	48	4
NMTAP	60	0	1
NMTAP	60	0	7
NMTTP	60	72	3	B	0	M1
NMTTP	60	72	3	E	0	M1
NMTTP	60	72	4	B	0	M1
NMTTP	60	72	5	E	0	M1
NMSTR	60	144	6
NMSLL	60	144	6	96	96	1
NMSTR	60	144	7
NMSLL	60	144	7	96	96	0
NMTAP	61	0	2
NMTAP	61	0	7
NMTAP	61	48	3
NMTAP	61	48	6
NMSTR	61	96	4
NMSI_	61	96	4	96	48	2
NMSTR	61	96	5
NMSI_	61	96	5	96	48	1
CNSI_	61	240	1	0	48	6
NMTTP	61	288	2	B	0	M1
NMTTP	61	336	4	E	0	M1
NMSTR	62	0	5
NMSCR	62	0	5	96	96	2
NMTTP	62	96	2	B	0	M1
NMTTP	62	96	3	E	0	M1
NMTTP	62	144	4	B	0	M1
NMTTP	62	144	4	E	0	M1
NMTTP	62	192	7	E	0	M1
NMTTP	62	216	0	E	0	M1
NMTTP	62	240	1	E	0	M1
NMTTP	62	264	2	E	0	M1
NMTTP	62	288	3	E	0	M1
NMTTP	62	312	4	E	0	M1
NMTTP	62	336	5	E	0	M1
NMTTP	62	360	6	E	0	M1
NMSTR	63	0	7
NMSI_	63	0	7	96	48	3
NMTAP	63	192	0
NMTAP	63	192	6
NMTTP	63	264	3	B	0	M1
NMTTP	63	264	3	E	0	M1
NMTTP	63	264	4	B	0	M1
NMTTP	63	264	5	E	0	M1
NMSTR	63	336	0
NMSLR	63	336	0	96	96	7
NMSTR	63	336	1
NMSLR	63	336	1	96	96	6
NMTAP	64	192	0
NMTAP	64	192	5
NMTAP	64	240	1
NMTAP	64	240	4
NMSTR	64	288	2
NMSI_	64	288	2	96	48	6
NMSTR	64	288	3
NMSI_	64	288	3	96	48	5
CNSI_	65	48	6	0	48	1
NMTTP	65	96	5	B	0	M1
NMTTP	65	144	4	E	0	M1
NMSTR	65	192	2
NMSCL	65	192	2	96	96	5
NMTTP	65	288	5	B	0	M1
NMTTP	65	288	5	E	0	M1
NMTTP	65	336	3	B	0	M1
NMTTP	65	336	4	E	0	M1
NMTTP	66	0	1	E	0	M1
NMTTP	66	24	0	E	0	M1
NMTTP	66	48	7	E	0	M1
NMTTP	66	72	6	E	0	M1
NMTTP	66	96	5	E	0	M1
NMTTP	66	120	4	E	0	M1
NMTTP	66	144	3	E	0	M1
NMTTP	66	168	2	E	0	M1
NMSTR	66	192	0
NMSI_	66	192	0	96	48	4
NMTAP	67	0	1
NMTAP	67	0	7
NMTTP	67	72	3	B	0	M1
NMTTP	67	72	3	E	0	M1
NMTTP	67	72	4	B	0	M1
NMTTP	67	72	5	E	0	M1
NMSTR	67	144	6
NMSLL	67	144	6	96	96	1
NMSTR	67	144	7
NMSLL	67	144	7	96	96	0
NMSTR	68	0	2
NMSI_	68	0	2	96	48	5
NMSTR	68	0	6
NMSI_	68	0	6	96	48	1
NMTAP	68	48	3
NMTAP	68	48	7
NMTAP	68	96	2
NMTAP	68	96	6
NMTAP	68	192	3
NMTAP	68	192	7
NMTAP	68	288	0
NMTAP	68	288	6
NMTTP	68	360	3	B	0	M1
NMTTP	68	360	3	E	0	M1
NMTTP	68	360	4	B	0	M1
NMTTP	68	360	5	E	0	M1
NMTAP	69	48	1
NMSTR	69	48	7
NMSCR	69	48	7	96	144	6
NMTTP	69	192	0	E	0	M1
NMTTP	69	216	7	B	0	M1
NMTTP	69	216	7	E	0	M1
NMTTP	69	240	6	B	0	M1
NMTTP	69	240	6	E	0	M1
NMTTP	69	264	5	B	0	M1
NMTTP	69	264	5	E	0	M1
NMTTP	69	288	4	B	0	M1
NMTTP	69	288	4	E	0	M1
NMTTP	69	312	3	B	0	M1
NMTTP	69	312	3	E	0	M1
NMTTP	69	336	2	B	0	M1
NMTTP	69	336	2	E	0	M1
NMTTP	69	360	1	B	0	M1
NMTTP	69	360	1	E	0	M1
EXSTR	70	0	0
NMSI_	70	0	0	96	48	4
NMTAP	70	96	0
NMTAP	70	96	7
NMTAP	70	192	5
NMTAP	70	216	4
NMTAP	70	264	2
NMTAP	70	288	3
NMTAP	70	336	4
NMHLD	70	336	7	96
NMTAP	71	48	5
NMTAP	71	72	5
NMTAP	71	96	6
NMTAP	71	144	1
NMTAP	71	168	1
NMTAP	71	192	2
NMTAP	71	240	5
NMTAP	71	264	5
NMTAP	71	288	4
NMTAP	71	336	2
NMTAP	71	360	2
NMTAP	72	0	3
NMTAP	72	48	7
NMTAP	72	72	1
NMTAP	72	96	6
NMTAP	72	120	2
NMTAP	72	144	4
NMTAP	72	168	3
NMTAP	72	192	7
BRHLD	72	240	2	144
BRHLD	72	240	6	144
NMTHO	73	48	0	0	C	1	M1
NMTTP	73	48	2	B	0	M1
NMTTP	73	48	2	E	0	M1
NMTTP	73	48	3	B	0	M1
NMTTP	73	48	4	B	0	M1
NMTTP	73	48	5	B	0	M1
NMTTP	73	48	6	E	0	M1
BRTAP	73	192	0
BRTAP	73	192	7
NMTAP	73	200	1
NMTAP	73	200	6
NMTAP	73	208	2
NMTAP	73	208	5
NMTAP	73	216	3
NMTAP	73	216	4
BRTAP	73	264	0
BRTAP	73	264	7
NMTAP	73	272	1
NMTAP	73	272	6
NMTAP	73	280	2
NMTAP	73	280	5
NMTAP	73	288	3
NMTAP	73	288	4
BRTAP	74	0	0
BRTAP	74	0	1
NMTAP	74	8	2
NMTAP	74	8	7
NMTAP	74	16	3
NMTAP	74	16	6
NMTAP	74	24	4
NMTAP	74	24	5
BRTAP	74	72	0
BRTAP	74	72	1
NMTAP	74	80	2
NMTAP	74	80	7
NMTAP	74	88	3
NMTAP	74	88	6
NMTAP	74	96	4
NMTAP	74	96	5
BRTAP	74	192	6
BRTAP	74	192	7
NMTAP	74	200	0
NMTAP	74	200	5
NMTAP	74	208	1
NMTAP	74	208	4
NMTAP	74	216	2
NMTAP	74	216	3
BRTAP	74	264	6
BRTAP	74	264	7
NMTAP	74	272	0
NMTAP	74	272	5
NMTAP	74	280	1
NMTAP	74	280	4
NMTAP	74	288	2
NMTAP	74	288	3
NMTAP	74	336	1
NMTAP	74	336	5
NMTAP	75	0	1
NMTAP	75	0	5
BRTAP	75	96	0
BRTAP	75	96	6
NMTAP	75	104	1
NMTAP	75	104	5
NMTAP	75	112	2
NMTAP	75	112	4
NMTAP	75	120	3
BRTAP	75	168	0
BRTAP	75	168	6
NMTAP	75	176	1
NMTAP	75	176	5
NMTAP	75	184	2
NMTAP	75	184	4
NMTAP	75	192	3
BRTAP	75	288	1
BRTAP	75	288	7
NMTAP	75	296	2
NMTAP	75	296	6
NMTAP	75	304	3
NMTAP	75	304	5
NMTAP	75	312	4
BRTAP	75	360	1
BRTAP	75	360	7
NMHLD	75	368	2	0
NMHLD	75	368	6	0
NMHLD	75	376	3	0
NMHLD	75	376	5	0
NMHLD	76	0	4	0
BRTAP	76	96	0
BRTAP	76	96	6
NMTAP	76	104	1
NMTAP	76	104	5
NMTAP	76	112	2
NMTAP	76	112	4
NMTAP	76	120	3
BRTAP	76	168	0
BRTAP	76	168	6
NMTAP	76	176	1
NMTAP	76	176	5
NMTAP	76	184	2
NMTAP	76	184	4
NMTAP	76	192	3
NMHLD	76	240	1	48
NMHLD	76	240	5	48
BRTAP	77	0	0
BRTAP	77	0	4
NMTAP	77	8	1
NMTAP	77	8	5
NMTAP	77	16	2
NMTAP	77	16	6
NMTAP	77	24	3
NMTAP	77	24	7
BRTAP	77	72	0
BRTAP	77	72	4
NMTAP	77	80	1
NMTAP	77	80	5
NMTAP	77	88	2
NMTAP	77	88	6
NMTAP	77	96	3
NMTAP	77	96	7
BRTAP	77	192	1
BRTAP	77	192	5
NMTAP	77	200	2
NMTAP	77	200	6
NMTAP	77	208	3
NMTAP	77	208	7
NMTAP	77	216	0
NMTAP	77	216	4
BRTAP	77	264	1
BRTAP	77	264	5
NMTAP	77	272	2
NMTAP	77	272	6
NMTAP	77	280	3
NMTAP	77	280	7
NMTAP	77	288	0
NMTAP	77	288	4
BRTAP	78	0	0
BRTAP	78	0	4
NMTAP	78	8	1
NMTAP	78	8	5
NMTAP	78	16	2
NMTAP	78	16	6
NMTAP	78	24	3
NMTAP	78	24	7
BRTAP	78	72	0
BRTAP	78	72	4
NMTAP	78	80	1
NMTAP	78	80	5
NMTAP	78	88	2
NMTAP	78	88	6
NMTAP	78	96	3
NMTAP	78	96	7
NMTAP	78	144	2
NMTAP	78	144	6
NMTAP	78	192	2
NMTAP	78	192	6
BRTAP	78	288	3
BRTAP	78	288	7
NMTAP	78	296	2
NMTAP	78	296	6
NMTAP	78	304	1
NMTAP	78	304	5
NMTAP	78	312	0
NMTAP	78	312	4
BRTAP	78	360	3
BRTAP	78	360	7
NMTAP	78	368	2
NMTAP	78	368	6
NMTAP	78	376	1
NMTAP	78	376	5
NMTAP	79	0	0
NMTAP	79	0	4
BRTAP	79	96	2
BRTAP	79	96	6
NMTAP	79	104	1
NMTAP	79	104	5
NMTAP	79	112	0
NMTAP	79	112	4
NMTAP	79	120	3
NMTAP	79	120	7
BRTAP	79	168	2
BRTAP	79	168	6
NMTAP	79	176	1
NMTAP	79	176	5
NMTAP	79	184	0
NMTAP	79	184	4
NMSTR	79	192	3
NMSCR	79	192	3	96	48	6
NMSTR	79	192	7
NMSCR	79	192	7	96	48	2
BRTAP	79	288	3
BRSTR	79	288	7
NMSI_	79	288	7	96	144	3
NMTAP	80	192	2
NMHLD	80	192	4	96
NMTAP	80	200	1
NMTAP	80	208	0
NMTAP	80	216	7
NMTAP	80	264	7
NMTAP	80	272	0
NMTAP	80	280	1
NMTAP	80	288	2
NMTAP	80	336	2
NMTAP	80	336	4
NMHLD	81	0	3	96
NMTAP	81	0	5
NMTAP	81	8	6
NMTAP	81	16	7
NMTAP	81	24	0
NMTAP	81	72	0
NMTAP	81	80	7
NMTAP	81	88	6
NMTAP	81	96	5
NMTAP	81	144	3
NMTAP	81	144	5
NMTAP	81	192	2
NMHLD	81	192	4	96
NMTAP	81	200	1
NMTAP	81	208	0
NMTAP	81	216	7
NMTAP	81	264	7
NMTAP	81	272	0
NMTAP	81	280	1
NMTAP	81	288	2
NMTAP	81	336	1
NMTAP	81	336	5
NMTAP	82	0	1
NMTAP	82	0	5
NMHLD	82	96	3	96
NMTAP	82	96	6
NMTAP	82	104	7
NMTAP	82	112	0
NMTAP	82	120	1
NMTAP	82	168	1
NMTAP	82	176	0
NMTAP	82	184	7
NMTAP	82	192	6
NMTAP	82	240	2
NMTAP	82	240	5
NMTAP	82	288	1
NMHLD	82	288	4	96
NMTAP	82	296	0
NMTAP	82	304	7
NMTAP	82	312	6
NMTAP	82	360	6
NMTAP	82	368	7
NMTAP	82	376	0
NMTAP	83	0	1
NMTAP	83	48	2
NMTAP	83	48	5
NMHLD	83	96	3	96
NMTAP	83	96	6
NMTAP	83	104	7
NMTAP	83	112	0
NMSTR	83	120	1
NMSSR	83	120	1	96	72	5
NMTAP	83	168	1
NMTAP	83	176	0
NMTAP	83	184	7
NMTAP	83	192	6
NMTAP	84	0	1
NMTAP	84	24	3
NMTAP	84	48	2
NMTAP	84	72	6
NMTAP	84	96	4
NMTAP	84	120	5
NMHLD	84	144	0	48
NMTAP	84	192	6
NMTAP	84	216	4
NMTAP	84	240	5
NMTAP	84	264	1
NMTAP	84	288	3
NMTAP	84	312	2
NMHLD	84	336	7	48
NMTAP	85	0	4
NMTAP	85	24	6
NMTAP	85	48	2
NMTAP	85	72	4
NMTAP	85	96	0
NMTAP	85	120	6
NMTAP	85	144	1
NMTAP	85	168	7
NMTAP	85	192	2
NMTAP	85	216	6
NMTAP	85	240	3
NMTAP	85	264	5
NMTAP	85	288	1
NMTAP	85	312	4
NMTAP	85	336	3
NMTAP	85	360	4
NMTAP	86	0	0
NMTAP	86	24	5
NMTAP	86	48	4
NMTAP	86	72	5
NMTAP	86	96	7
NMTAP	86	120	5
NMTAP	86	144	0
NMTAP	86	168	6
NMTAP	86	192	1
NMTAP	86	216	7
NMTAP	86	240	2
NMTAP	86	264	0
NMTAP	86	288	2
NMTAP	86	300	3
NMTAP	86	312	4
NMTAP	86	324	5
NMTAP	86	336	6
NMTAP	86	348	7
NMTAP	86	360	0
NMTAP	86	372	1
BRTAP	87	0	2
NMTAP	87	0	6
NMSTR	87	96	1
NMSI_	87	96	1	96	48	5
NMTAP	87	120	3
NMTAP	87	144	1
NMTAP	87	168	3
NMTAP	87	192	1
NMTAP	87	240	4
CNSI_	87	240	5	0	48	0
NMSTR	87	288	4
NMSI_	87	288	4	96	48	1
NMTAP	88	0	0
NMTAP	88	0	4
CNSCR	88	48	1	0	48	3
NMTAP	88	96	0
CNSI_	88	96	3	0	48	6
NMTAP	88	120	1
NMSTR	88	144	2
NMSI_	88	144	2	96	48	6
NMTAP	88	192	7
NMTAP	88	240	2
NMSTR	88	288	0
NMSI_	88	288	0	96	48	2
CNSI_	88	288	6	0	48	4
NMTAP	88	336	7
NMSTR	89	0	0
NMSI_	89	0	0	96	48	4
NMTAP	89	48	3
NMTAP	89	96	0
CNSI_	89	144	4	0	48	2
NMTAP	89	144	7
NMTAP	89	168	6
NMSTR	89	192	5
NMSCR	89	192	5	96	48	0
NMHLD	89	288	1	144
NMTAP	89	288	5
NMTAP	90	0	2
NMTAP	90	24	3
NMSTR	90	48	4
NMSI_	90	48	4	96	48	0
NMTAP	90	96	0
NMTAP	90	144	4
NMTAP	90	192	2
NMTAP	90	240	3
NMTAP	90	240	7
NMSTR	90	288	6
NMSI_	90	288	6	96	48	2
NMTAP	90	312	4
NMTAP	90	336	6
NMTAP	90	360	4
NMTAP	91	0	6
CNSI_	91	48	2	0	48	7
NMTAP	91	48	3
NMSTR	91	96	3
NMSI_	91	96	3	96	48	6
NMTAP	91	192	3
NMTAP	91	192	7
CNSCL	91	240	6	0	48	4
CNSI_	91	288	4	0	48	1
NMTAP	91	288	7
NMTAP	91	312	6
NMSTR	91	336	5
NMSI_	91	336	5	96	48	1
NMTAP	92	0	0
NMTAP	92	48	5
CNSI_	92	96	1	0	48	3
NMSTR	92	96	7
NMSI_	92	96	7	96	48	5
NMTAP	92	144	0
NMSTR	92	192	7
NMSI_	92	192	7	96	48	3
NMTAP	92	240	4
NMTAP	92	288	7
NMTAP	92	336	0
CNSI_	92	336	3	0	48	5
NMTAP	92	360	1
NMSTR	93	0	2
NMSI_	93	0	2	96	48	6
NMTAP	93	96	2
NMHLD	93	96	7	96
NMTAP	93	192	4
NMTAP	93	216	3
NMSTR	93	240	2
NMSI_	93	240	2	96	48	5
NMSTR	93	240	6
NMSI_	93	240	6	96	48	1
BRTAP	93	336	2
BRTAP	93	336	6
BRTAP	94	24	3
BRTAP	94	24	7
BRTAP	94	96	1
BRSTR	94	96	4
NMSI_	94	96	4	96	48	1
NMHLD	94	192	0	96
NMTAP	94	288	2
NMTAP	94	304	3
NMTAP	94	320	4
NMTAP	94	336	0
NMTAP	94	336	5
NMTAP	94	352	1
NMTAP	94	368	2
NMTAP	95	0	3
NMHLD	95	0	7	96
NMTAP	95	96	4
NMTAP	95	112	3
NMTAP	95	128	2
NMTAP	95	144	1
NMTAP	95	144	6
NMTAP	95	160	5
NMTAP	95	176	4
NMTAP	95	192	0
NMTAP	95	192	3
NMTAP	95	240	0
NMTAP	95	240	3
NMTAP	95	256	1
NMTAP	95	256	4
NMTAP	95	272	2
NMTAP	95	272	5
NMTAP	95	288	3
NMTAP	95	288	6
NMTAP	95	336	3
NMTAP	95	336	6
NMTAP	95	352	2
NMTAP	95	352	5
NMTAP	95	368	1
NMTAP	95	368	4
NMSTR	96	0	0
NMSI_	96	0	0	96	48	5
NMTAP	96	0	3
NMTAP	96	96	0
NMHLD	96	96	4	96
NMTAP	96	192	6
NMTAP	96	208	7
NMTAP	96	224	0
NMTAP	96	240	1
NMTAP	96	240	4
NMTAP	96	256	5
NMTAP	96	272	6
NMHLD	96	288	3	96
NMTAP	96	288	7
NMTAP	97	0	0
NMTAP	97	16	7
NMTAP	97	32	6
NMTAP	97	48	2
NMTAP	97	48	5
NMTAP	97	64	1
NMTAP	97	80	0
NMTAP	97	96	4
NMTAP	97	96	7
NMTAP	97	144	4
NMTAP	97	144	7
NMTAP	97	160	0
NMTAP	97	160	5
NMTAP	97	176	1
NMTAP	97	176	6
NMTAP	97	192	2
NMTAP	97	192	7
NMTAP	97	240	2
NMTAP	97	240	7
NMTAP	97	256	1
NMTAP	97	256	6
NMTAP	97	272	0
NMTAP	97	272	5
NMTAP	97	288	4
NMTAP	97	288	7
NMTAP	97	304	6
NMTAP	97	320	5
NMTAP	97	336	4
NMTAP	97	352	3
NMTAP	97	368	2
BRTAP	98	0	1
NMHLD	98	0	5	96
NMTAP	98	96	1
NMTAP	98	120	2
NMTAP	98	144	7
NMTAP	98	168	0
NMTAP	98	192	5
NMTAP	98	216	6
NMTAP	98	240	3
NMTAP	98	264	4
NMTAP	98	288	1
NMTAP	98	312	2
NMTAP	98	336	7
NMTAP	98	360	0
NMTAP	99	0	5
NMTAP	99	24	6
NMTAP	99	48	3
NMTAP	99	48	7
NMTAP	99	72	4
NMTAP	99	96	1
NMTAP	99	96	5
NMTAP	99	120	2
NMTAP	99	144	3
NMTAP	99	144	7
NMTAP	99	168	0
NMTAP	99	192	1
NMTAP	99	192	5
NMTAP	99	216	6
NMTAP	99	240	3
NMTAP	99	240	7
NMTAP	99	264	4
NMTAP	99	288	1
NMTAP	99	304	5
NMTAP	99	320	1
NMTAP	99	336	5
NMTAP	99	352	1
NMTAP	99	368	5
NMTAP	100	0	2
NMTAP	100	16	6
NMTAP	100	32	2
NMTAP	100	48	6
NMTAP	100	64	2
NMTAP	100	80	6
NMTAP	100	96	3
NMTAP	100	112	7
NMTAP	100	128	3
NMTAP	100	144	7
NMTAP	100	160	3
NMTAP	100	176	7
NMTAP	100	192	4
NMTAP	100	208	0
NMTAP	100	224	4
NMTAP	100	240	0
NMTAP	100	256	4
NMTAP	100	272	0
BRHLD	100	288	1	48
BRHLD	100	288	5	48
NMTAP	101	0	1
NMTAP	101	0	5
NMTAP	101	16	0
NMTAP	101	16	4
NMTAP	101	32	3
NMTAP	101	32	7
NMTAP	101	48	2
NMTAP	101	48	6
NMTAP	101	64	1
NMTAP	101	64	5
NMTAP	101	80	0
NMTAP	101	80	4
NMTAP	101	96	3
NMTAP	101	96	7
NMTAP	101	112	6
NMTAP	101	128	5
NMTAP	101	144	4
NMTAP	101	160	3
NMTAP	101	176	2
BRHLD	101	192	1	504
NMTAP	101	192	5
NMTAP	101	288	5
NMTAP	101	304	6
NMTAP	101	320	7
NMTAP	101	336	0
NMHLD	102	0	3	0
NMHLD	102	16	4	0
NMHLD	102	32	5	0
NMHLD	102	48	6	0
NMHLD	102	96	0	0
BRTAP	102	144	2
BRTAP	102	240	4
BRTAP	102	312	6
NMTAP	103	0	4
NMTAP	103	48	3
BRTAP	103	96	2
BRTAP	103	102	1
BRTAP	103	108	0
BRTAP	103	114	7
BRTAP	103	120	6
BRTAP	103	126	5
BRTAP	103	132	4

T_REC_TAP	906
T_REC_BRK	65
T_REC_XTP	0
T_REC_BXX	0
T_REC_HLD	76
T_REC_XHO	0
T_REC_BHO	5
T_REC_BXH	0
T_REC_STR	70
T_REC_BST	6
T_REC_XST	1
T_REC_XBS	0
T_REC_TTP	77
T_REC_THO	1
T_REC_SLD	77
T_REC_BSL	1
T_REC_ALL	1285
T_NUM_TAP	1054
T_NUM_BRK	77
T_NUM_HLD	77
T_NUM_SLD	77
T_NUM_ALL	1285
T_JUDGE_TAP	1125
T_JUDGE_HLD	150
T_JUDGE_SLD	78
T_JUDGE_ALL	1353
TTM_EACHPAIRS	235
TTM_SCR_TAP	527000
TTM_SCR_BRK	200200
TTM_SCR_HLD	77000
TTM_SCR_SLD	115500
TTM_SCR_ALL	919700
TTM_SCR_S	884650
TTM_SCR_SS	912000
TTM_RAT_ACV	10084

