VERSION	0.00.00	1.05.00
FES_MODE	0
BPM_DEF	168.000	168.000	168.000	168.000
MET_DEF	4	4
RESOLUTION	384
CLK_DEF	672
COMPATIBLE_CODE	MA2

BPM	0	0	168.000
MET	0	0	4	7

NMTHO	2	288	0	288	C	1	M1
BXHLD	3	192	6	1200
NMTAP	5	0	4
NMHLD	5	96	4	528
NMTAP	7	0	3
NMTAP	7	0	5
NMHLD	7	48	3	480
NMTAP	7	48	5
EXHLD	8	144	2	144
NMTAP	8	288	1
NMHLD	8	336	1	336
NMTTP	9	288	0	C	1	M1
NMTAP	10	96	0
NMTAP	10	96	7
BRTAP	10	192	0
BRTAP	10	192	7
NMTAP	10	288	0
NMTAP	10	288	1
NMTAP	10	336	0
NMTAP	10	336	1
NMTAP	11	0	0
NMTAP	11	0	1
NMTAP	11	96	7
NMTAP	11	144	6
NMTAP	11	192	0
NMTAP	11	240	1
NMTAP	11	288	2
NMTAP	11	336	3
NMTAP	12	0	4
BRTAP	12	96	3
BRTAP	12	96	6
NMTAP	12	192	1
NMTAP	12	192	4
NMTAP	12	240	1
NMTAP	12	240	4
NMTAP	12	288	1
NMTAP	12	288	4
NMTAP	13	0	3
NMTAP	13	0	6
NMTAP	13	48	3
NMTAP	13	48	6
NMTAP	13	96	3
NMTAP	13	96	6
NMTTP	13	192	4	B	0	M1
NMTTP	13	192	4	E	0	M1
NMTTP	13	192	5	B	0	M1
NMTTP	13	192	6	E	0	M1
NMTTP	13	288	1	A	0	M1
NMTTP	13	288	2	B	0	M1
NMTTP	13	288	2	E	0	M1
NMTTP	13	288	3	B	0	M1
BRTAP	14	0	0
BRTAP	14	0	7
NMTAP	14	96	6
NMTAP	14	96	7
NMTAP	14	144	6
NMTAP	14	144	7
NMTAP	14	192	6
NMTAP	14	192	7
NMTAP	14	288	0
NMTAP	14	336	1
NMTAP	15	0	7
NMTAP	15	48	6
NMTAP	15	96	5
NMTAP	15	144	4
NMTAP	15	192	3
EXTAP	15	288	2
EXTAP	15	288	6
NMTAP	16	0	1
NMTAP	16	24	7
NMTAP	16	48	1
NMTAP	16	72	7
BXTAP	16	96	1
BXTAP	16	168	3
BXTAP	16	168	5
BXTAP	16	240	2
BXSTR	16	240	6
NMSLR	16	240	6	96	240	4
EXHLD	17	192	3	1248
NMTAP	19	48	5
NMHLD	19	96	5	576
NMTAP	21	0	4
NMTAP	21	0	5
NMTAP	21	96	4
NMTAP	21	96	5
NMTAP	21	192	4
NMTAP	21	192	6
NMTAP	21	288	4
NMTAP	21	288	6
NMTAP	22	0	4
NMTAP	22	0	7
NMTAP	22	96	4
NMTAP	22	96	7
NMTAP	22	192	0
NMTAP	22	192	3
NMTAP	22	240	0
NMTAP	22	240	3
NMTAP	22	288	0
NMTAP	22	288	3
NMTAP	23	0	1
NMTAP	23	0	3
NMTAP	23	96	1
NMTAP	23	96	3
NMTAP	23	192	2
NMTAP	23	192	3
NMTAP	23	288	2
NMTAP	23	288	3
NMTAP	24	0	3
NMTAP	24	0	4
NMTAP	24	96	4
NMTAP	24	96	5
NMTAP	24	144	4
NMTAP	24	144	5
NMTAP	24	192	4
NMTAP	24	192	5
NMTAP	24	288	4
NMTAP	24	288	6
NMTAP	25	0	5
NMTAP	25	0	6
NMTAP	25	96	5
NMTAP	25	96	7
NMHLD	25	192	6	96
NMHLD	25	192	7	96
NMTAP	26	0	0
NMTAP	26	0	1
NMTAP	26	48	0
NMTAP	26	48	1
NMHLD	26	96	2	96
NMHLD	26	192	3	96
NMHLD	26	288	4	96
NMHLD	27	0	5	96
NMSTR	27	96	6
NMSI_	27	96	6	96	48	0
NMHLD	28	0	0	96
NMTAP	28	96	2
NMTAP	28	192	1
NMTAP	28	192	3
NMSTR	28	240	1
NMSCL	28	240	1	96	96	6
NMTAP	28	240	3
NMTAP	29	48	5
NMTAP	29	96	5
NMTAP	29	192	4
NMTAP	29	192	6
NMTAP	29	288	2
NMTAP	29	288	4
NMHLD	30	0	1	72
NMHLD	30	72	2	72
NMTAP	30	144	3
NMTAP	30	240	1
NMTAP	30	240	4
NMTAP	30	336	0
NMTAP	30	336	5
NMSTR	31	0	0
NMSI_	31	0	0	96	96	4
NMTAP	31	0	5
NMHLD	31	192	7	96
NMTAP	31	288	5
NMTAP	32	0	4
NMTAP	32	0	6
NMTAP	32	48	4
NMSTR	32	48	6
NMSCR	32	48	6	96	96	1
NMTAP	32	240	2
NMTAP	32	288	2
NMTAP	33	0	1
NMTAP	33	0	3
NMTAP	33	96	3
NMTAP	33	96	5
NMHLD	33	192	6	72
NMHLD	33	264	5	72
NMTAP	33	336	4
NMTAP	34	48	3
NMTAP	34	48	6
NMTAP	34	144	7
NMSTR	34	192	7
NMSI_	34	192	7	96	96	3
NMTAP	35	0	2
NMTAP	35	96	1
NMTAP	35	96	2
NMTAP	35	192	0
NMTAP	35	192	1
NMSTR	35	240	0
NMSUR	35	240	0	96	96	5
NMTAP	35	240	1
NMTAP	36	48	7
NMTAP	36	96	6
NMTAP	36	144	5
NMTAP	36	192	4
NMTAP	36	240	3
NMTAP	36	288	2
NMHLD	37	0	3	72
NMHLD	37	72	4	72
NMTAP	37	144	5
NMHLD	37	240	3	96
NMHLD	37	240	6	96
NMTAP	38	0	2
NMTAP	38	0	7
NMTAP	38	48	2
NMHLD	38	48	7	96
NMTAP	38	144	0
NMTAP	38	192	7
NMTAP	38	240	6
NMTAP	38	288	5
NMHLD	38	336	4	96
NMTAP	39	48	3
NMTAP	39	96	4
NMTAP	39	144	5
NMTAP	39	192	6
NMTAP	39	240	7
NMTAP	39	288	0
NMTAP	39	336	1
NMTAP	40	0	2
NMTAP	40	48	3
NMTAP	40	96	4
NMTAP	40	192	1
NMTAP	40	192	5
NMTAP	40	288	7
NMTAP	40	336	0
NMTAP	40	336	6
NMTAP	41	0	1
NMTAP	41	0	5
BXHLD	41	48	2	1680
BXTAP	41	48	4
NMSTR	42	0	4
NMSI_	42	0	4	96	144	1
CNSI_	42	240	1	0	144	6
CNSI_	43	0	6	0	144	3
NMSTR	43	288	3
NMSI_	43	288	3	96	144	7
CNSI_	44	144	7	0	144	2
CNSI_	44	288	2	0	144	6
NMHLD	45	192	7	96
NMTAP	45	288	0
NMHLD	45	336	0	96
NMTAP	46	48	2
NMHLD	46	96	2	96
NMTAP	46	192	4
NMHLD	46	240	4	96
NMTAP	46	336	5
NMTAP	47	0	3
NMTAP	47	0	6
NMHLD	47	96	2	96
NMTAP	47	192	0
NMHLD	47	240	0	96
NMTAP	47	336	7
NMHLD	48	0	7	96
NMTAP	48	96	5
NMSTR	48	144	5
NMSI_	48	144	5	96	48	0
BXTAP	49	0	2
NMTAP	49	48	2
NMTAP	49	96	3
NMTAP	49	144	2
NMTAP	49	192	2
NMTAP	49	240	3
NMTAP	49	288	1
NMTAP	49	336	1
NMTAP	50	0	4
NMTAP	50	48	0
NMTAP	50	96	0
NMTAP	50	144	5
NMTAP	50	144	7
NMTAP	50	192	5
NMTAP	50	192	7
NMTAP	50	288	6
NMTAP	50	336	6
NMTAP	51	0	7
NMTAP	51	48	6
NMTAP	51	96	6
NMTAP	51	144	7
NMTAP	51	192	5
NMTAP	51	240	5
NMTAP	51	288	0
NMTAP	51	336	4
NMTAP	52	0	4
NMTAP	52	48	1
NMTAP	52	48	3
BRTAP	52	96	1
BRTAP	52	96	3
NMTAP	52	192	2
NMTAP	52	216	3
NMTAP	52	240	2
NMTAP	52	264	3
NMTAP	52	288	2
NMTAP	52	336	1
NMTAP	52	336	4
NMTAP	53	0	1
NMTAP	53	0	4
NMTAP	53	96	5
NMTAP	53	120	4
NMTAP	53	144	5
NMTAP	53	168	4
NMTAP	53	192	5
NMTAP	53	240	3
NMTAP	53	240	6
NMTAP	53	288	3
NMTAP	53	288	6
NMTAP	54	0	6
NMTAP	54	24	7
NMTAP	54	48	6
NMTAP	54	72	7
NMTAP	54	96	6
NMTAP	54	144	1
NMTAP	54	168	0
NMTAP	54	192	1
NMTAP	54	216	0
NMTAP	54	240	1
NMTAP	54	288	7
NMTAP	54	312	0
NMTAP	54	336	7
NMTAP	54	360	0
NMTAP	55	0	7
NMTAP	55	24	0
BRSTR	55	48	7
BRSCL	55	48	7	96	720	3
BRSCR	55	48	7	96	720	3
CNSXL	57	96	3	0	672	3
CNSXR	57	96	3	0	672	3
BRTAP	59	192	1
BRTAP	59	192	6
NMTAP	59	288	5
NMTAP	59	312	4
NMTAP	59	336	5
NMHLD	60	0	2	48
NMHLD	60	0	3	48
NMHLD	60	72	2	48
NMHLD	60	72	3	48
NMSTR	60	144	1
NMSI_	60	144	1	96	48	4
NMTAP	60	144	4
NMSTR	60	240	5
NMSI_	60	240	5	96	48	0
NMTAP	60	336	3
NMTAP	61	0	3
NMSTR	61	96	1
NMSI_	61	96	1	96	48	5
NMSTR	61	96	2
NMSI_	61	96	2	96	48	4
NMSTR	61	288	1
NMSI_	61	288	1	96	48	7
NMSTR	61	288	2
NMSI_	61	288	2	96	48	6
NMSTR	62	96	1
NMSI_	62	96	1	96	48	6
NMSTR	62	96	2
NMSI_	62	96	2	96	48	5
CNSI_	62	240	5	0	96	3
CNSI_	62	240	6	0	96	0
BXTAP	63	0	1
BXTAP	63	0	2
NMTAP	63	96	0
NMTAP	63	120	7
NMTAP	63	144	0
NMHLD	63	192	6	48
NMHLD	63	192	7	48
NMHLD	63	264	6	48
NMHLD	63	264	7	48
NMTAP	63	336	0
NMSTR	63	336	5
NMSI_	63	336	5	96	48	0
NMSTR	64	48	1
NMSI_	64	48	1	96	48	4
NMTAP	64	144	7
NMTAP	64	192	7
NMSTR	64	288	5
NMSI_	64	288	5	96	48	1
NMSTR	64	288	6
NMSI_	64	288	6	96	48	0
NMSTR	65	96	5
NMSI_	65	96	5	96	48	3
NMSTR	65	96	6
NMSI_	65	96	6	96	48	2
NMSTR	65	288	5
NMSI_	65	288	5	96	48	2
NMSTR	65	288	6
NMSI_	65	288	6	96	48	1
CNSI_	66	48	1	0	96	7
CNSI_	66	48	2	0	96	4
BXTAP	66	192	5
BXTAP	66	192	6
NMTAP	66	288	5
NMTAP	66	312	4
NMTAP	66	336	5
NMHLD	67	0	2	48
NMHLD	67	0	3	48
NMHLD	67	72	2	48
NMHLD	67	72	3	48
NMSTR	67	144	1
NMSI_	67	144	1	96	48	4
NMSTR	67	144	4
NMSI_	67	144	4	96	48	7
NMTAP	67	336	3
NMTAP	67	336	6
NMTAP	68	0	3
NMTAP	68	0	6
BRTAP	68	96	1
BRTAP	68	96	5
NMTAP	68	192	6
NMTAP	68	216	0
NMTAP	68	240	6
NMHLD	68	288	1	48
NMHLD	68	288	7	48
NMHLD	68	360	1	48
NMHLD	68	360	7	48
BRTAP	69	48	2
BRSTR	69	48	6
NMSCL	69	48	6	96	144	1
NMSTR	70	0	0
NMSI_	70	0	0	96	48	4
NMSTR	70	96	7
NMSI_	70	96	7	96	48	5
NMSTR	70	192	1
NMSI_	70	192	1	96	48	3
NMTAP	70	288	4
BRTAP	70	336	4
NMTAP	71	48	5
NMTAP	71	48	6
NMTAP	71	96	5
NMTAP	71	96	6
NMTAP	71	192	0
NMTAP	71	192	7
NMTAP	71	288	1
NMTAP	71	336	1
NMTAP	72	0	3
NMTAP	72	48	2
NMTAP	72	96	5
NMTAP	72	144	5
NMSTR	72	192	4
NMSUL	72	192	4	96	192	2
NMHLD	72	240	6	240
NMHLD	73	192	0	48
NMHLD	73	192	1	48
BRTAP	73	264	2
BRTAP	73	264	7
NMHLD	74	0	0	48
NMHLD	74	0	1	48
BRTAP	74	72	3
BRTAP	74	72	6
NMHLD	74	192	0	48
NMHLD	74	192	1	48
BRTAP	74	264	4
BRTAP	74	264	5
NMTAP	74	336	5
NMTAP	74	336	6
NMTAP	75	0	5
NMTAP	75	0	6
NMHLD	75	96	6	48
NMHLD	75	96	7	48
BRTAP	75	168	0
BRTAP	75	168	5
NMHLD	75	288	6	48
NMHLD	75	288	7	48
BRTAP	75	360	1
BRTAP	75	360	4
NMHLD	76	96	6	48
NMHLD	76	96	7	48
BRTAP	76	168	2
BRTAP	76	168	3
NMTAP	76	240	1
NMTAP	76	240	2
NMTAP	76	288	1
NMTAP	76	288	2
NMHLD	77	0	1	48
NMHLD	77	0	3	48
BRTAP	77	72	3
BRTAP	77	72	5
NMHLD	77	192	1	48
NMHLD	77	192	3	48
BRTAP	77	264	1
BRTAP	77	264	7
NMHLD	78	0	1	48
NMHLD	78	0	3	48
BRTAP	78	72	5
BRTAP	78	72	7
NMTAP	78	144	6
NMTAP	78	144	7
NMTAP	78	192	6
NMTAP	78	192	7
NMHLD	78	288	4	48
NMHLD	78	288	6	48
BRTAP	78	360	2
BRTAP	78	360	4
NMHLD	79	96	4	48
NMHLD	79	96	6	48
BRTAP	79	168	0
BRTAP	79	168	6
NMHLD	79	288	4	48
NMHLD	79	288	6	48
BRTAP	79	360	0
BRTAP	79	360	2
EXTAP	80	48	1
EXTAP	80	48	5
EXTAP	80	96	1
EXTAP	80	96	5
NMHLD	80	192	2	48
NMHLD	80	192	3	48
NMTAP	80	264	4
NMTAP	80	264	5
NMTAP	80	336	3
NMHLD	81	0	2	48
NMHLD	81	0	3	48
NMTAP	81	72	0
NMTAP	81	72	1
NMTAP	81	144	2
NMHLD	81	192	2	48
NMHLD	81	192	3	48
NMTAP	81	264	6
NMTAP	81	264	7
NMTAP	81	336	0
NMTAP	81	336	5
NMTAP	82	0	0
NMTAP	82	0	5
NMHLD	82	96	6	48
NMHLD	82	96	7	48
NMTAP	82	168	4
NMTAP	82	168	5
NMTAP	82	240	6
NMHLD	82	288	6	48
NMHLD	82	288	7	48
NMTAP	82	360	0
NMTAP	82	360	1
NMTAP	83	48	7
NMHLD	83	96	6	48
NMHLD	83	96	7	48
NMTAP	83	168	2
NMTAP	83	168	3
NMTAP	83	240	1
NMTAP	83	240	4
NMTAP	83	288	1
NMTAP	83	288	4
NMTAP	84	0	2
NMTAP	84	24	3
NMTAP	84	48	2
NMTAP	84	72	3
NMTAP	84	96	2
NMTAP	84	120	3
NMTAP	84	144	2
NMTAP	84	192	1
NMTAP	84	216	0
NMTAP	84	240	1
NMTAP	84	264	0
NMTAP	84	288	1
NMTAP	84	312	0
NMTAP	84	336	1
NMTAP	85	0	6
NMTAP	85	24	7
NMTAP	85	48	6
NMTAP	85	72	7
NMTAP	85	96	6
NMTAP	85	120	7
NMTAP	85	144	6
BRTAP	85	192	4
BRTAP	85	192	5
NMTAP	85	288	5
NMTAP	85	312	4
NMTAP	85	336	5
NMTAP	85	360	4
NMTAP	86	0	5
NMTAP	86	24	4
NMTAP	86	48	5
NMTAP	86	96	6
NMTAP	86	120	7
NMTAP	86	144	6
NMTAP	86	168	7
NMTAP	86	192	6
NMTAP	86	216	7
NMTAP	86	240	6
NMTAP	86	288	1
NMTAP	86	312	0
NMTAP	86	336	1
NMTAP	86	360	0
NMTAP	87	0	1
NMTAP	87	24	0
NMTAP	87	48	1
BRSTR	87	96	2
NMSCR	87	96	2	96	48	5
BRTAP	87	96	7
NMTAP	87	288	6
NMTAP	88	0	0
NMTAP	88	0	7
NMTAP	88	96	0
NMTAP	88	96	1
NMSTR	88	144	0
NMSI_	88	144	0	96	48	5
NMSTR	88	144	1
NMSI_	88	144	1	96	48	5
NMTAP	88	336	4
NMTAP	88	336	6
NMTAP	89	0	4
NMSTR	89	0	6
NMSXL	89	0	6	96	192	1
NMTAP	89	96	3
NMHLD	89	288	2	96
NMTAP	90	0	3
NMSTR	90	48	4
NMSI_	90	48	4	96	48	7
NMSTR	90	144	1
NMSI_	90	144	1	96	48	4
NMTAP	90	240	6
BRSTR	90	288	6
NMSCR	90	288	6	96	48	1
NMTAP	91	96	2
NMTAP	91	192	3
NMTAP	91	192	4
NMTAP	91	288	4
NMTAP	91	288	5
NMSTR	91	336	4
NMSI_	91	336	4	96	48	1
NMSTR	91	336	5
NMSI_	91	336	5	96	48	1
NMTAP	92	144	0
NMTAP	92	144	2
NMTAP	92	192	0
NMSTR	92	192	2
NMSXL	92	192	2	96	192	5
NMTAP	92	288	7
NMHLD	93	96	6	96
NMTAP	93	192	7
NMSTR	93	240	0
NMSI_	93	240	0	96	48	3
NMSTR	93	336	5
NMSI_	93	336	5	96	48	0
NMTAP	94	48	2
NMTAP	94	96	2
NMTAP	94	192	1
NMTAP	94	216	0
NMTAP	94	240	1
NMTAP	94	264	0
NMTAP	94	288	1
NMTAP	94	312	0
NMTAP	94	336	1
NMTAP	95	0	6
NMTAP	95	24	7
NMTAP	95	48	6
NMTAP	95	72	7
NMTAP	95	96	6
NMTAP	95	120	7
NMTAP	95	144	6
NMTAP	95	192	0
NMSTR	95	192	5
NMSI_	95	192	5	96	48	0
NMTAP	95	288	2
NMTAP	96	0	3
NMTAP	96	0	7
NMTAP	96	96	6
NMTAP	96	120	4
NMTAP	96	144	6
NMTAP	96	168	4
NMTAP	96	192	6
NMTAP	96	216	4
NMTAP	96	240	6
NMTAP	96	288	1
NMTAP	96	312	3
NMTAP	96	336	1
NMTAP	96	360	3
NMTAP	97	0	1
NMTAP	97	24	3
NMTAP	97	48	1
NMSTR	97	96	0
NMSI_	97	96	0	96	48	6
NMSTR	97	96	4
NMSI_	97	96	4	96	48	2
BRTAP	97	288	0
BRTAP	97	288	4
NMSTR	98	0	6
NMSI_	98	0	6	96	48	3
NMTAP	98	48	6
NMSTR	98	96	2
NMSI_	98	96	2	96	48	7
NMTAP	98	144	2
NMSTR	98	192	5
NMSI_	98	192	5	96	48	2
NMTAP	98	240	5
NMTAP	98	288	0
NMSTR	99	0	1
BRSI_	99	0	1	96	48	4
NMTAP	99	48	1
NMSTR	99	96	5
BRSI_	99	96	5	96	48	0
NMTAP	99	144	5
NMTAP	99	192	3
NMTAP	99	288	1
NMTAP	99	312	7
NMTAP	99	336	1
NMTAP	99	360	7
NMTAP	100	0	0
NMTAP	100	24	6
NMTAP	100	48	0
NMTAP	100	72	6
NMTAP	100	96	1
NMTAP	100	120	5
NMTAP	100	144	1
NMTAP	100	168	5
NMTAP	100	192	2
NMTAP	100	216	4
NMTAP	100	240	2
NMTAP	100	264	4
NMHLD	100	288	3	96
NMTTP	101	0	4	E	0	M1
NMTTP	101	24	5	E	0	M1
NMTTP	101	48	6	E	0	M1
NMTTP	101	72	7	E	0	M1
NMTTP	101	96	0	E	0	M1
NMTTP	101	120	1	E	0	M1
NMTTP	101	144	2	E	0	M1
NMTTP	101	168	3	E	0	M1
NMTHO	101	192	0	576	C	1	M1
NMTTP	102	168	7	E	1	M1
NMTTP	102	240	1	E	1	M1
NMTTP	102	312	0	E	1	M1
EXSTR	103	0	0
BRSF_	103	0	0	96	48	4

T_REC_TAP	422
T_REC_BRK	43
T_REC_XTP	6
T_REC_BXX	10
T_REC_HLD	85
T_REC_XHO	2
T_REC_BHO	0
T_REC_BXH	2
T_REC_STR	49
T_REC_BST	4
T_REC_XST	1
T_REC_XBS	1
T_REC_TTP	20
T_REC_THO	2
T_REC_SLD	51
T_REC_BSL	5
T_REC_ALL	703
T_NUM_TAP	498
T_NUM_BRK	65
T_NUM_HLD	89
T_NUM_SLD	51
T_NUM_ALL	703
T_JUDGE_TAP	556
T_JUDGE_HLD	260
T_JUDGE_SLD	56
T_JUDGE_ALL	872
TTM_EACHPAIRS	166
TTM_SCR_TAP	249000
TTM_SCR_BRK	169000
TTM_SCR_HLD	89000
TTM_SCR_SLD	76500
TTM_SCR_ALL	583500
TTM_SCR_S	559700
TTM_SCR_SS	577000
TTM_RAT_ACV	10112

