VERSION	0.00.00	1.05.00
FES_MODE	0
BPM_DEF	168.000	168.000	168.000	168.000
MET_DEF	4	4
RESOLUTION	384
CLK_DEF	672
COMPATIBLE_CODE	MA2

BPM	0	0	168.000
MET	0	0	4	7

EXSTR	3	192	1
NMSI_	3	192	1	96	288	5
EXSTR	5	96	6
NMSI_	5	96	6	96	288	3
NMSTR	7	0	2
NMSI_	7	0	2	96	288	7
NMSTR	8	288	6
NMSI_	8	288	6	96	288	2
NMTAP	10	192	1
NMTAP	10	288	1
NMTAP	11	0	0
NMTAP	11	0	1
NMTAP	11	96	0
NMTAP	11	96	1
NMTAP	12	96	2
NMTAP	12	192	2
NMTAP	12	288	2
NMTAP	12	288	3
NMTAP	13	0	2
NMTAP	13	0	3
NMTAP	14	0	5
NMTAP	14	96	5
NMTAP	14	192	4
NMTAP	14	192	5
NMTAP	14	288	4
NMTAP	14	288	5
NMTAP	15	288	6
NMTAP	16	0	6
NMTAP	16	96	6
NMTAP	16	96	7
EXTAP	16	192	6
EXTAP	16	192	7
NMTAP	17	192	5
NMTAP	18	0	5
NMTAP	18	192	4
NMTAP	18	192	5
NMTAP	19	96	2
NMTAP	19	288	2
NMTAP	20	96	2
NMTAP	20	96	3
NMHLD	21	0	0	192
NMHLD	21	0	1	192
NMTAP	22	0	0
NMTAP	22	0	1
NMHLD	22	288	2	192
NMHLD	22	288	3	192
NMTAP	23	288	2
NMTAP	23	288	3
NMHLD	24	192	4	192
NMHLD	24	192	5	192
NMTAP	25	192	4
NMTAP	25	192	5
NMHLD	26	96	6	192
NMHLD	26	96	7	192
NMTAP	27	96	6
NMTAP	27	96	7
NMTAP	28	0	6
NMTAP	28	0	7
NMTAP	28	96	6
NMTAP	28	96	7
NMTAP	28	192	5
NMTAP	28	288	4
NMTAP	29	0	2
NMTAP	29	0	3
NMTAP	29	96	2
NMTAP	29	96	3
NMTAP	29	288	0
NMTAP	29	288	1
NMTAP	30	0	0
NMTAP	30	0	1
NMTAP	30	96	2
NMTAP	30	192	3
NMTAP	30	288	4
NMTAP	30	288	5
NMTAP	31	0	4
NMTAP	31	0	5
NMTAP	31	192	4
NMTAP	31	192	5
NMTAP	31	288	4
NMTAP	31	288	5
NMTAP	32	0	6
NMTAP	32	96	7
NMTAP	32	192	0
NMTAP	32	192	1
NMTAP	32	288	0
NMTAP	32	288	1
NMTAP	33	96	2
NMTAP	33	96	3
NMTAP	33	192	2
NMTAP	33	192	3
NMTAP	33	288	1
NMTAP	34	0	0
NMTAP	34	96	6
NMTAP	34	96	7
NMTAP	34	192	6
NMTAP	34	192	7
NMTAP	35	0	4
NMTAP	35	0	5
NMTAP	35	96	4
NMTAP	35	96	5
NMTAP	35	192	6
NMTAP	35	288	6
NMTAP	36	0	6
NMTAP	36	0	7
NMTAP	36	96	6
NMTAP	36	96	7
NMTAP	36	288	0
NMTAP	36	288	1
NMTAP	37	0	0
NMTAP	37	0	1
NMTAP	37	96	2
NMTAP	37	192	2
NMTAP	37	288	2
NMTAP	37	288	3
NMTAP	38	0	2
NMTAP	38	0	3
NMTAP	38	192	2
NMTAP	38	192	3
NMTAP	38	288	2
NMTAP	38	288	3
NMTAP	39	0	1
NMTAP	39	96	1
NMTAP	39	192	0
NMTAP	39	192	7
NMTAP	39	288	0
NMTAP	39	288	7
NMTAP	40	96	6
NMTAP	40	192	6
NMTAP	40	288	4
NMTAP	40	288	5
EXTAP	41	0	4
EXTAP	41	0	5
EXSTR	42	0	5
NMSI_	42	0	5	96	288	2
NMSTR	43	288	1
NMSI_	43	288	1	96	288	4
NMSTR	45	192	6
NMSI_	45	192	6	96	288	2
NMSTR	47	96	0
NMSI_	47	96	0	96	288	4
NMTTP	49	0	6	B	0	L1
NMTTP	49	96	5	B	0	L1
NMTTP	49	192	4	B	0	L1
NMTTP	49	288	3	B	0	L1
NMTTP	50	0	2	B	0	L1
NMTTP	50	288	1	B	0	L1
NMTTP	51	0	2	B	0	L1
NMTTP	51	96	3	B	0	L1
NMTTP	51	192	4	B	0	L1
NMTTP	51	288	5	B	0	L1
NMTTP	52	192	7	E	0	L1
NMTTP	52	288	6	E	0	L1
NMTTP	53	0	5	E	0	L1
NMTTP	53	96	4	E	0	L1
NMTTP	53	192	3	E	0	L1
NMTTP	54	96	1	E	0	L1
NMTTP	54	192	2	E	0	L1
NMTTP	54	288	3	E	0	L1
NMTHO	55	0	0	1152	C	0	L1
NMTAP	59	192	1
NMTAP	59	288	1
NMTAP	60	0	1
NMTAP	60	96	1
NMTAP	60	192	0
NMTAP	60	192	1
NMTAP	60	288	0
NMTAP	60	288	1
NMTAP	61	0	0
NMTAP	61	0	1
NMTAP	61	96	2
NMTAP	61	192	2
NMTAP	61	288	2
NMTAP	62	0	2
NMTAP	62	96	3
NMTAP	62	96	4
NMTAP	62	192	3
NMTAP	62	192	4
NMTAP	63	0	5
NMTAP	63	96	5
NMTAP	63	192	5
NMTAP	63	288	5
NMTAP	64	0	4
NMTAP	64	0	5
NMTAP	64	96	4
NMTAP	64	96	5
NMTAP	64	192	4
NMTAP	64	192	5
NMTAP	64	288	6
NMTAP	65	0	6
NMTAP	65	96	6
NMTAP	65	192	6
NMTAP	65	288	0
NMTAP	65	288	7
NMTAP	66	0	0
NMTAP	66	0	7
NMTAP	66	192	6
NMTAP	66	288	6
NMTAP	67	0	6
NMTAP	67	96	6
NMTAP	67	192	4
NMTAP	67	192	5
NMTAP	67	288	4
NMTAP	67	288	5
NMTAP	68	0	4
NMTAP	68	0	5
NMTAP	68	96	3
NMTAP	68	192	3
NMTAP	68	288	3
NMTAP	69	0	3
NMTAP	69	96	2
NMTAP	69	96	3
NMTAP	69	192	2
NMTAP	69	192	3
NMTAP	70	0	1
NMTAP	70	96	1
NMTAP	70	192	1
NMTAP	70	288	1
NMTAP	71	0	2
NMTAP	71	0	3
NMTAP	71	96	2
NMTAP	71	96	3
NMTAP	71	192	2
NMTAP	71	192	3
NMTAP	71	288	3
NMTAP	71	288	4
NMTAP	72	0	3
NMTAP	72	0	4
NMTAP	72	96	4
NMTAP	72	96	5
BRTAP	72	192	4
BRTAP	72	192	5
EXHLD	73	192	4	192
EXHLD	73	192	6	192
NMHLD	74	192	3	192
NMHLD	74	192	5	192
NMHLD	75	96	3	192
NMHLD	75	96	5	192
NMHLD	76	96	2	192
NMHLD	76	96	4	192
NMHLD	77	0	2	192
NMHLD	77	0	4	192
NMHLD	78	0	1	192
NMHLD	78	0	3	192
NMHLD	78	288	1	192
NMHLD	78	288	3	192
NMHLD	79	288	0	192
NMHLD	79	288	2	192
NMSTR	80	192	1
NMSCR	80	192	1	96	288	4
NMSTR	82	96	6
NMSCR	82	96	6	96	288	1
NMSTR	84	0	2
NMSCR	84	0	2	96	288	5
NMSTR	85	288	6
NMSLR	85	288	6	96	384	4
NMTAP	87	192	5
NMTAP	87	240	5
NMTAP	87	288	5
NMTAP	88	0	6
NMTAP	88	48	6
NMTAP	88	96	6
NMTAP	88	192	7
NMTAP	88	240	7
NMTAP	88	288	7
NMTAP	89	96	0
NMTAP	89	144	0
NMTAP	89	192	0
NMTAP	89	288	1
NMTAP	89	336	1
NMTAP	90	0	1
NMTAP	90	96	2
NMTAP	90	144	2
NMTAP	90	192	2
NMTAP	91	0	2
NMTAP	91	0	3
NMTAP	91	48	2
NMTAP	91	48	3
NMTAP	91	96	2
NMTAP	91	96	3
NMTAP	91	192	1
NMTAP	91	240	1
NMTAP	91	288	1
NMTAP	92	0	0
NMTAP	92	0	1
NMTAP	92	48	0
NMTAP	92	48	1
NMTAP	92	96	0
NMTAP	92	96	1
NMTAP	92	288	6
NMTAP	92	288	7
NMTAP	92	336	6
NMTAP	92	336	7
NMTAP	93	0	6
NMTAP	93	0	7
NMTAP	93	96	5
NMTAP	93	144	5
NMTAP	93	192	5
NMTAP	93	288	4
NMTAP	93	288	5
NMTAP	93	336	4
NMTAP	93	336	5
NMTAP	94	0	4
NMTAP	94	0	5
NMTAP	94	192	5
NMTAP	94	288	6
NMTAP	95	0	7
NMTAP	95	96	0
NMTAP	95	192	1
NMTAP	95	288	2
NMTAP	95	288	3
NMTAP	96	96	2
NMTAP	96	192	1
NMTAP	96	288	0
NMTAP	97	0	7
NMTAP	97	96	6
NMTAP	97	192	4
NMTAP	97	192	5
NMTAP	98	0	4
NMTAP	98	0	5
NMTAP	98	48	4
NMTAP	98	48	5
NMTAP	98	96	4
NMTAP	98	96	5
NMTAP	98	192	6
NMTAP	98	192	7
NMTAP	98	240	6
NMTAP	98	240	7
NMTAP	98	288	6
NMTAP	98	288	7
NMTAP	99	0	0
NMTAP	99	0	1
NMTAP	99	48	0
NMTAP	99	48	1
NMTAP	99	96	0
NMTAP	99	96	1
NMTAP	99	288	2
NMTAP	99	288	3
NMTAP	99	336	2
NMTAP	99	336	3
NMTAP	100	0	2
NMTAP	100	0	3
NMTAP	100	96	0
NMTAP	100	96	1
NMTAP	100	144	0
NMTAP	100	144	1
NMTAP	100	192	0
NMTAP	100	192	1
NMTAP	100	288	6
NMTAP	100	288	7
NMTAP	100	336	6
NMTAP	100	336	7
NMTAP	101	0	6
NMTAP	101	0	7
NMTAP	101	96	5
NMSTR	101	192	4
NMSCR	101	192	4	96	576	3

T_REC_TAP	281
T_REC_BRK	2
T_REC_XTP	4
T_REC_BXX	0
T_REC_HLD	22
T_REC_XHO	2
T_REC_BHO	0
T_REC_BXH	0
T_REC_STR	10
T_REC_BST	0
T_REC_XST	3
T_REC_XBS	0
T_REC_TTP	18
T_REC_THO	1
T_REC_SLD	13
T_REC_BSL	0
T_REC_ALL	356
T_NUM_TAP	316
T_NUM_BRK	2
T_NUM_HLD	25
T_NUM_SLD	13
T_NUM_ALL	356
T_JUDGE_TAP	318
T_JUDGE_HLD	120
T_JUDGE_SLD	13
T_JUDGE_ALL	451
TTM_EACHPAIRS	110
TTM_SCR_TAP	158000
TTM_SCR_BRK	5200
TTM_SCR_HLD	25000
TTM_SCR_SLD	19500
TTM_SCR_ALL	207700
TTM_SCR_S	201300
TTM_SCR_SS	207500
TTM_RAT_ACV	10009

