VERSION	0.00.00	1.05.00
FES_MODE	0
BPM_DEF	171.000	171.000	171.000	171.000
MET_DEF	4	4
RESOLUTION	384
CLK_DEF	384
COMPATIBLE_CODE	MA2

BPM	0	0	171.000
MET	0	0	4	4

NMTAP	1	0	5
NMTAP	1	144	4
NMSTR	1	288	3
NMSCL	1	288	3	96	480	6
NMTAP	2	0	4
NMTAP	2	48	4
NMTAP	2	96	3
NMTAP	2	144	4
NMTAP	2	192	4
NMTAP	2	240	3
NMTAP	2	288	4
NMTAP	2	336	3
NMTAP	3	0	4
NMTAP	3	48	4
NMTAP	3	96	3
NMTAP	3	144	4
NMTAP	3	192	4
NMTAP	3	240	3
NMSTR	3	288	4
NMSCR	3	288	4	96	480	1
NMTAP	4	0	3
NMTAP	4	48	3
NMTAP	4	96	4
NMTAP	4	144	3
NMTAP	4	192	3
NMTAP	4	240	4
NMTAP	4	288	3
NMTAP	4	336	4
NMTAP	5	0	3
NMTAP	5	48	3
NMTAP	5	96	4
NMTAP	5	144	3
NMTAP	5	192	3
NMTAP	5	240	4
NMSTR	5	288	3
NMSCL	5	288	3	96	480	6
NMTAP	6	0	4
NMTAP	6	48	4
NMTAP	6	96	3
NMTAP	6	144	4
NMTAP	6	192	4
NMTAP	6	240	3
NMTAP	6	288	4
NMTAP	6	336	3
NMTAP	7	0	4
NMTAP	7	48	4
NMTAP	7	96	3
NMTAP	7	144	4
NMTAP	7	192	4
NMTAP	7	240	3
NMTAP	7	288	4
NMTAP	8	0	6
NMTAP	8	24	5
NMHLD	8	48	4	96
NMTAP	8	144	5
NMTAP	8	168	6
NMHLD	8	192	7	96
NMTAP	8	288	6
NMTAP	8	312	5
NMTAP	8	336	4
NMTAP	9	0	1
NMTAP	9	24	2
NMHLD	9	48	3	96
NMTAP	9	144	2
NMTAP	9	168	1
NMTAP	9	192	0
NMTAP	9	216	7
NMTAP	9	240	6
NMTAP	9	264	5
BRTAP	9	288	4
NMHLD	10	0	2	240
NMTAP	10	0	3
NMTAP	10	24	4
NMTAP	10	48	5
NMTAP	10	144	3
NMTAP	10	168	4
NMTAP	10	192	5
NMHLD	10	288	1	240
NMTTP	10	288	3	E	0	M1
NMTTP	10	312	4	E	0	M1
NMTTP	10	336	5	E	0	M1
NMTTP	11	48	3	D	0	M1
NMTTP	11	72	4	D	0	M1
NMTTP	11	96	5	D	0	M1
NMTAP	11	192	0
NMTAP	11	240	2
NMTAP	11	288	4
NMTAP	12	0	4
NMHLD	12	0	5	240
NMTAP	12	24	3
NMTAP	12	48	2
NMTAP	12	144	4
NMTAP	12	168	3
NMTAP	12	192	2
NMTTP	12	288	5	E	0	M1
NMHLD	12	288	6	240
NMTTP	12	312	4	E	0	M1
NMTTP	12	336	3	E	0	M1
NMTTP	13	48	5	D	0	M1
NMTTP	13	72	4	D	0	M1
NMTTP	13	96	3	D	0	M1
NMTAP	13	192	7
NMTAP	13	240	5
NMTAP	13	288	3
NMHLD	14	0	2	96
NMTAP	14	0	3
NMTAP	14	24	4
NMTAP	14	48	5
NMHLD	14	144	1	96
NMTAP	14	144	3
NMTAP	14	168	4
NMTAP	14	192	5
NMHLD	14	288	0	96
NMTTP	14	288	3	E	0	M1
NMTTP	14	312	4	E	0	M1
NMTTP	14	336	5	E	0	M1
NMHLD	15	48	0	96
NMTTP	15	48	3	D	0	M1
NMTTP	15	72	4	D	0	M1
NMTTP	15	96	5	D	0	M1
NMTAP	15	192	0
NMTAP	15	240	2
NMTAP	15	288	4
NMTAP	15	336	5
NMTAP	16	0	5
NMTAP	16	24	4
NMTAP	16	48	3
NMTAP	16	72	2
NMTAP	16	96	5
NMTAP	16	120	4
NMTAP	16	144	3
NMTAP	16	168	2
NMTAP	16	192	6
NMTAP	16	216	5
NMTAP	16	240	4
NMTAP	16	264	3
NMTAP	16	288	2
NMTAP	16	312	1
NMSTR	16	336	0
NMSI_	16	336	0	96	48	6
NMSTR	17	48	0
NMSI_	17	48	0	96	48	2
NMSTR	17	96	4
NMSI_	17	96	4	96	48	6
NMSTR	17	144	0
NMSI_	17	144	0	96	48	4
NMSTR	17	192	4
NMSI_	17	192	4	96	48	2
NMTAP	17	240	0
NMTAP	17	336	5
NMTAP	17	360	6
NMSTR	18	0	7
NMSXL	18	0	7	96	768	2
NMTAP	18	144	3
NMSTR	18	192	3
BRSXL	18	192	3	96	576	6
NMTTP	20	288	7	E	0	M1
NMTTP	21	0	0	E	0	M1
NMTTP	21	96	1	E	0	M1
NMTAP	21	192	1
NMTAP	21	216	3
NMTAP	21	240	2
NMTAP	21	264	4
NMTAP	21	288	3
NMTAP	21	312	5
NMTAP	21	336	4
NMTAP	21	360	6
NMTAP	22	0	5
NMTAP	22	192	6
NMTAP	22	288	4
NMTAP	23	0	2
NMTAP	23	48	1
NMHLD	23	96	5	48
NMTAP	23	144	3
NMTAP	23	192	2
NMHLD	23	240	4	48
NMTAP	23	288	2
NMTAP	23	336	1
NMHLD	24	0	5	48
NMTAP	24	48	3
NMTAP	24	96	2
NMTAP	24	144	2
NMTTP	24	192	5	E	0	M1
NMTTP	24	240	4	E	0	M1
NMTTP	24	288	3	E	0	M1
NMTAP	24	336	4
NMTAP	25	0	5
NMTAP	25	48	6
NMHLD	25	96	2	48
NMTAP	25	144	4
NMTAP	25	192	5
NMHLD	25	240	3	48
NMTAP	25	288	5
NMTAP	25	336	6
NMHLD	26	0	2	48
NMTAP	26	48	4
NMTAP	26	96	5
NMTAP	26	144	5
NMTAP	26	192	3
NMTAP	26	240	3
NMTAP	26	288	4
NMSTR	27	0	2
NMSUR	27	0	2	96	144	7
NMTAP	27	96	7
NMSTR	27	144	7
NMSUR	27	144	7	96	144	4
NMTAP	27	240	4
NMSTR	27	288	4
NMSUR	27	288	4	96	144	1
NMTAP	28	0	1
NMSTR	28	48	1
NMSUR	28	48	1	96	144	6
NMTAP	28	144	6
NMSTR	28	192	6
NMSUR	28	192	6	96	144	3
NMTAP	28	288	3
NMSTR	29	0	4
NMSXL	29	0	4	96	480	3
NMHLD	29	144	0	432
NMTAP	31	0	5
NMTAP	31	48	6
NMTAP	31	72	6
NMHLD	31	96	2	48
NMTAP	31	144	4
NMTAP	31	192	5
NMTAP	31	240	3
NMTAP	31	264	3
NMTAP	31	288	5
NMTAP	31	336	6
NMHLD	32	0	2	48
NMTAP	32	48	4
NMTAP	32	72	3
NMTAP	32	96	5
NMTAP	32	144	6
NMTAP	32	192	3
NMTAP	32	240	4
NMTAP	32	288	5
NMTAP	32	312	5
NMTAP	32	336	3
NMTAP	33	0	2
NMTAP	33	48	1
NMTAP	33	72	1
NMHLD	33	96	5	48
NMTAP	33	144	3
NMTAP	33	192	2
NMTAP	33	240	4
NMTAP	33	264	4
NMTAP	33	288	2
NMTAP	33	336	1
NMHLD	34	0	5	48
NMTAP	34	48	3
NMTAP	34	72	4
NMTAP	34	96	2
NMTAP	34	144	1
NMTAP	34	192	4
NMTAP	34	240	4
NMSTR	34	288	3
NMSCL	34	288	3	96	96	0
NMSTR	35	0	0
NMSV_	35	0	0	96	96	3
NMTAP	35	96	3
NMSTR	35	192	4
NMSCR	35	192	4	96	96	7
NMSTR	35	288	7
NMSV_	35	288	7	96	96	4
NMTAP	36	0	4
NMSTR	36	96	3
NMSI_	36	96	3	96	48	0
NMSI_	36	96	3	96	48	6
NMTAP	36	192	3
NMSTR	36	288	7
NMSCL	36	288	7	96	96	3
NMSTR	37	0	3
NMSCL	37	0	3	96	96	7
NMSTR	37	96	7
NMSCL	37	96	7	96	96	3
NMSTR	37	192	3
NMSCR	37	192	3	96	288	3
NMHLD	37	288	7	384
NMTAP	38	288	4
NMTAP	38	336	3
NMSTR	39	0	2
NMSI_	39	0	2	96	48	4
NMTAP	39	0	6
NMSTR	39	96	5
NMSI_	39	96	5	96	48	1
NMSTR	39	192	0
NMSI_	39	192	0	96	48	6
NMSTR	39	288	3
NMSLR	39	288	3	96	96	7
NMTAP	40	0	0
NMTAP	40	96	1
CNSI_	40	96	7	0	96	1
NMTAP	40	192	2
NMSTR	40	288	2
NMSI_	40	288	2	96	96	6
NMSTR	41	0	6
NMSI_	41	0	6	96	96	1
NMSTR	41	96	1
NMSI_	41	96	1	96	96	5
NMSTR	41	192	5
NMSI_	41	192	5	96	96	2
NMSTR	41	288	2
NMSI_	41	288	2	96	96	7
NMSTR	42	0	7
NMSI_	42	0	7	96	96	4
NMSTR	42	96	4
NMSI_	42	96	4	96	96	1
NMTAP	42	192	7
NMTAP	42	240	6
BRSTR	42	288	5
NMSCR	42	288	5	96	48	0
NMTTP	43	0	0	C	0	M1
NMTTP	43	0	6	B	0	M1
NMTTP	43	0	7	B	0	M1
NMSTR	43	96	1
NMSCR	43	96	1	96	48	4
NMTTP	43	192	0	C	0	M1
NMTTP	43	192	2	B	0	M1
NMTTP	43	192	3	B	0	M1
NMSTR	43	288	6
NMSI_	43	288	6	96	48	2
BRTAP	44	0	0
NMTAP	44	96	1
NMTAP	44	144	3
NMTAP	44	192	4
NMTAP	44	240	6
NMSTR	44	288	3
NMSI_	44	288	3	96	48	1
NMSTR	44	288	7
NMSI_	44	288	7	96	48	3
NMTAP	45	0	3
NMTAP	45	0	7
NMSTR	45	96	0
NMSI_	45	96	0	96	48	4
NMSTR	45	96	4
NMSI_	45	96	4	96	48	6
NMSTR	45	192	0
NMSCR	45	192	0	96	48	3
NMTAP	45	192	4
NMTTP	45	288	0	C	1	M1
NMTAP	46	0	6
NMTAP	46	48	7
NMTAP	46	96	0
NMTAP	46	144	1
NMTAP	46	192	4
NMTAP	46	216	3
NMTAP	46	240	2
NMTAP	46	264	1
NMTAP	46	288	4
NMTAP	46	312	5
NMTAP	46	336	6
NMTAP	46	360	7
NMTAP	47	0	0
NMTAP	47	0	1
NMTAP	47	48	0
NMTAP	47	48	7
NMTAP	47	96	6
NMTAP	47	96	7
NMTAP	47	144	4
NMTAP	47	144	5
NMTAP	47	192	3
NMTAP	47	192	4
BRTAP	47	240	2
BRTAP	47	240	3
NMTAP	47	336	4
NMTAP	47	336	5
NMTAP	48	48	3
NMTAP	48	48	4
NMSTR	48	96	3
NMSCL	48	96	3	96	48	0
NMSTR	48	96	4
NMSCR	48	96	4	96	48	7
EXTAP	48	192	3
EXTAP	48	192	4
NMTTP	48	288	0	C	0	M1
NMTTP	49	0	1	B	0	M1
NMTTP	49	0	2	B	0	M1
NMTTP	49	0	2	E	0	M1
NMTTP	49	0	5	B	0	M1
NMTTP	49	0	6	B	0	M1
NMTTP	49	0	6	E	0	M1
NMTTP	49	96	7	E	0	M1
NMTTP	49	144	0	E	0	M1
NMTTP	49	192	1	E	0	M1
NMTHO	49	240	0	528	C	1	M1
NMTHO	49	336	1	360	B	0	M1
NMTHO	49	336	2	336	B	0	M1
NMTHO	49	336	2	408	E	0	M1
NMTHO	49	336	5	312	B	0	M1
NMTHO	49	336	6	288	B	0	M1
NMTHO	49	336	6	384	E	0	M1
EXHLD	51	144	7	144
NMTHO	51	288	3	480	B	0	M1
NMTHO	51	288	3	480	E	0	M1
NMTHO	51	288	4	480	E	0	M1
NMTTP	52	0	1	B	1	M1
NMTTP	52	16	0	B	0	M1
NMTTP	52	32	7	B	0	M1
NMTTP	52	48	6	B	0	M1
NMTTP	52	64	5	B	0	M1
NMTTP	52	144	2	E	1	M1
NMTTP	52	160	1	E	0	M1
NMTTP	52	176	0	E	0	M1
NMTTP	52	192	7	E	0	M1
NMTTP	52	208	6	E	0	M1
NMTTP	52	288	1	A	1	M1
NMTTP	52	304	0	A	0	M1
NMTTP	52	320	7	A	0	M1
NMTTP	52	336	6	A	0	M1
NMTTP	52	352	5	A	0	M1
NMSTR	53	96	7
NMSCL	53	96	7	96	48	3
NMTAP	53	144	7
NMHLD	53	192	1	96
NMTHO	53	288	4	480	B	0	M1
NMTHO	53	288	4	480	E	0	M1
NMTHO	53	288	5	480	E	0	M1
NMTTP	54	0	6	B	1	M1
NMTTP	54	16	7	B	0	M1
NMTTP	54	32	0	B	0	M1
NMTTP	54	48	1	B	0	M1
NMTTP	54	64	2	B	0	M1
NMTTP	54	144	6	E	1	M1
NMTTP	54	160	7	E	0	M1
NMTTP	54	176	0	E	0	M1
NMTTP	54	192	1	E	0	M1
NMTTP	54	208	2	E	0	M1
NMTTP	54	288	6	A	1	M1
NMTTP	54	304	7	A	0	M1
NMTTP	54	320	0	A	0	M1
NMTTP	54	336	1	A	0	M1
NMTTP	54	352	2	A	0	M1
NMSTR	55	96	0
NMSI_	55	96	0	96	48	3
NMSI_	55	96	0	96	48	5
NMTAP	55	144	0
EXTAP	55	288	1
EXTAP	55	288	6
NMSTR	56	0	2
NMSV_	56	0	2	96	48	5
NMTAP	56	0	5
NMTAP	56	96	2
NMSTR	56	96	7
NMSI_	56	96	7	96	48	3
NMTAP	56	144	6
NMSTR	56	192	4
NMSI_	56	192	4	96	48	0
NMSTR	56	288	2
NMSUR	56	288	2	96	48	6
NMTAP	56	288	4
NMTAP	57	0	2
NMSTR	57	0	7
NMSCR	57	0	7	96	48	2
NMSTR	57	96	4
NMSV_	57	96	4	96	48	7
NMTAP	57	96	7
NMTAP	57	144	3
NMSTR	57	192	0
NMSI_	57	192	0	96	48	3
NMSI_	57	192	0	96	48	5
BRTAP	57	288	0
NMTAP	58	0	2
NMTAP	58	0	6
NMTAP	58	96	0
NMTAP	58	96	1
NMSTR	58	144	0
NMSI_	58	144	0	96	48	3
NMSTR	58	144	1
NMSI_	58	144	1	96	48	6
BRSTR	58	240	0
NMSI_	58	240	0	96	48	4
BRSTR	58	240	1
NMSI_	58	240	1	96	48	5
BRTAP	58	336	0
BRTAP	58	336	1
EXTAP	59	48	6
NMTAP	59	60	5
NMTAP	59	72	4
NMTAP	59	84	3
NMTAP	59	96	2
NMTAP	59	108	1
NMTAP	59	120	0
NMTAP	59	132	7
NMTAP	59	144	6
EXTAP	59	192	4
NMTAP	59	288	3
NMTHO	59	288	7	480	B	0	M1
NMTHO	59	288	7	480	E	0	M1
NMTHO	59	288	7	480	A	0	M1
NMTTP	60	0	4	B	1	M1
NMTTP	60	16	3	B	0	M1
NMTTP	60	32	2	B	0	M1
NMTTP	60	48	1	B	0	M1
NMTTP	60	64	0	B	0	M1
NMTTP	60	144	5	E	1	M1
NMTTP	60	160	4	E	0	M1
NMTTP	60	176	3	E	0	M1
NMTTP	60	192	2	E	0	M1
NMTTP	60	208	1	E	0	M1
NMTTP	60	288	4	A	1	M1
NMTTP	60	304	3	A	0	M1
NMTTP	60	320	2	A	0	M1
NMTTP	60	336	1	A	0	M1
NMTTP	60	352	0	A	0	M1
NMSTR	61	96	4
NMSCL	61	96	4	96	48	0
NMTAP	61	144	4
NMHLD	61	192	5	96
NMTHO	61	288	0	480	B	0	M1
NMTHO	61	288	0	480	A	0	M1
NMTHO	61	288	1	480	E	0	M1
NMTTP	62	0	3	B	1	M1
NMTTP	62	16	4	B	0	M1
NMTTP	62	32	5	B	0	M1
NMTTP	62	48	6	B	0	M1
NMTTP	62	64	7	B	0	M1
NMTTP	62	144	3	E	1	M1
NMTTP	62	160	4	E	0	M1
NMTTP	62	176	5	E	0	M1
NMTTP	62	192	6	E	0	M1
NMTTP	62	208	7	E	0	M1
NMTTP	62	288	3	A	1	M1
NMTTP	62	304	4	A	0	M1
NMTTP	62	320	5	A	0	M1
NMTTP	62	336	6	A	0	M1
NMTTP	62	352	7	A	0	M1
NMSTR	63	96	5
NMSI_	63	96	5	96	48	0
NMSI_	63	96	5	96	48	2
NMTAP	63	144	5
NMTAP	63	288	3
NMSTR	63	288	7
NMSCL	63	288	7	96	96	1
NMTAP	64	0	1
NMTAP	64	0	7
NMTAP	64	96	0
NMSTR	64	144	0
NMSI_	64	144	0	96	48	4
NMSTR	64	192	7
NMSI_	64	192	7	96	48	2
NMTAP	64	240	0
NMSTR	64	288	7
NMSCL	64	288	7	96	96	1
NMTAP	65	0	1
NMTAP	65	0	7
NMTAP	65	96	0
NMSTR	65	144	0
NMSI_	65	144	0	96	48	5
NMSTR	65	192	7
NMSI_	65	192	7	96	48	2
NMTAP	65	240	0
NMSTR	65	288	7
NMSI_	65	288	7	96	48	3
NMSI_	65	288	7	96	48	4
NMTAP	66	0	7
NMSTR	66	96	0
NMSI_	66	96	0	96	48	3
NMSI_	66	96	0	96	48	5
NMTAP	66	144	1
NMTAP	66	144	7
NMTAP	66	192	0
NMSTR	66	288	4
NMSCL	66	288	4	96	48	1
NMSCR	66	288	4	96	48	7
NMTAP	66	336	3
NMTAP	66	336	5
NMTAP	67	0	4
NMTAP	67	96	0
NMTAP	67	96	1
NMTAP	67	144	2
NMTAP	67	144	6
NMTAP	67	240	0
NMTAP	67	240	4
NMSTR	67	288	0
NMSI_	67	288	0	96	48	2
NMTAP	67	288	4
NMSTR	68	0	0
NMSI_	68	0	0	96	48	6
NMTHO	68	0	4	480	E	0	M1
NMTTP	68	0	5	E	1	M1
NMSTR	68	96	0
NMSCR	68	96	0	96	48	2
NMTTP	68	144	3	E	1	M1
NMSTR	68	192	0
NMSCL	68	192	0	96	48	6
NMSTR	68	288	0
NMSI_	68	288	0	96	48	2
NMTTP	68	288	5	E	1	M1
NMSTR	69	0	0
NMSI_	69	0	0	96	48	6
NMTTP	69	48	3	E	1	M1
NMSTR	69	96	0
NMSCR	69	96	0	96	48	2
NMTAP	69	192	0
NMTTP	69	192	4	B	0	M1
NMTTP	69	208	5	B	0	M1
NMTTP	69	224	6	E	0	M1
NMTTP	69	240	6	A	0	M1
NMTAP	69	288	3
EXSTR	69	288	7
NMSI_	69	288	7	96	48	5
NMTTP	70	0	3	E	1	M1
NMTHO	70	0	4	480	E	1	M1
NMSTR	70	0	7
NMSI_	70	0	7	96	48	1
NMSTR	70	96	7
NMSCL	70	96	7	96	48	5
NMTTP	70	144	5	E	1	M1
NMSTR	70	192	7
NMSCR	70	192	7	96	48	1
NMTTP	70	288	3	E	1	M1
NMSTR	70	288	7
NMSI_	70	288	7	96	48	5
NMSTR	71	0	7
NMSI_	71	0	7	96	48	1
NMTTP	71	48	5	E	1	M1
NMSTR	71	96	7
NMSCL	71	96	7	96	48	5
NMTTP	71	192	3	B	0	M1
NMTAP	71	192	7
NMTTP	71	208	2	B	0	M1
NMTTP	71	224	2	E	0	M1
NMTTP	71	240	1	A	0	M1
EXSTR	71	288	0
NMSI_	71	288	0	96	48	3
NMTAP	72	0	0
NMSTR	72	0	5
NMSCR	72	0	5	96	96	2
NMSTR	72	96	2
NMSCL	72	96	2	96	96	5
NMTAP	72	96	5
NMSTR	72	192	4
NMSI_	72	192	4	96	48	0
NMTAP	72	288	4
NMSTR	73	0	1
NMSLR	73	0	1	96	96	5
NMSTR	73	96	5
NMSLR	73	96	5	96	96	1
NMTAP	73	192	1
NMTAP	73	288	5
NMTAP	74	0	3
NMSTR	74	0	7
NMSCR	74	0	7	96	48	2
NMTAP	74	96	3
NMTAP	74	96	7
NMSTR	74	144	4
NMSF_	74	144	4	96	48	0
NMTAP	74	240	4
NMTAP	74	336	1
NMTAP	74	336	7
NMTAP	74	348	2
NMTAP	74	348	6
NMTAP	74	360	3
NMTAP	74	360	5
NMTAP	74	372	4
NMTAP	75	48	2
NMTAP	75	48	6
NMSTR	75	96	2
NMSI_	75	96	2	96	48	7
NMSTR	75	96	6
NMSI_	75	96	6	96	48	3
NMTAP	75	192	2
NMTAP	75	192	6
NMSTR	75	288	0
NMSI_	75	288	0	96	48	2
NMTAP	75	288	4
NMSTR	76	0	0
NMSI_	76	0	0	96	48	5
NMTHO	76	0	3	576	A	1	M1
NMTTP	76	0	4	E	1	M1
NMSTR	76	96	0
NMSCR	76	96	0	96	48	2
NMTTP	76	144	3	E	1	M1
NMSTR	76	192	0
NMSCL	76	192	0	96	48	5
NMSTR	76	288	0
NMSI_	76	288	0	96	48	2
NMTTP	76	288	4	E	1	M1
NMSTR	77	0	0
NMSI_	77	0	0	96	48	5
NMTTP	77	48	3	E	1	M1
NMSTR	77	96	0
NMSCR	77	96	0	96	48	2
NMTAP	77	192	0
NMTTP	77	192	4	E	0	M1
NMTAP	77	288	3
NMSTR	77	288	7
NMSI_	77	288	7	96	48	5
NMTTP	78	0	4	E	1	M1
NMTHO	78	0	4	576	A	1	M1
NMSTR	78	0	7
NMSI_	78	0	7	96	48	2
NMSTR	78	96	7
NMSCL	78	96	7	96	48	5
NMTTP	78	144	5	E	1	M1
NMSTR	78	192	7
NMSCR	78	192	7	96	48	2
NMTTP	78	288	4	E	1	M1
NMSTR	78	288	7
NMSI_	78	288	7	96	48	5
NMSTR	79	0	7
NMSI_	79	0	7	96	48	2
NMTTP	79	48	5	E	1	M1
NMSTR	79	96	7
NMSCL	79	96	7	96	48	5
NMTAP	79	192	7
NMTAP	79	288	3
NMSTR	80	0	2
NMSLL	80	0	2	96	96	5
NMSTR	80	0	6
NMSLL	80	0	6	96	96	1
NMTTP	80	288	0	A	0	M1
NMTTP	80	288	0	D	0	M1
NMTHO	80	288	3	192	A	0	M1
NMTHO	80	288	4	192	A	0	M1
NMTHO	80	288	4	192	D	1	M1
NMTTP	80	288	7	A	0	M1
BRTAP	81	0	6
NMTAP	81	12	7
NMTAP	81	24	0
NMTAP	81	36	1
NMTAP	81	48	2
BRTAP	81	96	1
NMTAP	81	108	0
NMTAP	81	120	7
NMTAP	81	132	6
NMTAP	81	144	5
BRTAP	81	192	6
NMTAP	81	204	7
NMTAP	81	216	0
NMTAP	81	228	1
NMTAP	81	240	2
NMTAP	81	252	3
NMTAP	81	264	4
NMTAP	81	276	5
NMTAP	81	288	6
NMTAP	81	300	7
NMTAP	81	312	0
NMTAP	81	324	1
NMTAP	81	336	2
NMTAP	81	348	3
NMTAP	81	360	4
NMTAP	81	372	5
BRTAP	82	0	6
EXTAP	82	96	4
EXTAP	82	96	5
EXTAP	82	144	2
EXTAP	82	144	3
NMSTR	82	240	1
NMSI_	82	240	1	96	48	5
NMTAP	82	240	2
NMTAP	82	336	1
NMSTR	82	336	7
NMSLR	82	336	7	96	96	3
NMTAP	83	48	4
NMSTR	83	96	4
NMSCL	83	96	4	96	48	1
NMSCR	83	96	4	96	48	7
NMTAP	83	192	4
BRTAP	83	288	2
BRTAP	83	288	6
NMHLD	84	0	0	768
NMSTR	84	96	5
NMSI_	84	96	5	96	96	2
NMTAP	84	144	5
CNSI_	84	288	2	0	96	7
CNSI_	85	0	7	0	96	4
CNSI_	85	96	4	0	96	0
CNSI_	85	192	0	0	96	3
NMHLD	86	0	4	768
NMSTR	86	96	1
NMSI_	86	96	1	96	96	6
NMTAP	86	144	1
CNSI_	86	288	6	0	96	3
CNSI_	87	0	3	0	96	0
CNSI_	87	96	0	0	96	4
CNSI_	87	192	4	0	96	7
NMHLD	88	0	0	768
NMSTR	88	96	5
NMSI_	88	96	5	96	96	0
NMTAP	88	144	5
CNSI_	88	288	0	0	96	4
CNSI_	89	0	4	0	96	7
CNSI_	89	96	7	0	96	3
CNSI_	89	192	3	0	96	7
NMTHO	90	0	0	192	E	0	M1
NMTAP	90	96	2
NMTAP	90	144	1
NMTAP	90	192	3
NMTAP	90	204	4
NMTAP	90	216	5
NMTAP	90	228	6
NMTAP	90	240	7
NMTAP	90	252	0
NMTAP	90	264	1
NMTAP	90	276	2
NMSTR	90	288	3
NMSI_	90	288	3	96	48	7
NMSTR	91	0	3
NMSI_	91	0	3	96	48	1
NMSI_	91	0	3	96	48	5
NMSTR	91	96	3
NMSF_	91	96	3	96	48	7
NMTAP	91	192	3
BXTAP	91	288	1
BXTAP	91	288	5
NMSTR	92	0	0
NMSI_	92	0	0	96	48	5
NMTAP	92	0	4
NMSTR	92	96	0
NMSCR	92	96	0	96	48	3
NMSTR	92	144	3
NMSI_	92	144	3	96	48	7
NMTAP	92	192	0
NMTAP	92	240	6
NMSTR	92	288	5
NMSI_	92	288	5	96	48	1
NMSTR	93	0	2
NMSI_	93	0	2	96	48	7
NMTAP	93	0	5
NMTAP	93	48	3
NMSTR	93	96	6
NMSI_	93	96	6	96	48	3
NMTAP	93	120	5
NMTAP	93	144	4
NMSTR	93	192	0
NMSI_	93	192	0	96	48	4
NMTAP	93	216	1
NMTAP	93	240	2
CNSLR	93	240	3	0	48	0
NMTAP	93	288	1
NMTAP	93	312	2
NMTAP	93	336	3
NMTAP	94	0	2
NMSTR	94	0	6
NMSCR	94	0	6	96	48	1
NMSTR	94	96	6
NMSI_	94	96	6	96	48	3
NMSTR	94	144	3
NMSI_	94	144	3	96	48	7
NMTAP	94	192	6
NMTAP	94	240	0
NMSTR	94	288	2
NMSI_	94	288	2	96	48	6
NMTAP	95	0	2
NMSTR	95	0	5
NMSI_	95	0	5	96	48	0
NMTAP	95	48	4
NMSTR	95	96	1
NMSI_	95	96	1	96	48	4
NMTAP	95	120	2
NMTAP	95	144	3
NMSTR	95	192	7
NMSI_	95	192	7	96	48	3
NMTAP	95	216	6
CNSLL	95	240	4	0	48	7
NMTAP	95	240	5
NMTAP	95	288	6
NMTAP	95	312	5
NMTAP	95	336	4
NMSTR	96	0	1
NMSCL	96	0	1	96	48	6
NMTAP	96	0	5
NMSTR	96	96	1
NMSV_	96	96	1	96	48	4
NMSTR	96	144	4
NMSLL	96	144	4	96	72	0
NMTAP	96	192	1
NMTAP	96	240	6
NMSTR	96	288	5
NMSI_	96	288	5	96	48	0
NMSTR	97	0	1
NMSI_	97	0	1	96	48	4
NMTAP	97	24	2
NMTAP	97	48	3
NMSTR	97	96	7
NMSI_	97	96	7	96	48	3
NMTAP	97	120	6
NMTAP	97	144	5
NMSTR	97	192	0
NMSI_	97	192	0	96	48	4
NMTAP	97	216	1
NMTAP	97	240	2
NMTAP	97	288	0
NMTAP	97	288	4
NMTAP	98	0	2
NMTAP	98	0	6
NMSTR	98	96	1
NMSI_	98	96	1	96	48	6
NMSTR	98	96	5
NMSI_	98	96	5	96	48	2
NMTAP	98	144	2
NMTAP	98	144	6
NMTAP	98	192	1
NMTAP	98	192	5
NMTAP	98	288	0
NMTAP	98	288	4
NMTTP	99	0	1	E	1	M1
NMTTP	99	0	5	E	0	M1
NMTTP	99	16	1	B	0	M1
NMTTP	99	17	5	B	0	M1
NMTTP	99	32	2	B	0	M1
NMTTP	99	33	6	B	0	M1
NMTTP	99	48	3	E	0	M1
NMTTP	99	49	7	E	0	M1
NMTHO	99	64	3	64	A	0	M1
NMTHO	99	64	7	64	A	0	M1
NMTTP	99	144	2	A	0	M1
NMTTP	99	144	6	A	1	M1
NMTTP	99	160	6	D	0	M1
NMTTP	99	161	2	D	0	M1
NMTTP	99	176	5	A	0	M1
NMTTP	99	177	1	A	0	M1
NMTHO	99	192	1	80	D	0	M1
NMTHO	99	192	5	80	D	0	M1
NMTTP	99	288	2	E	1	M1
NMTTP	99	288	6	E	0	M1
NMTTP	99	304	7	E	0	M1
NMTTP	99	305	3	E	0	M1
NMTTP	99	320	0	E	0	M1
NMTTP	99	321	4	E	0	M1
NMTHO	99	336	1	336	E	0	M1
NMTHO	99	336	5	336	E	0	M1
NMSTR	100	336	0
NMSI_	100	336	0	96	48	4
NMSTR	101	48	0
NMSCR	101	48	0	96	48	3
NMTAP	101	48	6
NMSTR	101	96	7
NMSI_	101	96	7	96	48	3
NMSTR	101	144	0
NMSI_	101	144	0	96	48	5
NMSTR	101	192	7
NMSI_	101	192	7	96	48	2
NMSTR	101	240	0
NMSI_	101	240	0	96	48	4
NMSTR	101	288	7
NMSCL	101	288	7	96	48	4
NMTAP	101	336	0
NMTAP	102	0	7
NMTAP	102	96	3
NMTAP	102	144	2
NMTAP	102	192	1
NMTAP	102	192	3
NMTAP	102	240	0
NMTAP	102	240	2
NMTAP	102	288	7
NMTAP	102	336	4
NMTAP	102	336	6
NMTAP	103	0	3
NMTAP	103	0	5
NMTAP	103	48	4
NMTAP	103	96	6
NMTAP	103	120	7
NMTAP	103	144	0
NMTAP	103	168	1
NMTAP	103	192	5
NMTAP	103	216	6
NMTAP	103	240	7
NMTAP	103	264	0
NMTAP	103	288	4
NMTAP	103	336	4
NMTAP	104	0	2
NMTAP	104	24	3
NMTAP	104	48	1
NMTAP	104	72	4
NMTAP	104	96	0
NMTAP	104	120	5
NMTAP	104	144	7
NMTAP	104	168	6
NMTAP	104	192	7
NMTAP	104	216	0
NMTAP	104	240	1
NMTAP	104	264	2
NMTAP	104	288	4
NMTAP	104	312	5
NMTAP	104	336	6
NMTAP	104	360	7
NMTAP	105	0	0
NMTAP	105	0	3
NMTAP	105	48	2
NMTAP	105	64	1
NMTAP	105	80	2
NMTAP	105	96	1
NMTAP	105	144	6
NMTAP	105	160	5
NMTAP	105	176	6
NMSTR	105	192	5
NMSCL	105	192	5	96	96	0
NMTAP	105	240	7
NMTAP	105	288	0
NMTAP	105	312	7
NMTAP	105	336	6
NMTAP	105	360	5
NMTAP	106	0	4
NMSTR	106	48	1
NMSI_	106	48	1	96	48	4
NMTAP	106	72	2
NMTAP	106	96	3
NMTAP	106	144	1
NMSTR	106	192	7
NMSI_	106	192	7	96	48	3
NMTAP	106	216	6
NMTAP	106	240	5
NMTAP	106	288	1
NMTAP	106	288	7
NMTAP	106	336	0
NMTAP	107	0	0
NMTAP	107	12	1
NMTAP	107	24	2
NMTAP	107	36	3
NMTAP	107	48	7
NMTAP	107	60	6
NMTAP	107	72	5
NMTAP	107	84	4
NMTAP	107	96	1
NMTAP	107	108	2
NMTAP	107	120	3
NMTAP	107	132	4
NMTAP	107	144	6
NMTAP	107	156	5
NMTAP	107	168	4
NMTAP	107	180	3
NMSTR	107	192	0
NMSV_	107	192	0	96	48	3
NMSV_	107	192	0	96	48	5
NMTAP	107	204	1
NMTAP	107	216	2
NMTAP	107	228	3
NMTAP	107	240	4
NMTAP	107	252	5
NMTAP	107	264	6
NMTAP	107	276	7
BRTAP	107	288	0
NMSTR	108	0	6
NMSCL	108	0	6	96	48	4
NMTAP	108	32	7
NMTAP	108	64	0
NMSTR	108	96	1
NMSCL	108	96	1	96	48	7
NMTAP	108	128	2
NMTAP	108	160	3
NMSTR	108	192	4
NMSCL	108	192	4	96	48	2
NMTAP	108	224	5
NMTAP	108	256	6
NMTAP	108	288	7
NMTAP	108	320	0
NMTAP	108	352	1
NMTAP	109	0	2
NMTAP	109	0	5
NMTAP	109	48	4
NMTAP	109	64	3
NMTAP	109	80	5
NMTAP	109	96	4
NMTAP	109	144	0
NMTAP	109	160	7
NMTAP	109	176	1
NMSTR	109	192	0
BRSCL	109	192	0	96	96	2
NMTAP	109	240	2
NMTAP	109	240	7
NMTTP	109	288	0	C	1	M1
NMTHO	109	288	1	24	B	1	M1
NMTHO	109	288	1	48	E	1	M1
NMTHO	109	288	2	72	E	1	M1

T_REC_TAP	487
T_REC_BRK	14
T_REC_XTP	10
T_REC_BXX	2
T_REC_HLD	28
T_REC_XHO	1
T_REC_BHO	0
T_REC_BXH	0
T_REC_STR	152
T_REC_BST	3
T_REC_XST	2
T_REC_XBS	0
T_REC_TTP	150
T_REC_THO	36
T_REC_SLD	165
T_REC_BSL	2
T_REC_ALL	1052
T_NUM_TAP	801
T_NUM_BRK	21
T_NUM_HLD	65
T_NUM_SLD	165
T_NUM_ALL	1052
T_JUDGE_TAP	820
T_JUDGE_HLD	378
T_JUDGE_SLD	167
T_JUDGE_ALL	1365
TTM_EACHPAIRS	79
TTM_SCR_TAP	400500
TTM_SCR_BRK	54600
TTM_SCR_HLD	65000
TTM_SCR_SLD	247500
TTM_SCR_ALL	767600
TTM_SCR_S	742550
TTM_SCR_SS	765500
TTM_RAT_ACV	10027

