VERSION	0.00.00	1.05.00
FES_MODE	0
BPM_DEF	171.000	171.000	171.000	171.000
MET_DEF	4	4
RESOLUTION	384
CLK_DEF	384
COMPATIBLE_CODE	MA2

BPM	0	0	171.000
MET	0	0	4	4

EXSTR	1	288	3
NMSCL	1	288	3	96	288	0
NMSTR	2	288	4
NMSCR	2	288	4	96	288	7
NMSTR	3	288	3
NMSI_	3	288	3	96	288	7
NMSTR	4	288	4
NMSI_	4	288	4	96	288	0
NMSTR	5	288	3
NMSCL	5	288	3	96	288	0
NMSTR	6	288	4
NMSCR	6	288	4	96	288	7
NMTTP	7	288	4	E	0	M1
NMTHO	8	0	0	288	C	0	M1
BXTAP	9	0	0
NMSTR	9	96	0
NMSF_	9	96	0	96	96	4
EXTAP	10	0	3
EXTAP	10	0	5
NMTAP	10	96	5
NMTAP	10	144	4
NMTAP	10	192	3
NMTAP	10	192	5
NMTAP	10	288	3
NMTAP	10	288	5
NMTAP	11	0	4
NMTAP	11	0	5
NMTAP	11	96	5
NMTAP	11	144	4
NMTAP	11	192	3
NMTAP	11	192	5
NMTAP	11	288	2
NMTAP	11	288	4
NMTAP	12	0	2
NMTAP	12	0	3
NMTAP	12	96	2
NMTAP	12	144	3
NMTAP	12	192	2
NMTAP	12	192	4
NMTAP	12	288	2
NMTAP	13	0	2
NMTAP	13	0	3
NMTAP	13	96	0
NMTAP	13	144	0
NMTAP	13	192	1
NMTAP	13	192	7
NMTAP	13	288	2
NMTAP	13	288	6
NMTAP	14	0	3
NMTAP	14	0	6
NMTAP	14	96	6
NMTAP	14	144	5
NMTAP	14	192	4
NMTAP	14	192	6
NMTAP	14	288	4
NMTAP	14	288	6
NMTAP	15	0	5
NMTAP	15	0	6
NMTAP	15	96	7
NMTAP	15	144	7
NMTAP	15	192	0
NMTAP	15	192	6
NMSTR	15	288	1
NMSUR	15	288	1	96	288	4
NMTAP	15	288	7
NMHLD	16	0	0	288
NMTAP	17	48	2
NMTAP	17	48	3
NMTAP	17	96	2
NMTAP	17	96	3
NMTAP	17	192	1
NMTAP	17	240	0
NMTAP	17	288	7
NMTAP	17	336	6
NMTAP	18	0	1
NMTAP	18	0	5
NMSTR	18	96	1
NMSCL	18	96	1	96	384	6
NMSTR	18	96	5
NMSUR	18	96	5	96	384	2
NMTAP	20	0	2
NMTAP	20	48	3
NMTAP	20	96	4
NMHLD	20	144	5	96
NMTAP	20	240	4
NMTAP	20	288	3
NMTAP	20	336	2
NMTAP	21	0	4
NMHLD	21	48	5	96
NMTAP	21	144	4
NMSTR	21	192	5
NMSCL	21	192	5	96	96	2
BRTAP	22	0	0
NMTAP	22	192	1
NMHLD	22	192	3	1536
NMHLD	23	0	2	192
NMTTP	24	0	2	B	0	M1
NMTTP	24	0	3	E	0	M1
NMTTP	24	192	4	B	0	M1
NMTTP	24	192	4	E	0	M1
NMTTP	25	0	2	E	0	M1
NMTTP	25	96	3	E	0	M1
NMTTP	25	192	0	C	0	M1
NMHLD	26	0	0	1152
NMTHO	27	0	0	384	C	0	M1
NMTTP	28	192	0	E	0	M1
NMSTR	29	0	7
NMSI_	29	0	7	96	96	2
NMSTR	29	192	1
NMSI_	29	192	1	96	96	4
NMTAP	30	0	0
NMTAP	30	96	7
NMTAP	30	192	3
NMTAP	30	192	6
NMTAP	31	0	4
NMHLD	31	72	4	72
NMTAP	31	192	3
NMHLD	31	264	3	72
NMTAP	32	0	5
NMHLD	32	72	5	72
NMTAP	32	192	4
NMTAP	32	192	6
NMHLD	32	264	4	72
NMHLD	32	264	6	72
NMTAP	33	0	3
NMHLD	33	72	3	72
NMTAP	33	192	4
NMHLD	33	264	4	72
NMTAP	34	0	2
NMHLD	34	72	2	72
NMTAP	34	192	2
NMTAP	34	192	3
NMTAP	34	240	4
NMTAP	34	288	3
NMTAP	34	336	2
NMTAP	35	0	1
NMHLD	35	72	1	72
NMTAP	35	192	0
NMTAP	35	192	2
NMHLD	35	264	0	72
NMHLD	35	264	2	72
NMTAP	36	0	7
NMHLD	36	72	7	72
NMTAP	36	192	0
NMTAP	36	192	6
NMHLD	36	264	0	72
NMHLD	36	264	6	72
NMTAP	37	0	5
NMHLD	37	72	5	72
NMTAP	37	192	4
NMTAP	37	192	6
NMHLD	37	264	4	72
NMHLD	37	264	6	72
NMSTR	38	0	3
NMSUR	38	0	3	96	192	4
BRTAP	38	288	7
NMSTR	39	0	6
NMSCL	39	0	6	96	96	3
NMSTR	39	96	7
NMSCR	39	96	7	96	96	2
NMTAP	39	288	3
NMSTR	40	0	4
NMSCR	40	0	4	96	96	7
NMSTR	40	96	3
NMSCL	40	96	3	96	96	0
NMHLD	40	288	7	96
NMHLD	41	0	1	96
NMHLD	41	96	3	96
NMTAP	41	192	4
NMTAP	41	288	4
NMTAP	41	288	5
NMTAP	42	0	5
NMTAP	42	48	5
NMTAP	42	96	4
NMTAP	42	96	6
NMTAP	42	192	2
NMTAP	42	240	2
NMTAP	42	288	1
NMSTR	42	288	3
NMSI_	42	288	3	96	96	7
NMSTR	43	0	0
NMSCR	43	0	0	96	96	3
NMSTR	43	192	0
NMSI_	43	192	0	96	96	5
NMSTR	43	288	3
NMSCL	43	288	3	96	96	0
NMTAP	44	96	4
NMTAP	44	192	1
NMSTR	44	192	3
NMSI_	44	192	3	96	96	6
NMHLD	45	0	0	96
NMHLD	45	96	6	96
NMSTR	45	192	4
NMSCL	45	192	4	96	48	3
NMSCR	45	192	4	96	48	5
CNSI_	45	336	3	0	144	1
CNSI_	45	336	5	0	144	7
NMTAP	46	192	0
NMTAP	46	216	7
NMTAP	46	240	0
NMTAP	46	264	7
BRTAP	46	288	0
NMTAP	47	0	4
NMTAP	47	0	6
NMTAP	47	48	4
NMTAP	47	48	6
NMTAP	47	96	4
NMSTR	47	96	6
NMSI_	47	96	6	96	48	1
CNSI_	47	240	1	0	96	7
NMTAP	47	336	3
NMTAP	48	48	2
NMTAP	48	48	4
NMSTR	48	96	2
NMSCL	48	96	2	96	96	7
NMTAP	48	96	4
NMSTR	48	192	3
NMSCR	48	192	3	96	96	6
EXTAP	49	0	7
NMTAP	49	96	0
NMTAP	49	96	6
NMSTR	49	144	0
NMSI_	49	144	0	96	48	3
NMTAP	49	144	6
NMSTR	49	240	4
BRSI_	49	240	4	96	48	1
BRSI_	49	240	4	96	48	7
EXTAP	50	48	2
EXTAP	50	48	6
EXTAP	50	96	2
EXTAP	50	96	6
NMTAP	50	192	1
NMTAP	50	216	7
NMTAP	50	240	1
NMTAP	50	264	7
NMTAP	50	288	1
NMTAP	50	312	7
NMTAP	50	336	1
NMHLD	51	0	0	144
NMTAP	51	0	6
EXTAP	51	144	7
NMTAP	51	240	0
NMTAP	51	240	1
NMSTR	51	288	0
BRSI_	51	288	0	96	48	5
NMTAP	51	288	1
BRSTR	52	0	2
NMSI_	52	0	2	96	48	7
NMTAP	52	96	4
NMTAP	52	144	4
NMTAP	52	240	0
NMTAP	52	240	6
NMTAP	52	288	0
NMTAP	52	288	6
NMTAP	53	0	0
NMTAP	53	0	1
NMSTR	53	48	0
BRSV_	53	48	0	96	48	3
NMSTR	53	48	1
BRSI_	53	48	1	96	48	3
NMTAP	53	240	1
NMTAP	53	240	5
NMTAP	53	288	1
NMTAP	53	288	5
BRTAP	54	0	7
NMTAP	54	48	0
NMTAP	54	96	1
NMSTR	54	144	2
NMSCL	54	144	2	96	48	7
NMTAP	54	240	4
NMTAP	54	288	4
NMTAP	55	0	4
NMTAP	55	0	5
NMTAP	55	48	4
NMTAP	55	48	5
NMTAP	55	144	4
NMTAP	55	144	6
NMTAP	55	192	4
NMTAP	55	192	6
EXTAP	55	288	7
NMHLD	56	0	3	96
BRTAP	56	0	6
BXSTR	56	96	1
NMSCL	56	96	1	96	48	6
NMTAP	56	288	2
BRTAP	57	0	1
NMHLD	57	0	4	96
BXSTR	57	96	6
NMSCR	57	96	6	96	48	1
BRSTR	57	288	3
NMSI_	57	288	3	96	48	6
BRTAP	58	0	2
NMTAP	58	96	1
BRTAP	58	96	7
BRTAP	58	144	1
NMSTR	58	144	7
NMSI_	58	144	7	96	48	2
BRSTR	58	240	3
BRSCL	58	240	3	96	144	6
NMTAP	59	192	5
NMSTR	59	288	4
BRSI_	59	288	4	96	48	1
NMTAP	59	288	5
BRSTR	60	0	6
NMSI_	60	0	6	96	48	3
NMTAP	60	96	0
NMTAP	60	144	0
NMTAP	60	240	2
NMTAP	60	264	3
NMTAP	60	288	2
NMTAP	61	0	4
NMTAP	61	0	5
NMSTR	61	48	4
BRSV_	61	48	4	96	48	7
NMSTR	61	48	5
BRSI_	61	48	5	96	48	7
NMTAP	61	240	1
NMTAP	61	240	5
NMTAP	61	288	1
NMTAP	61	288	5
BRTAP	62	0	3
NMTAP	62	48	4
NMTAP	62	96	5
NMSTR	62	144	6
NMSCL	62	144	6	96	48	3
NMTAP	62	240	0
NMTAP	62	288	0
NMTAP	63	0	2
NMTAP	63	0	3
NMTAP	63	48	2
NMTAP	63	48	3
NMTAP	63	144	4
NMTAP	63	144	5
NMTAP	63	240	5
NMTAP	63	264	4
NMTAP	63	288	6
BRTAP	64	0	3
NMHLD	64	0	7	96
BXSTR	64	96	5
NMSCL	64	96	5	96	48	2
BRTAP	64	288	6
NMHLD	65	0	0	96
BRTAP	65	0	5
BXSTR	65	96	2
NMSCR	65	96	2	96	48	5
BRTAP	65	288	7
NMTAP	66	0	0
NMTAP	66	0	6
NMTAP	66	48	1
NMTAP	66	96	2
BRTAP	66	144	3
BRTAP	66	192	4
NMTAP	66	240	5
NMTAP	66	288	4
BRTAP	66	288	6
BRTAP	66	336	4
NMSTR	66	336	6
NMSI_	66	336	6	96	48	3
EXSTR	67	48	2
NMSI_	67	48	2	96	48	7
EXTAP	67	144	4
EXTAP	67	240	0
EXTAP	67	240	6
EXTAP	67	288	0
EXTAP	67	288	6
BRTAP	68	0	1
BRTAP	68	0	5
NMTAP	68	48	6
NMTAP	68	96	2
NMSTR	68	96	7
NMSCL	68	96	7	96	96	4
NMTAP	68	192	3
NMTAP	68	288	2
NMTAP	69	0	2
NMTAP	69	24	3
NMTAP	69	48	2
NMTAP	69	96	5
NMTAP	69	120	4
EXTAP	69	144	5
NMTAP	69	192	2
NMTAP	69	216	3
NMTAP	69	240	2
NMTAP	69	288	1
NMTAP	69	288	5
BRTAP	70	0	2
BRTAP	70	0	6
NMTAP	70	48	1
NMSTR	70	96	0
NMSCR	70	96	0	96	96	3
NMTAP	70	96	5
NMTAP	70	192	4
NMTAP	70	288	5
NMTAP	71	0	5
NMTAP	71	24	4
NMTAP	71	48	5
NMTAP	71	96	2
NMTAP	71	120	3
EXTAP	71	144	2
NMTAP	71	192	5
NMTAP	71	216	4
NMTAP	71	240	5
NMTAP	71	288	2
NMTAP	71	288	6
BRSTR	72	0	7
NMSI_	72	0	7	96	48	2
BRSTR	72	96	3
NMSI_	72	96	3	96	48	6
BRSTR	72	192	4
NMSI_	72	192	4	96	48	1
BRSTR	72	288	2
BRSXR	72	288	2	96	192	7
EXTAP	73	0	7
EXSTR	73	96	6
BRSCL	73	96	6	96	96	3
BRTAP	73	288	0
NMTAP	74	0	4
NMTAP	74	0	5
NMTAP	74	96	6
NMTAP	74	96	7
NMTAP	74	144	6
NMSTR	74	144	7
NMSI_	74	144	7	96	48	3
NMSTR	74	240	4
NMSCR	74	240	4	96	144	2
BRTAP	75	192	3
BRTAP	75	192	4
BRTAP	75	288	0
BRTAP	75	288	7
NMTAP	76	0	0
BRTAP	76	0	5
NMTAP	76	48	1
NMSTR	76	96	2
NMSCL	76	96	2	96	96	7
NMTAP	76	192	4
NMTAP	76	288	5
NMTAP	77	0	6
NMTAP	77	24	7
NMTAP	77	48	6
NMTAP	77	72	7
NMTAP	77	96	6
NMTAP	77	120	7
EXTAP	77	144	6
NMTAP	77	192	1
NMTAP	77	216	0
NMTAP	77	240	1
NMTAP	77	264	0
EXTAP	77	288	1
NMTAP	77	312	0
NMTAP	77	336	1
NMTAP	78	0	2
BRTAP	78	0	7
NMTAP	78	48	6
NMSTR	78	96	5
NMSCR	78	96	5	96	96	0
NMTAP	78	192	3
NMTAP	78	288	2
NMTAP	79	0	1
NMTAP	79	24	0
NMTAP	79	48	1
NMTAP	79	72	0
NMTAP	79	96	1
NMTAP	79	120	0
EXTAP	79	144	1
NMTAP	79	192	6
NMTAP	79	216	7
NMTAP	79	240	6
NMTAP	79	264	7
EXTAP	79	288	6
NMTAP	79	312	7
NMTAP	79	336	6
BRSTR	80	0	5
NMSI_	80	0	5	96	48	2
BRSTR	80	96	6
NMSI_	80	96	6	96	48	1
BRSTR	80	192	3
NMSI_	80	192	3	96	48	7
BRTAP	80	288	2
BRTAP	80	336	2
NMTAP	81	48	0
NMTAP	81	72	7
NMTAP	81	96	0
NMTAP	81	120	7
NMTAP	81	144	0
NMTAP	81	168	7
NMTAP	81	192	0
NMTAP	81	216	1
NMTAP	81	240	2
NMTAP	81	264	3
BXTAP	81	288	4
BXTAP	81	336	6
BXSTR	82	0	6
NMSI_	82	0	6	96	48	3
NMTAP	82	96	2
NMSTR	82	144	2
BRSI_	82	144	2	96	48	7
NMSTR	82	240	4
BRSCR	82	240	4	96	240	3
NMTTP	82	336	0	C	1	M1
NMHLD	84	0	2	336
NMTAP	84	0	4
NMTAP	84	96	3
NMTAP	84	192	1
NMTAP	84	240	1
NMHLD	84	336	0	96
NMTAP	85	48	1
NMTAP	85	96	1
NMTAP	85	192	2
NMTAP	85	192	7
NMTAP	85	288	1
NMTAP	85	288	6
NMTAP	86	0	0
BXHLD	86	0	5	336
NMTAP	86	96	7
NMTAP	86	192	6
NMTAP	86	240	6
NMHLD	86	336	4	96
NMTAP	87	48	5
NMTAP	87	96	5
NMTAP	87	192	3
NMTAP	87	192	6
NMTAP	87	288	4
NMTAP	87	288	5
NMTAP	88	0	4
NMHLD	88	0	6	336
NMTAP	88	96	5
NMTAP	88	192	7
NMTAP	88	240	7
NMHLD	88	336	0	96
NMTAP	89	48	1
NMTAP	89	96	1
NMTAP	89	192	1
NMTAP	89	192	7
NMHLD	89	288	2	96
NMTAP	89	288	6
NMHLD	90	0	4	96
NMTAP	90	96	6
NMTAP	90	144	6
NMTAP	90	192	0
NMTAP	90	240	0
NMTAP	90	288	2
NMTAP	90	336	2
NMTAP	91	0	1
NMTAP	91	0	3
BRTAP	91	96	4
BRTAP	91	96	5
BRTAP	91	192	0
BRTAP	91	192	7
BRTAP	91	288	0
NMSTR	91	288	7
NMSI_	91	288	7	96	48	5
NMSTR	92	0	1
NMSI_	92	0	1	96	48	3
NMSTR	92	96	4
NMSI_	92	96	4	96	48	0
NMTAP	92	192	0
NMSTR	92	288	1
NMSI_	92	288	1	96	48	4
NMSTR	93	0	5
NMSI_	93	0	5	96	48	0
NMSTR	93	96	2
NMSI_	93	96	2	96	48	7
NMTAP	93	192	3
NMSTR	93	288	4
NMSI_	93	288	4	96	48	6
NMSTR	94	0	0
NMSI_	94	0	0	96	48	2
NMSTR	94	96	7
NMSI_	94	96	7	96	48	3
NMTAP	94	192	1
NMSTR	94	288	0
NMSI_	94	288	0	96	48	3
NMSTR	95	0	4
NMSI_	95	0	4	96	48	7
NMSTR	95	96	1
NMSI_	95	96	1	96	48	6
NMSTR	95	192	5
NMSI_	95	192	5	96	48	2
NMTAP	95	288	0
BRHLD	96	0	0	192
NMTTP	96	96	3	E	0	M1
NMTTP	96	120	2	E	0	M1
NMTTP	96	144	1	E	0	M1
NMTTP	96	168	0	E	0	M1
NMTTP	96	192	7	E	0	M1
NMTTP	96	216	6	E	0	M1
NMTTP	96	240	5	E	0	M1
NMTTP	96	264	4	E	0	M1
NMTTP	96	288	3	E	0	M1
NMHLD	97	0	7	192
NMTTP	97	96	4	E	0	M1
NMTTP	97	120	5	E	0	M1
NMTTP	97	144	6	E	0	M1
NMTTP	97	168	7	E	0	M1
NMTTP	97	192	0	E	0	M1
NMTTP	97	216	1	E	0	M1
NMTTP	97	240	2	E	0	M1
NMTTP	97	264	3	E	0	M1
NMTTP	97	288	4	E	0	M1
NMTAP	98	0	0
NMTAP	98	0	6
NMTAP	98	96	1
NMTAP	98	144	1
NMTAP	98	192	3
NMTAP	98	240	4
NMTAP	98	288	6
NMTAP	98	336	6
EXTAP	99	0	0
NMTAP	99	24	7
NMTAP	99	48	0
NMTAP	99	72	7
NMTAP	99	96	0
NMTAP	99	120	7
EXTAP	99	144	0
NMTAP	99	168	7
NMTAP	99	192	0
NMTAP	99	216	1
NMTAP	99	240	2
NMTAP	99	264	3
EXTAP	99	288	4
NMTAP	99	312	5
NMTAP	99	336	6
NMTAP	99	360	7
NMTHO	100	0	0	336	C	0	M1
NMTAP	101	192	0
NMTAP	101	192	6
NMTAP	101	240	0
NMTAP	101	240	6
NMSTR	101	288	1
NMSCL	101	288	1	96	192	6
NMSTR	101	288	5
BRSUR	101	288	5	96	192	2
CNSI_	102	192	2	0	96	4
CNSI_	102	288	4	0	96	6
CNSI_	103	0	6	0	192	0
NMTAP	104	0	2
NMTAP	104	48	2
NMTAP	104	96	3
NMTAP	104	144	1
NMTAP	104	192	0
NMTAP	104	192	2
NMTAP	104	240	3
NMTAP	104	240	7
NMHLD	104	288	4	96
NMTAP	104	288	6
NMTAP	105	0	5
NMTAP	105	48	5
NMTAP	105	96	4
NMTAP	105	144	6
NMTAP	105	192	5
NMTAP	105	192	7
NMTAP	105	240	0
NMTAP	105	240	4
NMSTR	105	288	1
NMSI_	105	288	1	96	96	4
NMTAP	105	288	3
CNSI_	106	96	4	0	96	7
NMSTR	106	96	6
NMSI_	106	96	6	96	96	3
NMSTR	106	288	1
NMSI_	106	288	1	96	96	4
CNSI_	106	288	3	0	96	0
CNSI_	107	96	4	0	96	7
NMSTR	107	96	6
BRSCL	107	96	6	96	96	2
NMTAP	108	0	0
NMTAP	108	32	0
NMTAP	108	64	0
NMHLD	108	96	0	96
NMTAP	108	192	3
NMTAP	108	224	3
NMTAP	108	256	3
NMHLD	108	288	3	96
NMSTR	109	0	4
NMSI_	109	0	4	96	48	0
NMTAP	109	96	5
NMHLD	109	144	6	96
NMTAP	109	240	7
EXTAP	109	288	6
EXTAP	109	288	7
EXTAP	109	312	0
EXTAP	109	312	5
EXTAP	109	336	1
EXTAP	109	336	4
BXTAP	109	360	2
BXTAP	109	360	3

T_REC_TAP	355
T_REC_BRK	36
T_REC_XTP	30
T_REC_BXX	5
T_REC_HLD	45
T_REC_XHO	0
T_REC_BHO	1
T_REC_BXH	1
T_REC_STR	66
T_REC_BST	11
T_REC_XST	3
T_REC_XBS	5
T_REC_TTP	28
T_REC_THO	3
T_REC_SLD	72
T_REC_BSL	15
T_REC_ALL	676
T_NUM_TAP	482
T_NUM_BRK	74
T_NUM_HLD	48
T_NUM_SLD	72
T_NUM_ALL	676
T_JUDGE_TAP	539
T_JUDGE_HLD	193
T_JUDGE_SLD	87
T_JUDGE_ALL	819
TTM_EACHPAIRS	117
TTM_SCR_TAP	241000
TTM_SCR_BRK	192400
TTM_SCR_HLD	48000
TTM_SCR_SLD	108000
TTM_SCR_ALL	589400
TTM_SCR_S	564550
TTM_SCR_SS	582000
TTM_RAT_ACV	10127

