VERSION	0.00.00	1.05.00
FES_MODE	0
BPM_DEF	171.000	171.000	171.000	171.000
MET_DEF	4	4
RESOLUTION	384
CLK_DEF	384
COMPATIBLE_CODE	MA2

BPM	0	0	171.000
MET	0	0	4	4

NMSTR	2	0	1
NMSUR	2	0	1	96	480	4
NMSTR	4	0	6
NMSUL	4	0	6	96	480	3
NMSTR	6	0	1
NMSXR	6	0	1	96	480	4
NMSTR	8	0	6
NMSI_	8	0	6	96	192	3
NMTAP	9	0	2
NMTAP	9	96	2
NMTAP	9	192	1
NMTAP	9	192	3
NMTAP	10	0	2
NMTAP	10	96	2
NMTAP	10	192	2
NMTAP	11	0	1
NMTAP	11	96	1
NMTAP	11	192	1
NMTAP	12	0	0
NMTAP	12	96	0
NMTAP	12	192	0
NMTAP	13	0	6
NMTAP	13	0	7
NMTAP	13	192	6
NMTAP	13	192	7
NMTAP	14	0	5
NMTAP	14	96	5
NMTAP	14	192	5
NMTAP	15	0	6
NMTAP	15	96	6
NMTAP	15	192	6
NMTAP	16	0	7
NMTAP	16	96	7
NMTAP	16	192	7
NMTAP	17	0	0
NMTAP	17	0	1
NMTAP	17	192	0
NMTAP	17	192	1
NMSTR	18	0	0
NMSI_	18	0	0	96	288	5
NMSTR	18	0	1
NMSI_	18	0	1	96	288	4
NMSTR	20	0	6
NMSI_	20	0	6	96	288	3
NMSTR	20	0	7
NMSI_	20	0	7	96	288	2
NMHLD	22	0	2	384
NMHLD	23	0	3	384
NMHLD	24	0	4	384
NMTAP	25	0	5
NMTAP	26	0	4
NMTAP	26	0	5
NMHLD	27	0	5	384
NMHLD	28	0	4	384
NMHLD	29	0	3	384
NMTAP	30	0	2
NMTAP	31	0	4
NMTAP	31	96	4
NMTAP	31	192	5
NMTAP	32	0	6
NMTAP	32	96	6
NMTAP	32	192	7
NMTAP	33	0	0
NMTAP	33	96	0
NMTAP	33	192	1
NMTAP	34	0	2
NMTAP	34	96	2
NMTAP	34	192	2
NMTAP	34	192	3
NMTAP	35	0	3
NMTAP	35	96	3
NMTAP	35	192	2
NMTAP	36	0	1
NMTAP	36	96	1
NMTAP	36	192	0
NMTAP	37	0	7
NMTAP	37	96	7
NMTAP	37	192	6
NMTAP	38	0	5
NMTAP	38	96	5
NMTAP	38	192	4
NMTAP	38	192	5
NMHLD	39	0	5	192
NMTAP	39	192	4
NMTAP	40	0	5
NMTAP	40	96	5
NMTAP	40	192	4
NMTAP	40	192	5
NMHLD	41	0	6	192
NMTAP	41	192	7
NMTAP	42	0	6
NMTAP	42	96	6
NMTAP	42	192	6
NMTAP	42	192	7
NMHLD	43	0	1	192
NMTAP	43	192	0
NMTAP	44	0	1
NMTAP	44	96	1
NMTAP	44	192	0
NMTAP	44	192	1
NMHLD	45	0	2	192
NMTAP	45	192	3
NMTAP	46	0	2
NMTAP	46	96	2
NMTAP	46	192	2
NMTAP	46	192	3
NMTTP	47	0	1	B	0	L1
NMTTP	47	96	2	B	0	L1
NMTTP	47	192	3	B	0	L1
NMTTP	48	0	6	B	0	L1
NMTTP	48	96	5	B	0	L1
NMTTP	48	192	4	B	0	L1
NMTTP	49	0	1	B	0	L1
NMTTP	49	96	2	B	0	L1
NMTTP	49	192	3	B	0	L1
NMTTP	49	288	4	B	0	L1
NMTTP	50	0	5	B	0	L1
NMTTP	50	96	6	B	0	L1
NMTTP	50	192	0	C	1	L1
NMTAP	52	0	6
NMTAP	52	96	6
NMTAP	52	192	7
NMTAP	52	288	7
NMTAP	53	0	0
NMTAP	53	96	0
NMTAP	53	192	0
NMTAP	53	192	1
NMTAP	54	0	1
NMTAP	54	96	1
NMTAP	54	192	0
NMTAP	54	288	0
NMTAP	55	0	7
NMTAP	55	96	7
NMTAP	55	192	6
NMTAP	55	192	7
NMTAP	56	0	6
NMTAP	56	96	6
NMTAP	56	192	5
NMTAP	56	288	5
NMTAP	57	0	4
NMTAP	57	96	4
NMTAP	57	192	2
NMTAP	57	192	3
NMTAP	58	0	1
NMTAP	58	96	1
NMTAP	58	192	2
NMTAP	58	288	2
NMTAP	59	0	3
NMTAP	59	96	3
NMTAP	59	192	4
NMTAP	59	192	5
NMTAP	60	0	5
NMTAP	60	96	5
NMTAP	60	192	6
NMTAP	60	192	7
NMTAP	60	288	6
NMTAP	60	288	7
NMTAP	61	0	0
NMTAP	61	96	0
NMTAP	61	192	0
NMTAP	61	192	1
NMTAP	62	0	2
NMTAP	62	96	2
NMTAP	62	192	0
NMTAP	62	192	1
NMTAP	62	288	0
NMTAP	62	288	1
NMTAP	63	0	7
NMTAP	63	96	7
NMTAP	63	192	6
NMTAP	63	192	7
NMTAP	64	0	6
NMTAP	64	96	6
NMTAP	64	192	4
NMTAP	64	192	5
NMTAP	64	288	4
NMTAP	64	288	5
NMTAP	65	0	3
NMTAP	65	96	3
NMTAP	65	192	2
NMTAP	65	192	3
NMTAP	66	0	1
NMTAP	66	96	1
NMTAP	66	192	2
NMTAP	66	192	3
NMTAP	66	288	2
NMTAP	66	288	3
NMTAP	67	0	4
NMTAP	67	96	4
NMTAP	67	192	4
NMTAP	67	192	5
BXTAP	68	0	6
NMTAP	68	96	6
NMTAP	68	192	6
NMTAP	68	288	6
NMTAP	68	288	7
NMTAP	69	0	5
NMTAP	69	96	5
NMTAP	69	192	5
NMTAP	69	288	4
NMTAP	69	288	5
NMTAP	70	0	3
NMTAP	70	96	3
NMTAP	70	192	3
NMTAP	70	288	2
NMTAP	70	288	3
NMTAP	71	0	0
NMTAP	71	0	1
NMTAP	71	96	0
NMTAP	71	96	1
NMTAP	71	192	2
NMTAP	71	192	7
NMTAP	72	0	1
NMTAP	72	96	1
NMTAP	72	192	1
NMTAP	72	288	0
NMTAP	72	288	1
NMTAP	73	0	2
NMTAP	73	96	2
NMTAP	73	192	2
NMTAP	73	288	2
NMTAP	73	288	3
NMTAP	74	0	4
NMTAP	74	96	4
NMTAP	74	192	4
NMTAP	74	288	4
NMTAP	74	288	5
NMTAP	75	0	6
NMTAP	75	0	7
NMTAP	75	96	6
NMTAP	75	96	7
NMTAP	75	192	0
NMTAP	75	192	5
BXTAP	76	0	6
NMTAP	76	96	6
NMTAP	76	192	6
NMTAP	76	192	7
NMTAP	76	288	6
NMTAP	76	288	7
NMTAP	77	0	5
NMTAP	77	96	5
NMTAP	77	192	4
NMTAP	77	192	5
NMTAP	77	288	4
NMTAP	77	288	5
NMTAP	78	0	3
NMTAP	78	96	3
NMTAP	78	192	2
NMTAP	78	192	3
NMTAP	78	288	2
NMTAP	78	288	3
NMTAP	79	0	0
NMTAP	79	0	1
NMTAP	79	96	0
NMTAP	79	96	1
NMTAP	79	192	2
NMTAP	79	192	7
NMTAP	80	0	1
NMTAP	80	96	1
NMTAP	80	192	0
NMTAP	80	192	1
NMTAP	80	288	0
NMTAP	80	288	1
NMTAP	81	0	2
NMTAP	81	96	2
NMTAP	81	192	2
NMTAP	81	192	3
NMTAP	81	288	2
NMTAP	81	288	3
NMTAP	82	0	4
NMTAP	82	96	4
NMTAP	82	192	4
NMTAP	82	192	5
NMTAP	82	288	4
NMTAP	82	288	5
NMTAP	83	0	6
NMTAP	83	0	7
NMTAP	83	96	6
NMTAP	83	96	7
BXTAP	83	192	0
BXTAP	83	192	5
NMSTR	84	0	6
NMSI_	84	0	6	96	288	3
NMSTR	84	0	7
NMSI_	84	0	7	96	288	2
NMTAP	85	192	0
NMTAP	85	192	1
NMSTR	86	0	0
NMSI_	86	0	0	96	288	5
NMSTR	86	0	1
NMSI_	86	0	1	96	288	4
NMTAP	87	192	4
NMTAP	87	192	5
NMSTR	88	0	4
NMSI_	88	0	4	96	288	1
NMSTR	88	0	5
NMSI_	88	0	5	96	288	0
NMTAP	89	192	2
NMTAP	89	192	3
NMSTR	90	0	2
NMSI_	90	0	2	96	288	7
NMSTR	90	0	3
NMSI_	90	0	3	96	288	6
NMTAP	92	0	0
NMTAP	92	48	0
NMTAP	92	96	0
NMTAP	92	192	0
NMTAP	92	192	1
NMTAP	92	288	0
NMTAP	92	288	1
NMTAP	93	0	2
NMTAP	93	48	2
NMTAP	93	96	2
NMTAP	93	192	2
NMTAP	93	192	3
NMTAP	93	288	2
NMTAP	93	288	3
NMTAP	94	0	4
NMTAP	94	48	4
NMTAP	94	96	4
NMTAP	94	192	4
NMTAP	94	192	5
NMTAP	94	288	4
NMTAP	94	288	5
NMTAP	95	0	6
NMTAP	95	48	6
NMTAP	95	96	6
NMTAP	95	192	0
NMTAP	95	192	7
NMTAP	96	0	7
NMTAP	96	48	7
NMTAP	96	96	7
NMTAP	96	192	6
NMTAP	96	192	7
NMTAP	96	288	6
NMTAP	96	288	7
NMTAP	97	0	5
NMTAP	97	48	5
NMTAP	97	96	5
NMTAP	97	192	4
NMTAP	97	192	5
NMTAP	97	288	4
NMTAP	97	288	5
NMTAP	98	0	3
NMTAP	98	48	3
NMTAP	98	96	3
NMTAP	98	192	2
NMTAP	98	192	3
NMTAP	98	288	2
NMTAP	98	288	3
NMTAP	99	0	1
NMTAP	99	48	1
NMTAP	99	96	1
NMTAP	99	192	0
NMTAP	99	192	7
NMTHO	100	0	0	384	C	1	L1
NMTAP	102	0	7
NMTAP	102	48	7
NMTAP	102	96	7
NMTAP	102	192	6
NMTAP	102	192	7
NMTAP	102	288	6
NMTAP	102	288	7
NMTAP	103	0	0
NMTAP	103	0	5
NMTAP	103	96	1
NMTAP	103	96	4
NMTAP	103	192	2
NMTAP	103	192	3
NMTAP	104	0	2
NMTAP	104	48	2
NMTAP	104	96	2
NMTAP	104	192	0
NMTAP	104	192	1
NMTAP	104	288	0
NMTAP	104	288	1
NMTAP	105	0	2
NMTAP	105	0	7
NMTAP	105	96	3
NMTAP	105	96	6
NMTAP	105	192	4
NMTAP	105	192	5
NMTAP	106	0	6
NMTAP	106	48	6
NMTAP	106	96	6
NMTAP	106	192	4
NMTAP	106	192	5
NMTAP	106	288	4
NMTAP	106	288	5
NMTAP	107	0	3
NMTAP	107	0	6
NMTAP	107	96	2
NMTAP	107	96	7
NMTAP	107	192	0
NMTAP	107	192	1
NMTAP	108	0	1
NMTAP	108	48	1
NMTAP	108	96	1
NMTAP	108	192	2
NMTAP	108	192	3
NMTAP	108	288	2
NMTAP	108	288	3
NMTAP	109	0	1
NMTAP	109	0	4
NMTAP	109	96	0
NMTAP	109	96	5
NMTAP	109	192	6
NMTAP	109	192	7
BRTAP	109	288	6
BRTAP	109	288	7

T_REC_TAP	348
T_REC_BRK	2
T_REC_XTP	0
T_REC_BXX	4
T_REC_HLD	10
T_REC_XHO	0
T_REC_BHO	0
T_REC_BXH	0
T_REC_STR	16
T_REC_BST	0
T_REC_XST	0
T_REC_XBS	0
T_REC_TTP	13
T_REC_THO	1
T_REC_SLD	16
T_REC_BSL	0
T_REC_ALL	410
T_NUM_TAP	377
T_NUM_BRK	6
T_NUM_HLD	11
T_NUM_SLD	16
T_NUM_ALL	410
T_JUDGE_TAP	383
T_JUDGE_HLD	72
T_JUDGE_SLD	16
T_JUDGE_ALL	471
TTM_EACHPAIRS	102
TTM_SCR_TAP	188500
TTM_SCR_BRK	15600
TTM_SCR_HLD	11000
TTM_SCR_SLD	24000
TTM_SCR_ALL	239100
TTM_SCR_S	231350
TTM_SCR_SS	238500
TTM_RAT_ACV	10025

