VERSION	0.00.00	1.05.00
FES_MODE	0
BPM_DEF	195.000	195.000	195.000	195.000
MET_DEF	4	4
RESOLUTION	384
CLK_DEF	384
COMPATIBLE_CODE	MA2

BPM	0	0	195.000
MET	0	0	4	4
MET	4	0	4	3
MET	4	288	4	4

NMTAP	1	192	1
NMTAP	1	208	2
NMTAP	1	224	3
NMTAP	1	240	7
NMTAP	1	256	6
NMTAP	1	272	5
EXTAP	1	288	0
NMTTP	2	0	3	E	0	M1
NMTTP	2	0	3	A	1	M1
BRTAP	2	0	7
BRTAP	2	144	2
NMTTP	2	144	5	B	0	M1
NMTTP	2	144	5	E	1	M1
NMTTP	2	288	1	B	0	M1
NMTTP	2	288	2	E	1	M1
BRTAP	2	288	6
BRTAP	3	48	3
NMTTP	3	48	6	B	0	M1
NMTTP	3	48	7	E	1	M1
NMTTP	3	192	0	B	0	M1
NMTTP	3	192	0	E	0	M1
NMTTP	3	192	0	A	1	M1
BRTAP	3	192	5
EXTAP	4	288	7
NMTAP	4	336	7
NMTAP	5	0	0
NMTAP	5	0	6
NMTAP	5	48	0
NMTAP	5	48	6
NMTAP	5	96	1
NMTAP	5	120	5
NMTAP	5	144	1
NMTAP	5	168	5
NMSTR	5	192	2
BRSUR	5	192	2	96	192	4
NMTAP	5	216	4
NMTAP	5	240	2
NMTAP	5	264	4
CNSCR	6	96	4	0	144	2
NMTTP	6	240	0	C	1	M1
EXTAP	7	0	0
EXTAP	7	0	6
NMTAP	7	96	1
NMTAP	7	144	1
NMTAP	7	192	0
NMHLD	7	240	2	96
NMTAP	7	240	7
NMSTR	7	336	0
NMSCL	7	336	0	96	48	5
NMTAP	8	0	1
NMTAP	8	48	0
NMSTR	8	144	3
NMSCL	8	144	3	96	48	0
NMTAP	8	192	4
NMTAP	8	240	3
NMTAP	8	336	6
NMTAP	8	336	7
NMTAP	9	0	0
NMSTR	9	0	5
NMSLL	9	0	5	96	72	6
NMTAP	9	96	2
NMTAP	9	144	1
NMTAP	9	192	0
NMSTR	9	240	7
NMSCR	9	240	7	96	48	2
NMTAP	9	336	3
NMTAP	10	0	4
NMTAP	10	48	5
NMTAP	10	96	3
NMTAP	10	96	6
NMTAP	10	144	2
NMTAP	10	144	7
NMTAP	10	192	0
NMTAP	10	192	1
BRSTR	10	240	2
NMSLR	10	240	2	96	72	1
BRTAP	10	240	7
NMTAP	10	336	5
NMSTR	11	0	7
NMSI_	11	0	7	96	48	4
NMTAP	11	96	0
NMHLD	11	144	2	96
CNSI_	11	144	4	0	48	6
NMTAP	11	240	0
NMTAP	11	288	7
NMTAP	11	336	4
NMTAP	12	0	3
NMTAP	12	48	1
NMHLD	12	48	5	96
NMSTR	12	144	7
NMSI_	12	144	7	96	48	3
NMTAP	12	192	0
NMTAP	12	240	1
BRHLD	12	288	1	288
CNSI_	12	288	3	0	48	7
NMSTR	13	192	5
NMSI_	13	192	5	96	96	3
CNSCL	14	0	3	0	96	6
CNSI_	14	96	6	0	96	2
NMTTP	14	240	0	B	1	M1
NMTTP	14	240	0	E	0	M1
NMTTP	14	240	0	A	0	M1
NMHLD	15	0	2	96
NMTAP	15	96	4
NMTAP	15	144	3
NMTAP	15	144	5
NMTAP	15	240	6
NMTAP	15	288	4
NMTAP	15	288	5
NMTAP	16	0	0
NMTAP	16	48	1
NMTAP	16	48	3
NMTAP	16	144	7
NMTAP	16	192	0
NMSTR	16	192	6
NMSCL	16	192	6	96	48	3
NMTAP	16	288	2
NMTAP	17	0	0
NMTAP	17	96	6
NMTAP	17	144	3
NMTAP	17	144	5
NMTAP	17	240	1
NMTAP	17	288	2
NMTAP	17	288	3
NMTAP	18	0	5
NMTAP	18	48	4
NMTAP	18	48	6
NMTAP	18	144	0
NMSTR	18	192	1
NMSCR	18	192	1	96	48	4
NMTAP	18	192	7
EXTAP	18	288	0
EXTAP	18	288	1
NMHLD	19	0	6	96
NMTAP	19	96	4
NMTAP	19	144	3
NMTAP	19	144	5
NMTAP	19	240	1
NMTAP	19	288	2
NMTAP	19	288	3
NMTAP	20	0	7
NMTAP	20	48	4
NMTAP	20	48	6
NMTAP	20	144	2
NMTAP	20	192	1
NMSTR	20	192	3
NMSI_	20	192	3	96	48	7
NMTAP	20	288	2
NMHLD	21	0	1	96
NMTAP	21	96	7
NMTAP	21	144	7
NMTAP	21	192	0
NMTAP	21	192	6
NMTAP	21	288	1
NMTAP	21	336	0
NMSTR	21	336	1
NMSI_	21	336	1	96	48	4
NMSTR	22	48	6
NMSUL	22	48	6	96	144	3
NMTAP	22	144	6
NMTAP	22	144	7
BRTAP	22	288	0
NMHLD	23	0	1	96
NMTAP	23	96	0
NMTAP	23	144	1
NMTAP	23	192	2
NMTAP	23	240	3
NMTAP	23	240	7
NMTAP	23	336	5
NMTAP	24	0	4
NMSTR	24	48	3
NMSV_	24	48	3	96	48	0
NMTAP	24	48	6
NMSTR	24	144	4
NMSV_	24	144	4	96	48	7
NMTAP	24	240	2
NMTAP	24	336	1
NMTAP	24	336	5
NMTAP	25	0	2
NMTAP	25	48	3
NMTAP	25	48	4
NMTAP	25	96	5
NMSTR	25	144	6
NMSI_	25	144	6	96	48	2
NMSTR	25	240	7
NMSI_	25	240	7	96	48	3
NMSTR	25	336	0
NMSI_	25	336	0	96	48	4
NMSTR	26	48	1
NMSI_	26	48	1	96	48	5
NMSTR	26	144	7
NMSCL	26	144	7	96	96	2
NMTAP	26	240	0
EXHLD	26	288	0	336
NMTAP	27	0	1
NMTAP	27	48	2
NMTAP	27	96	3
NMTAP	27	144	4
NMTAP	27	192	5
NMHLD	27	240	6	384
NMTAP	27	336	7
NMTAP	28	0	0
NMTAP	28	48	1
NMTAP	28	96	2
NMTAP	28	144	3
NMTAP	28	192	4
NMSTR	28	240	5
NMSI_	28	240	5	96	48	1
NMTAP	28	336	7
NMTAP	29	0	7
NMSTR	29	96	2
NMSI_	29	96	2	96	48	4
NMTAP	29	144	2
NMTAP	29	192	1
NMSTR	29	288	6
NMSI_	29	288	6	96	48	0
NMTAP	29	336	6
NMTAP	30	0	5
NMTAP	30	96	3
NMTAP	30	144	3
NMTAP	30	192	2
NMTAP	30	192	4
NMTAP	30	240	1
NMTAP	30	240	5
EXHLD	30	288	0	96
BRSTR	30	288	6
NMSI_	30	288	6	96	96	2
CNSI_	31	96	2	0	96	5
NMHLD	31	96	7	96
CNSI_	31	192	5	0	192	3
NMHLD	31	288	6	96
NMTAP	32	96	5
NMTAP	32	192	4
NMTAP	32	192	5
NMSTR	32	288	1
NMSUR	32	288	1	96	384	3
NMHLD	32	288	7	96
NMHLD	33	96	0	96
NMHLD	33	288	1	96
NMTAP	34	96	2
NMTAP	34	192	2
NMTAP	34	192	3
NMTAP	34	288	0
NMSTR	34	288	6
NMSCL	34	288	6	96	96	3
NMSTR	35	0	3
NMSCL	35	0	3	96	96	0
NMSTR	35	96	0
NMSCL	35	96	0	96	96	5
NMSTR	35	192	5
NMSCL	35	192	5	96	96	2
NMSTR	35	288	2
NMSCL	35	288	2	96	96	7
NMSTR	36	0	7
NMSCL	36	0	7	96	96	4
NMTAP	36	96	4
NMTAP	36	192	1
NMTAP	36	288	2
NMTAP	36	312	4
NMTAP	36	336	2
NMTAP	36	360	4
NMTAP	37	0	1
NMTAP	37	24	5
NMTAP	37	48	1
NMTAP	37	72	5
NMTAP	37	96	0
NMTAP	37	120	6
NMTAP	37	144	0
NMTAP	37	168	6
EXTAP	37	192	7
EXSTR	37	240	1
NMSI_	37	240	1	96	48	4
EXSTR	37	240	5
NMSI_	37	240	5	96	48	0
NMHLD	38	48	2	144
NMHLD	38	48	6	144
BRTAP	38	240	3
BRTAP	38	240	4
NMTAP	38	336	1
NMTAP	38	360	0
NMTAP	39	0	1
NMTAP	39	48	2
NMTAP	39	48	7
NMTAP	39	96	6
NMTAP	39	120	4
NMSTR	39	144	5
NMSI_	39	144	5	96	48	0
NMTAP	39	168	4
NMTAP	39	192	5
NMTAP	39	240	1
NMTAP	39	336	2
NMTAP	39	336	3
NMTAP	40	0	4
NMTAP	40	48	6
NMTAP	40	48	7
NMTAP	40	96	1
NMTAP	40	120	0
NMSTR	40	144	1
NMSCR	40	144	1	96	48	4
NMTAP	40	168	0
NMTAP	40	192	1
NMTAP	40	240	7
NMTAP	40	336	6
NMTAP	40	360	7
NMTAP	41	0	6
NMTAP	41	48	1
NMTAP	41	72	2
NMTAP	41	96	1
NMTAP	41	144	4
NMSTR	41	144	5
NMSI_	41	144	5	96	48	2
NMTAP	41	192	6
NMTAP	41	240	0
NMTAP	41	336	1
NMTAP	41	360	3
NMTAP	42	0	2
NMTAP	42	48	4
NMTAP	42	48	5
NMTAP	42	96	6
NMTAP	42	96	7
NMSTR	42	144	6
NMSCL	42	144	6	96	48	3
NMSTR	42	144	7
NMSCR	42	144	7	96	48	2
BRTAP	42	240	6
BRTAP	42	240	7
NMTAP	42	336	4
NMTAP	43	0	5
NMTAP	43	48	6
NMTAP	43	96	0
NMTAP	43	96	1
NMSTR	43	144	0
NMSCL	43	144	0	96	48	5
NMSTR	43	144	1
NMSCR	43	144	1	96	48	4
BRTAP	43	240	0
BRTAP	43	240	1
NMTAP	43	336	3
NMTAP	44	0	2
NMTAP	44	48	1
NMTAP	44	96	6
NMTAP	44	96	7
NMSTR	44	144	6
NMSI_	44	144	6	96	48	3
NMTAP	44	144	7
NMSTR	44	240	2
NMSI_	44	240	2	96	48	7
NMTAP	44	240	6
NMTAP	44	336	2
NMSTR	44	336	5
NMSI_	44	336	5	96	48	0
NMSTR	45	48	1
NMSI_	45	48	1	96	48	4
NMTAP	45	48	5
NMTAP	45	144	1
NMHLD	45	144	7	96
NMTAP	45	240	3
NMTAP	45	288	1
NMTAP	45	288	7
NMTAP	45	312	2
NMTAP	45	336	3
NMTAP	45	360	4
NMTAP	46	0	0
NMTAP	46	24	1
NMTAP	46	48	2
NMTAP	46	72	3
NMTAP	46	96	7
NMTAP	46	120	0
NMTAP	46	144	1
NMSTR	46	168	2
NMSUL	46	168	2	96	120	1
NMTAP	46	192	6
EXHLD	46	240	6	336
CNSCL	47	0	1	0	192	3
BRTAP	47	240	1
BRTAP	47	240	5
NMTAP	47	336	0
NMTAP	47	336	4
NMTAP	48	0	1
NMTAP	48	0	5
NMTAP	48	48	2
NMTAP	48	48	6
NMSTR	48	96	3
BRSI_	48	96	3	96	48	0
NMSTR	48	96	7
BRSI_	48	96	7	96	48	4
EXTAP	48	192	3
EXTAP	48	192	7
NMHLD	48	288	2	48
NMHLD	48	288	6	48
EXTAP	49	0	2
EXTAP	49	0	6
NMTAP	49	48	5
NMTAP	49	96	1
NMTAP	49	120	3
NMSTR	49	144	2
NMSI_	49	144	2	96	48	7
NMTAP	49	168	3
NMTAP	49	192	2
NMTAP	49	240	6
NMTAP	49	336	4
NMTAP	49	336	5
NMTAP	50	0	3
NMTAP	50	48	0
NMTAP	50	48	1
NMTAP	50	96	6
NMTAP	50	120	7
NMTAP	50	144	6
NMTAP	50	168	7
NMSTR	50	192	0
NMSI_	50	192	0	96	48	4
NMTAP	50	192	5
NMTAP	50	288	0
NMTAP	50	288	7
NMTAP	51	0	5
NMTAP	51	48	5
NMTAP	51	72	4
NMTAP	51	96	6
NMTAP	51	144	6
NMTAP	51	192	7
NMTAP	51	240	0
NMTAP	51	240	1
NMTAP	51	288	2
NMTAP	51	336	3
NMTAP	51	336	4
NMTAP	52	0	5
NMTAP	52	48	6
NMTAP	52	48	7
NMTAP	52	96	1
NMTAP	52	120	2
NMTAP	52	144	3
NMTAP	52	168	4
NMSTR	52	192	7
NMSI_	52	192	7	96	48	3
NMSTR	52	288	3
BRSF_	52	288	3	96	48	7
NMTAP	53	96	1
NMTAP	53	96	5
NMTAP	53	144	2
NMTAP	53	192	3
NMTAP	53	192	7
NMTAP	53	240	6
BRTAP	53	288	4
BRTAP	53	288	5
BRTAP	53	336	0
BRTAP	53	336	7
BRTAP	54	0	2
BRHLD	54	0	3	144
NMTAP	54	144	4
NMSTR	54	192	2
NMSXL	54	192	2	96	288	5
NMSTR	54	192	6
NMSXL	54	192	6	96	288	1
BRHLD	55	240	2	96
BRHLD	55	240	6	96
EXTAP	56	0	0
EXTAP	56	0	4
NMTAP	56	96	6
NMTAP	56	144	6
NMTAP	56	192	7
NMTAP	56	240	0
NMHLD	56	240	5	96
NMSTR	56	336	7
NMSCR	56	336	7	96	48	2
NMTAP	57	0	6
NMTAP	57	48	7
NMSTR	57	144	4
NMSCR	57	144	4	96	48	7
NMTAP	57	192	3
NMTAP	57	240	4
NMTAP	57	336	0
NMTAP	57	336	1
NMSTR	58	0	2
NMSLR	58	0	2	96	72	1
NMTAP	58	0	7
NMTAP	58	96	5
NMTAP	58	144	6
NMTAP	58	192	7
NMSTR	58	240	0
NMSCL	58	240	0	96	48	5
NMTAP	58	336	4
NMTAP	59	0	3
NMTAP	59	48	2
NMTAP	59	96	1
NMTAP	59	96	4
NMTAP	59	144	0
NMTAP	59	144	5
NMTAP	59	192	6
NMTAP	59	192	7
BRTAP	59	240	0
BRSTR	59	240	5
NMSLL	59	240	5	96	72	6
NMTAP	59	336	2
NMSTR	60	0	0
NMSI_	60	0	0	96	48	3
NMTAP	60	96	7
CNSI_	60	144	3	0	48	1
NMHLD	60	144	5	96
NMTAP	60	240	7
NMTAP	60	288	0
NMTAP	60	336	3
NMTAP	61	0	4
NMHLD	61	48	2	96
NMTAP	61	48	6
NMSTR	61	144	0
NMSI_	61	144	0	96	48	4
NMTAP	61	192	7
NMTAP	61	240	6
CNSI_	61	288	4	0	48	0
BRHLD	61	288	6	288
NMSTR	62	192	2
NMSI_	62	192	2	96	96	4
CNSCR	63	0	4	0	96	1
CNSI_	63	96	1	0	96	5
NMTTP	63	240	0	E	0	M1
NMTTP	63	240	7	B	1	M1
NMTTP	63	240	7	A	0	M1
NMHLD	64	0	5	96
NMTAP	64	96	4
NMTAP	64	144	4
NMTAP	64	192	5
NMTAP	64	240	3
NMTAP	64	240	6
NMTAP	64	336	2
NMTAP	65	0	2
NMTAP	65	0	3
NMTAP	65	96	6
NMTAP	65	96	7
NMTAP	65	144	6
NMTAP	65	144	7
NMTAP	65	192	0
NMSTR	65	192	5
NMSI_	65	192	5	96	48	3
NMSTR	65	288	1
NMSI_	65	288	1	96	48	5
NMHLD	66	0	6	96
NMTAP	66	96	7
NMTAP	66	144	7
NMTAP	66	192	6
NMTAP	66	240	0
NMTAP	66	240	5
NMTAP	66	336	2
NMTAP	67	0	1
NMTAP	67	0	3
NMSTR	67	96	4
NMSI_	67	96	4	96	48	0
NMTAP	67	144	5
NMSTR	67	192	6
NMSCL	67	192	6	96	48	3
EXTAP	67	288	6
EXTAP	67	288	7
NMHLD	68	0	2	96
NMTAP	68	96	3
NMTAP	68	144	3
NMTAP	68	192	2
NMTAP	68	240	1
NMTAP	68	240	4
NMTAP	68	336	5
NMTAP	69	0	4
NMTAP	69	0	5
NMTAP	69	96	0
NMTAP	69	96	1
NMTAP	69	144	0
NMTAP	69	144	1
NMSTR	69	192	2
NMSI_	69	192	2	96	48	4
NMTAP	69	192	7
NMSTR	69	288	6
NMSI_	69	288	6	96	48	2
NMHLD	70	0	1	96
NMTAP	70	96	3
NMTAP	70	144	3
NMTAP	70	192	2
NMTAP	70	192	4
NMTAP	70	288	7
NMSTR	70	336	0
NMSCR	70	336	0	96	48	3
NMTAP	70	336	6
NMTAP	71	48	0
NMSTR	71	48	5
NMSXL	71	48	5	96	144	3
EXTAP	71	144	4
EXTAP	71	144	5
EXSTR	71	288	1
NMSI_	71	288	1	96	48	7
NMTAP	72	0	1
BRHLD	72	0	5	96
EXTAP	72	96	2
NMTAP	72	144	4
BRHLD	72	144	5	96
EXTAP	72	240	1
NMTAP	72	288	4
BRHLD	72	288	5	96
EXTAP	73	0	0
NMTAP	73	48	4
BRTAP	73	48	5
EXTAP	73	144	1
EXTAP	73	144	7
BRSTR	73	192	2
NMSI_	73	192	2	96	48	7
BRSTR	73	192	6
NMSI_	73	192	6	96	48	3
EXTAP	73	288	2
EXTAP	73	288	6
NMTAP	74	0	1
NMTAP	74	0	5
NMTAP	74	48	4
NMTAP	74	96	2
NMTAP	74	96	3
NMSTR	74	144	1
NMSI_	74	144	1	96	48	5
NMSTR	74	240	0
NMSI_	74	240	0	96	48	4
NMSTR	74	336	7
NMSI_	74	336	7	96	48	3
NMSTR	75	48	6
NMSI_	75	48	6	96	48	2
NMSTR	75	144	0
NMSCR	75	144	0	96	96	5
NMTAP	75	240	7
EXHLD	75	288	7	336
NMTAP	76	0	6
NMTAP	76	48	5
NMTAP	76	96	4
NMTAP	76	144	3
NMTAP	76	192	2
NMHLD	76	240	1	384
NMTAP	76	336	0
NMTAP	77	0	7
NMTAP	77	48	6
NMTAP	77	96	5
NMTAP	77	144	4
NMTAP	77	192	3
NMSTR	77	240	2
NMSI_	77	240	2	96	48	6
NMTAP	77	336	0
NMTAP	78	0	0
NMSTR	78	96	5
NMSI_	78	96	5	96	48	3
NMTAP	78	144	5
NMTAP	78	192	6
NMSTR	78	288	1
NMSI_	78	288	1	96	48	7
NMTAP	78	336	1
NMTAP	79	0	2
NMTAP	79	96	4
NMTAP	79	144	4
NMTAP	79	192	3
NMTAP	79	192	5
NMTAP	79	240	2
NMTAP	79	240	6
BRHLD	79	288	1	96
EXSTR	79	288	7
NMSI_	79	288	7	96	96	1
CNSI_	80	96	1	0	96	5
CNSI_	80	192	5	0	96	3
NMTAP	80	336	2
NMTAP	81	0	3
NMTAP	81	48	4
NMTAP	81	96	1
NMTAP	81	144	2
NMSTR	81	192	3
NMSI_	81	192	3	96	96	5
NMTAP	81	240	4
NMTAP	81	288	5
CNSCR	82	0	5	0	192	2
CNSI_	82	192	2	0	96	4
NMTAP	82	336	5
NMTAP	83	0	4
NMTAP	83	48	3
NMTAP	83	96	6
NMTAP	83	144	5
NMTAP	83	192	4
NMTAP	83	240	3
NMHLD	83	288	1	144
NMTAP	84	0	3
NMHLD	84	48	3	144
NMTAP	84	144	4
NMHLD	84	192	4	144
NMTAP	84	288	6
NMHLD	84	336	6	144
NMTAP	85	48	0
NMSTR	85	96	0
NMSI_	85	96	0	96	48	3
NMTAP	85	192	0
NMTAP	85	192	4
NMTTP	85	288	5	B	0	M1
NMTTP	85	312	6	B	0	M1
NMTTP	85	336	7	E	0	M1
NMTTP	85	360	7	A	0	M1
NMTTP	86	0	1	B	0	M1
NMTTP	86	24	2	B	0	M1
NMTTP	86	48	3	E	0	M1
NMTTP	86	72	3	A	0	M1
NMTTP	86	96	6	E	0	M1
NMTTP	86	120	6	B	0	M1
NMTTP	86	144	7	B	0	M1
NMTTP	86	168	0	E	0	M1
NMTTP	86	192	2	E	0	M1
NMTTP	86	216	2	B	0	M1
NMTTP	86	240	3	B	0	M1
NMTTP	86	264	4	E	0	M1
NMTTP	86	288	6	A	0	M1
NMTTP	86	312	7	E	0	M1
NMTTP	86	336	7	B	0	M1
NMTTP	86	360	0	B	0	M1
NMTTP	87	0	2	A	0	M1
NMTTP	87	24	3	E	0	M1
NMTTP	87	48	3	B	0	M1
NMTTP	87	72	4	B	0	M1
NMTTP	87	96	0	C	0	M1
EXTAP	87	192	0
EXTAP	87	192	7
NMHLD	87	288	2	96
NMHLD	88	0	3	96
NMTAP	88	48	1
NMHLD	88	96	1	96
NMHLD	88	192	3	96
NMTAP	88	240	0
NMHLD	88	288	0	96
NMHLD	89	0	3	96
NMTAP	89	48	7
NMSTR	89	96	7
NMSCR	89	96	7	96	48	2
NMTAP	89	192	6
NMHLD	89	288	5	96
NMHLD	90	0	4	96
NMTAP	90	48	6
NMHLD	90	96	6	96
NMHLD	90	192	4	96
NMTAP	90	240	7
NMHLD	90	288	7	96
NMHLD	91	0	4	96
NMTAP	91	48	0
NMSTR	91	96	0
NMSCL	91	96	0	96	48	5
NMTAP	91	192	1
NMHLD	91	288	2	96
NMTAP	91	336	3
NMHLD	92	0	5	96
NMTAP	92	48	4
NMHLD	92	96	1	96
NMTAP	92	144	3
NMHLD	92	192	6	96
NMTAP	92	240	4
NMTAP	92	288	0
NMTAP	92	336	2
NMTAP	93	0	4
NMTAP	93	48	6
NMTAP	93	96	3
NMTAP	93	96	7
NMTAP	93	144	2
NMTAP	93	144	6
NMTAP	93	192	1
NMTAP	93	192	5
NMSTR	93	240	0
NMSCR	93	240	0	96	48	3
NMTAP	93	240	4
NMSTR	94	48	7
NMSCL	94	48	7	96	48	4
NMTHO	94	240	0	240	C	0	M1
EXTAP	95	240	0
EXTAP	95	240	7
NMHLD	96	0	2	1248
NMTAP	96	96	3
NMTAP	96	192	3
NMTAP	96	288	3
NMTAP	97	0	3
NMTAP	97	96	3
NMTAP	97	192	3
NMTAP	97	288	1
NMTAP	98	0	1
NMTAP	98	96	3
NMTAP	98	192	3
NMTAP	98	288	1
NMTAP	99	0	1
NMTAP	99	96	3
NMSTR	99	144	0
NMSI_	99	144	0	96	48	3
NMSTR	99	144	4
NMSI_	99	144	4	96	48	7
BRTAP	99	240	0
BRTAP	99	240	4
EXSTR	99	336	3
NMSCL	99	336	3	96	48	0
EXSTR	99	336	7
NMSCL	99	336	7	96	48	4
BRTAP	100	48	3
BRTAP	100	48	7
EXSTR	100	144	3
NMSI_	100	144	3	96	48	6
EXSTR	100	144	7
NMSI_	100	144	7	96	48	2
BRTAP	100	240	3
BRTAP	100	240	7
EXSTR	100	336	1
NMSI_	100	336	1	96	48	4
EXSTR	100	336	5
NMSI_	100	336	5	96	48	0
BRTAP	101	48	1
BRTAP	101	48	5
EXSTR	101	144	3
BRSI_	101	144	3	96	48	7
EXTAP	101	144	7
BRHLD	101	240	1	432
NMTAP	102	288	2
NMTAP	102	312	3
NMTAP	102	336	4
NMTAP	102	360	5
NMTAP	103	0	6
NMTAP	103	0	7
NMTAP	103	24	0
NMTAP	103	48	1
NMTAP	103	72	2
NMTAP	103	96	3
NMTAP	103	96	4
NMTAP	103	120	5
NMTAP	103	144	6
NMTAP	103	168	7
NMSTR	103	192	0
NMSUL	103	192	0	96	192	7
NMTAP	103	192	1
NMTAP	103	216	2
NMHLD	103	240	3	336
CNSCL	104	96	7	0	120	0
NMTTP	104	240	0	B	0	M1
NMTTP	104	240	0	E	1	M1
NMTTP	104	240	0	A	0	M1
NMTTP	104	240	7	B	0	M1
NMTTP	104	240	7	A	0	M1
NMTAP	105	0	3
NMTAP	105	0	4
NMTAP	105	48	3
NMTAP	105	48	4
NMSTR	105	96	1
NMSI_	105	96	1	96	48	4
NMSTR	105	96	6
NMSI_	105	96	6	96	48	3
BRTAP	105	192	1
BRTAP	105	192	6
NMHLD	105	288	0	48
NMHLD	105	288	7	48
EXTAP	106	0	0
EXTAP	106	0	7
NMTAP	106	48	2
NMTAP	106	96	6
NMTAP	106	120	4
NMSTR	106	144	5
NMSI_	106	144	5	96	48	0
NMTAP	106	168	4
NMTAP	106	192	5
NMTAP	106	240	1
NMTAP	106	336	2
NMTAP	106	336	3
NMTAP	107	0	4
NMTAP	107	48	6
NMTAP	107	48	7
NMTAP	107	96	1
NMTAP	107	120	0
NMTAP	107	144	1
NMTAP	107	168	0
NMSTR	107	192	2
NMSI_	107	192	2	96	48	7
NMTAP	107	192	7
EXTAP	107	288	2
BRTAP	107	288	3
NMTAP	108	0	5
NMTAP	108	48	5
NMTAP	108	72	4
NMTAP	108	96	6
NMTAP	108	144	5
NMTAP	108	144	7
NMTAP	108	192	1
NMTAP	108	240	0
NMTAP	108	240	2
NMSTR	108	288	7
NMSI_	108	288	7	96	48	3
NMTAP	108	336	6
NMSTR	109	0	0
NMSI_	109	0	0	96	48	4
NMTAP	109	48	1
NMTAP	109	96	5
NMTAP	109	120	6
NMTAP	109	144	7
NMTAP	109	168	0
NMSTR	109	192	1
NMSCL	109	192	1	96	48	6
NMSTR	109	288	3
NMSCL	109	288	3	96	96	4
BRTAP	110	0	4
EXTAP	110	96	7
NMTAP	110	144	6
EXTAP	110	192	3
EXTAP	110	192	5
NMTAP	110	240	2
BRSTR	110	288	0
NMSI_	110	288	0	96	48	4
BRSTR	110	288	7
NMSI_	110	288	7	96	48	3
BRTAP	110	336	1
BRTAP	110	336	6
BXTAP	111	0	0
BXTAP	111	0	7
NMTAP	111	144	3
NMTAP	111	144	4
NMSTR	111	192	1
NMSXL	111	192	1	96	288	0
NMSTR	111	192	5
NMSXL	111	192	5	96	288	4
BRHLD	112	240	3	96
BRHLD	112	240	7	96
EXTAP	113	0	1
EXTAP	113	0	5
NMTAP	113	96	3
NMTAP	113	96	4
NMTAP	113	144	6
NMTAP	113	168	7
NMTAP	113	192	6
NMTAP	113	240	0
NMTAP	113	240	5
NMTAP	113	336	1
NMTAP	113	360	3
NMTAP	114	0	2
NMTAP	114	48	5
NMTAP	114	72	4
NMTAP	114	96	6
NMTAP	114	144	1
NMTAP	114	168	0
NMTAP	114	192	1
EXTAP	114	240	2
EXTAP	114	240	7
NMTAP	114	336	5
NMTAP	114	360	4
NMTAP	115	0	5
NMTAP	115	48	3
NMTAP	115	48	6
NMTAP	115	96	7
NMSTR	115	144	1
NMSI_	115	144	1	96	48	4
NMTAP	115	168	0
NMTAP	115	192	1
NMTAP	115	240	7
NMTAP	115	336	6
NMTAP	115	360	7
EXTAP	116	0	6
NMTAP	116	48	1
NMTAP	116	72	3
EXTAP	116	96	2
NMTAP	116	144	5
NMTAP	116	168	4
EXTAP	116	192	6
BRSTR	116	240	2
NMSLR	116	240	2	96	72	1
BRTAP	116	240	7
NMTAP	116	336	5
NMSTR	117	0	7
NMSI_	117	0	7	96	48	4
NMTAP	117	96	0
NMHLD	117	144	2	96
CNSI_	117	144	4	0	48	6
NMTAP	117	240	0
NMTAP	117	288	3
NMTAP	117	288	7
NMTAP	117	336	6
NMTAP	117	360	4
NMTAP	118	0	5
NMTAP	118	48	2
NMTAP	118	72	3
NMTAP	118	96	1
NMSTR	118	144	0
NMSV_	118	144	0	96	48	3
NMSTR	118	144	4
NMSV_	118	144	4	96	48	7
NMSTR	118	192	3
BRSCL	118	192	3	96	48	2
NMSTR	118	192	7
BRSCL	118	192	7	96	48	6
CNSI_	118	336	2	0	24	0
CNSI_	118	336	6	0	24	4
NMSTR	119	192	1
NMSXR	119	192	1	96	288	6
NMSTR	119	192	5
NMSXR	119	192	5	96	288	2
BRTAP	120	240	1
BRTAP	120	240	5

T_REC_TAP	528
T_REC_BRK	39
T_REC_XTP	42
T_REC_BXX	2
T_REC_HLD	51
T_REC_XHO	4
T_REC_BHO	12
T_REC_BXH	0
T_REC_STR	100
T_REC_BST	8
T_REC_XST	11
T_REC_XBS	0
T_REC_TTP	48
T_REC_THO	1
T_REC_SLD	112
T_REC_BSL	7
T_REC_ALL	965
T_NUM_TAP	729
T_NUM_BRK	68
T_NUM_HLD	56
T_NUM_SLD	112
T_NUM_ALL	965
T_JUDGE_TAP	778
T_JUDGE_HLD	213
T_JUDGE_SLD	119
T_JUDGE_ALL	1110
TTM_EACHPAIRS	168
TTM_SCR_TAP	364500
TTM_SCR_BRK	176800
TTM_SCR_HLD	56000
TTM_SCR_SLD	168000
TTM_SCR_ALL	765300
TTM_SCR_S	735750
TTM_SCR_SS	758500
TTM_RAT_ACV	10089

