VERSION	0.00.00	1.05.00
FES_MODE	0
BPM_DEF	195.000	195.000	195.000	195.000
MET_DEF	4	4
RESOLUTION	384
CLK_DEF	384
COMPATIBLE_CODE	MA2

BPM	0	0	195.000
MET	0	0	4	4
MET	4	0	4	3
MET	4	288	4	4

NMTAP	1	192	3
NMTAP	1	240	3
NMTAP	1	288	4
EXHLD	2	0	1	144
BXTAP	2	0	5
NMHLD	2	144	3	144
NMHLD	2	288	2	144
NMHLD	3	48	6	144
BXHLD	3	192	4	384
NMTAP	4	0	5
NMTAP	4	96	5
NMTAP	4	192	5
BXTAP	4	288	6
NMTAP	5	0	0
NMTAP	5	0	7
NMTAP	5	96	1
NMTAP	5	144	1
NMSTR	5	192	0
NMSCL	5	192	0	96	192	2
BXTAP	6	240	0
BXTAP	6	240	1
NMTAP	6	336	5
NMTAP	6	336	7
NMTAP	7	0	5
NMTAP	7	0	7
NMTAP	7	96	0
NMTAP	7	96	2
NMTAP	7	144	0
NMTAP	7	144	2
NMTAP	7	240	1
NMTAP	7	240	3
NMTAP	7	336	3
NMTAP	7	336	4
NMTAP	8	48	4
NMTAP	8	48	6
NMTAP	8	144	0
NMTAP	8	144	7
NMTAP	8	240	4
NMTAP	8	240	6
NMTAP	8	336	2
NMHLD	9	0	2	96
NMTAP	9	96	0
NMTAP	9	192	7
NMTAP	9	240	7
NMTAP	9	336	0
NMTAP	9	336	6
NMTAP	10	0	0
NMSTR	10	0	6
NMSCL	10	0	6	96	96	3
EXTAP	10	192	1
EXHLD	10	240	1	96
NMTAP	10	336	0
NMTAP	11	0	0
NMTAP	11	96	2
NMTAP	11	96	7
NMTAP	11	144	2
NMTAP	11	144	7
NMTAP	11	240	4
NMTAP	11	240	6
NMTAP	11	288	4
NMTAP	11	288	6
NMTAP	12	0	1
NMHLD	12	48	1	96
NMTAP	12	144	3
NMTAP	12	240	0
NMTAP	12	240	4
BXHLD	12	288	0	288
BXHLD	12	288	4	288
NMHLD	13	288	5	96
NMHLD	14	0	7	96
NMHLD	14	96	0	96
NMTAP	14	192	2
EXHLD	14	240	2	528
NMTAP	15	0	3
NMTAP	15	192	3
NMTAP	15	288	4
NMTAP	16	0	3
NMTAP	16	96	2
NMSTR	16	192	1
NMSCL	16	192	1	96	96	6
NMTAP	17	96	5
NMSTR	17	192	5
NMSCL	17	192	5	96	96	2
NMTAP	18	96	0
NMTAP	18	192	0
NMHLD	18	288	1	480
BRTAP	18	288	7
NMTAP	19	0	7
NMTAP	19	192	0
NMTAP	19	288	7
NMTAP	20	0	0
NMTAP	20	96	1
NMSTR	20	192	2
NMSI_	20	192	2	96	96	7
NMHLD	21	96	5	96
NMSTR	21	192	4
NMSUL	21	192	4	96	144	0
EXTAP	22	144	6
EXTAP	22	144	7
EXTAP	22	192	6
EXTAP	22	192	7
NMTAP	22	288	4
NMTAP	22	288	5
NMTAP	23	0	6
NMTAP	23	48	6
NMTAP	23	96	4
NMTAP	23	192	2
NMTAP	23	240	2
NMTAP	23	288	3
NMTAP	24	0	1
NMTAP	24	48	1
NMTAP	24	96	0
NMTAP	24	192	6
NMTAP	24	240	6
NMTAP	24	288	7
NMTAP	25	0	1
NMTAP	25	48	1
NMTAP	25	96	3
NMTAP	25	144	3
NMTAP	25	192	2
NMHLD	25	240	2	96
NMTAP	25	336	4
NMHLD	26	48	5	96
NMTAP	26	144	3
NMTAP	26	192	3
NMSTR	26	288	0
NMSCR	26	288	0	96	96	3
NMTAP	26	288	6
NMSTR	27	96	4
NMSCR	27	96	4	96	96	7
NMTAP	27	288	1
NMTAP	28	0	0
NMTAP	28	0	2
NMTAP	28	48	0
NMTAP	28	48	2
NMSTR	28	144	3
BRSXR	28	144	3	96	240	2
NMSTR	28	144	7
BRSXR	28	144	7	96	240	6
EXTAP	29	192	1
EXTAP	29	192	5
EXTAP	29	240	1
EXTAP	29	240	5
NMTAP	29	336	2
NMTAP	29	336	4
NMTAP	30	0	2
NMTAP	30	0	4
NMTAP	30	96	0
NMTAP	30	96	6
NMTAP	30	192	1
NMTAP	30	192	5
BXHLD	30	288	7	144
NMHLD	31	48	2	144
NMHLD	31	192	0	144
NMTAP	31	336	3
NMTAP	32	0	3
EXTAP	32	96	2
EXTAP	32	96	4
NMTAP	32	192	2
NMTAP	32	192	4
NMHLD	32	288	0	144
NMHLD	33	48	6	144
NMTAP	33	192	4
NMHLD	33	240	4	144
NMTTP	34	0	4	B	0	M1
NMTTP	34	0	5	B	0	M1
NMTTP	34	96	2	B	0	M1
NMTTP	34	96	3	B	0	M1
NMTTP	34	192	0	C	0	M1
BRTAP	34	288	0
BRTAP	34	288	7
NMTAP	35	0	1
NMTAP	35	96	2
NMTAP	35	192	1
NMTAP	35	192	3
NMTAP	35	288	4
NMTAP	36	0	5
NMTAP	36	96	4
NMTAP	36	96	6
NMTAP	36	144	4
NMSTR	36	144	6
NMSSR	36	144	6	96	240	2
NMTAP	37	192	0
NMTAP	37	240	0
EXHLD	38	48	1	96
EXHLD	38	48	7	96
BRSTR	38	240	0
NMSUL	38	240	0	96	144	2
BRSTR	38	240	6
NMSCL	38	240	6	96	144	3
NMSTR	39	240	0
NMSCR	39	240	0	96	144	3
NMSTR	39	240	6
NMSUR	39	240	6	96	144	4
EXSTR	40	144	6
NMSI_	40	144	6	96	48	3
NMSTR	40	336	1
NMSI_	40	336	1	96	48	5
NMSTR	41	144	6
NMSI_	41	144	6	96	48	2
NMSTR	41	144	7
NMSI_	41	144	7	96	48	3
EXTAP	41	336	1
EXTAP	41	336	4
EXTAP	42	0	1
EXTAP	42	0	4
NMTAP	42	96	2
NMHLD	42	144	2	96
BRTAP	42	240	0
NMTAP	42	336	6
NMTAP	42	336	7
NMTAP	43	0	6
NMTAP	43	0	7
NMTAP	43	96	4
NMTAP	43	96	5
NMTAP	43	144	4
NMHLD	43	144	5	96
BRTAP	43	240	7
NMTAP	43	336	0
NMTAP	43	336	1
NMTAP	44	0	0
NMTAP	44	0	1
NMTAP	44	96	2
NMTAP	44	96	3
NMTAP	44	144	2
NMTAP	44	144	3
NMTAP	44	240	4
NMTAP	44	240	6
NMTAP	44	336	0
NMTAP	44	336	7
NMTAP	45	48	1
NMTAP	45	48	3
NMSTR	45	144	4
NMSI_	45	144	4	96	48	0
NMSTR	45	144	5
NMSI_	45	144	5	96	48	1
EXTAP	46	0	2
EXTAP	46	0	7
NMTAP	46	96	1
NMTAP	46	96	6
NMTAP	46	144	1
NMTAP	46	144	6
NMTHO	46	240	0	384	C	1	M1
NMTTP	46	240	3	B	0	M1
NMTTP	46	240	4	B	0	M1
NMTTP	47	240	1	B	0	M1
NMTTP	47	240	6	B	0	M1
EXHLD	48	0	0	96
EXHLD	48	0	7	96
BXTAP	48	192	1
BXTAP	48	192	6
NMTAP	48	288	2
NMTAP	48	288	4
NMTAP	49	0	3
NMTAP	49	0	5
NMTAP	49	96	6
NMTAP	49	96	7
NMSTR	49	144	6
NMSI_	49	144	6	96	48	2
NMSTR	49	144	7
NMSI_	49	144	7	96	48	3
NMTAP	49	336	1
NMTAP	49	336	4
NMTAP	50	0	1
NMTAP	50	0	4
NMTAP	50	96	2
NMTAP	50	144	3
NMTAP	50	192	4
BRTAP	50	288	0
NMTAP	51	0	3
NMTAP	51	0	6
NMTAP	51	48	3
NMTAP	51	48	6
NMHLD	51	144	5	96
BRTAP	51	144	7
NMTAP	51	240	4
NMTAP	51	336	3
NMTAP	51	336	6
NMTAP	52	0	3
NMTAP	52	0	6
NMTAP	52	96	5
NMTAP	52	144	4
NMTAP	52	192	3
EXTAP	52	288	7
NMTAP	53	0	1
NMTAP	53	0	4
NMTAP	53	48	1
NMTAP	53	48	4
NMTAP	53	144	2
NMTAP	53	144	3
NMTAP	53	240	0
NMTAP	53	240	1
BXTAP	53	288	0
BXTAP	53	288	1
BXTAP	53	336	2
BXTAP	53	336	7
BXSTR	54	0	2
NMSCL	54	0	2	96	96	7
BXSTR	54	0	7
NMSCL	54	0	7	96	96	4
NMTHO	54	288	0	336	C	1	M1
NMTTP	55	240	2	B	0	M1
NMTTP	55	240	3	B	0	M1
NMTTP	55	240	4	B	0	M1
NMTTP	55	240	5	B	0	M1
EXTAP	56	0	0
EXTAP	56	0	7
NMTAP	56	96	1
NMTAP	56	144	0
NMTAP	56	192	7
NMHLD	56	240	6	96
NMTAP	56	336	4
NMTAP	57	48	3
NMTAP	57	48	4
NMTAP	57	144	2
NMHLD	57	240	1	432
NMTAP	57	240	3
NMTAP	57	336	2
NMTAP	58	0	2
NMTTP	58	96	1	E	0	M1
NMTTP	58	192	0	E	0	M1
NMTTP	58	288	7	E	0	M1
NMTTP	59	0	6	E	0	M1
NMTAP	59	96	3
NMTAP	59	96	6
NMTAP	59	144	3
NMTAP	59	144	6
NMHLD	59	240	1	96
NMTAP	59	336	4
NMTAP	60	0	4
NMTAP	60	96	2
NMTAP	60	96	6
NMTAP	60	144	2
NMTAP	60	144	6
NMTAP	60	240	1
NMTAP	60	288	0
NMTAP	60	336	7
NMTAP	61	0	6
NMHLD	61	48	5	96
NMTAP	61	144	7
NMTAP	61	192	7
BRHLD	61	288	1	384
BRTAP	61	288	3
NMSTR	62	192	2
NMSCL	62	192	2	96	240	5
EXTAP	63	240	3
NMTAP	63	336	2
NMTAP	63	336	4
NMHLD	64	0	2	576
NMTAP	64	0	4
NMHLD	64	192	3	96
NMHLD	65	0	1	96
NMTAP	65	192	0
NMTAP	65	288	0
NMTAP	65	288	1
NMTAP	66	0	1
NMTAP	66	0	2
NMTAP	66	96	2
NMTAP	66	96	3
NMTAP	66	192	2
NMSTR	66	192	3
NMSUR	66	192	3	96	240	5
NMTAP	67	288	4
NMTAP	67	288	5
BXHLD	68	0	6	864
NMHLD	68	192	7	96
NMHLD	69	0	5	96
NMHLD	69	192	5	96
NMHLD	70	0	7	96
NMTAP	70	192	0
NMTAP	70	288	1
NMHLD	70	336	1	96
NMTAP	71	48	3
NMTAP	71	144	2
NMTAP	71	144	4
NMHLD	71	192	2	96
NMHLD	71	192	4	96
BRTAP	72	0	4
BRTAP	72	0	5
NMTAP	72	96	6
NMTAP	72	96	7
BRTAP	72	144	6
BRTAP	72	144	7
NMTAP	72	240	2
NMTAP	72	240	3
BRTAP	72	288	2
BRTAP	72	288	3
NMTAP	73	0	0
NMTAP	73	0	1
BRHLD	73	48	0	96
BRSTR	73	48	1
NMSI_	73	48	1	96	96	5
EXTAP	73	240	7
NMTAP	73	336	4
NMTAP	73	336	6
NMTAP	74	0	4
NMTAP	74	0	6
NMTAP	74	96	1
NMTAP	74	96	3
NMTAP	74	144	1
NMTAP	74	144	3
NMTAP	74	240	5
NMSTR	74	336	4
NMSI_	74	336	4	96	96	2
NMSTR	74	336	6
NMSI_	74	336	6	96	96	2
NMHLD	75	288	1	96
NMHLD	76	0	0	96
NMTAP	76	96	2
NMTAP	76	192	1
NMTAP	76	192	7
NMHLD	76	288	6	96
NMHLD	77	0	7	96
NMTAP	77	96	5
NMSTR	77	192	6
NMSCL	77	192	6	96	192	1
NMTAP	78	192	0
NMHLD	78	240	0	96
NMTAP	78	336	4
NMTAP	79	0	4
BRTAP	79	96	2
BRTAP	79	96	6
NMHLD	79	288	1	96
NMHLD	80	0	0	96
NMHLD	80	96	7	96
NMHLD	80	192	6	96
NMHLD	80	288	5	96
NMHLD	81	0	4	96
NMHLD	81	96	5	96
NMHLD	81	192	6	96
NMTAP	81	288	7
NMTAP	82	0	1
NMTAP	82	48	1
NMTAP	82	96	0
NMTAP	82	144	0
NMTAP	82	192	2
NMTAP	82	240	2
NMTAP	82	288	7
NMTAP	82	336	7
NMTAP	83	0	1
NMTAP	83	48	1
NMTAP	83	96	5
NMTAP	83	144	5
BRTAP	83	192	0
NMTAP	83	288	1
NMSTR	83	288	7
NMSI_	83	288	7	96	96	3
NMTAP	84	96	2
NMSTR	84	192	1
NMSCL	84	192	1	96	96	6
NMSTR	85	0	5
NMSCL	85	0	5	96	96	2
NMHLD	85	192	1	96
NMTAP	85	288	7
NMTAP	85	336	7
NMTAP	86	0	4
NMTAP	86	48	5
NMTAP	86	96	2
NMTAP	86	144	2
NMTAP	86	192	3
NMTAP	86	240	1
NMTAP	86	288	7
NMTAP	86	336	7
NMSTR	87	0	0
NMSF_	87	0	0	96	96	4
BRSTR	87	288	1
NMSI_	87	288	1	96	96	7
BRHLD	87	288	5	192
CNSI_	88	96	7	0	96	3
CNSI_	88	192	3	0	96	5
BRSTR	88	288	6
NMSI_	88	288	6	96	96	0
CNSI_	89	96	0	0	96	4
CNSI_	89	192	4	0	96	2
NMSTR	89	288	1
NMSCL	89	288	1	96	96	6
NMSTR	90	96	3
NMSCR	90	96	3	96	96	6
NMSTR	90	288	7
NMSCR	90	288	7	96	96	2
NMSTR	91	96	5
NMSCL	91	96	5	96	96	2
NMHLD	91	288	0	96
NMHLD	92	0	2	96
NMHLD	92	96	4	96
NMHLD	92	192	6	96
NMTAP	92	288	0
NMTAP	92	336	0
NMTAP	93	0	0
NMTAP	93	48	0
NMTAP	93	96	7
NMTAP	93	144	7
NMTAP	93	192	7
NMHLD	93	240	7	384
EXTAP	95	240	1
EXSTR	95	240	6
NMSCL	95	240	6	96	288	1
EXHLD	96	240	0	288
NMHLD	97	144	3	96
NMHLD	97	240	1	96
NMHLD	97	336	2	96
NMHLD	98	48	3	96
NMHLD	98	144	2	96
NMSTR	98	240	1
NMSI_	98	240	1	96	96	5
NMTAP	99	96	7
NMTAP	99	144	7
BXHLD	99	240	4	96
BXHLD	99	240	6	96
BXHLD	100	48	1	96
BXHLD	100	48	2	96
BXHLD	100	240	6	96
BXHLD	100	240	7	96
BXHLD	101	48	0	96
BXHLD	101	48	1	96
NMTHO	101	240	0	384	C	1	M1
NMTTP	101	240	4	B	0	M1
NMTTP	101	240	5	B	0	M1
NMTTP	101	240	5	E	0	M1
NMTTP	101	240	6	B	0	M1
NMTTP	101	240	6	E	0	M1
NMTAP	103	96	0
NMTAP	103	96	7
NMSTR	103	144	0
NMSLL	103	144	0	96	240	3
NMSTR	103	144	7
NMSLR	103	144	7	96	240	4
NMHLD	104	240	1	96
NMHLD	104	240	6	96
NMSTR	105	0	3
NMSI_	105	0	3	96	48	1
NMTAP	105	0	4
NMSTR	105	96	5
NMSI_	105	96	5	96	48	7
EXTAP	105	192	2
NMTAP	105	288	1
BXTAP	106	0	0
NMSTR	106	96	0
NMSI_	106	96	0	96	48	4
NMSTR	106	96	1
NMSI_	106	96	1	96	48	3
CNSI_	106	240	3	0	144	7
CNSI_	106	240	4	0	144	6
NMTAP	107	96	7
NMTAP	107	144	7
NMHLD	107	192	0	96
NMHLD	107	288	2	96
NMHLD	108	0	4	96
NMHLD	108	96	6	96
NMHLD	108	192	0	96
NMTAP	108	288	2
NMTAP	108	336	2
NMTAP	109	0	4
NMTAP	109	48	4
NMTAP	109	96	6
NMTAP	109	144	6
NMTAP	109	192	0
NMTAP	109	240	0
NMTAP	109	288	1
NMTAP	109	288	7
NMTAP	110	0	4
NMTAP	110	0	5
NMTAP	110	48	4
NMTAP	110	48	5
NMTAP	110	144	2
NMTAP	110	144	3
NMTAP	110	240	0
BXTAP	110	288	0
BXTAP	110	336	1
BXTAP	110	336	7
BXSTR	111	0	1
NMSUR	111	0	1	96	192	4
BXTAP	111	0	7
NMHLD	111	288	6	336
BXTAP	112	240	4
NMTAP	112	336	2
NMTAP	112	336	4
NMTAP	113	0	2
NMTAP	113	0	4
NMTAP	113	96	1
NMTAP	113	144	0
NMTAP	113	192	7
NMSTR	113	240	6
NMSI_	113	240	6	96	48	2
NMSTR	113	336	0
NMSI_	113	336	0	96	48	4
NMSTR	114	48	7
NMSI_	114	48	7	96	48	3
NMSTR	114	144	1
NMSI_	114	144	1	96	48	4
NMHLD	114	240	6	144
EXTAP	114	336	5
EXTAP	115	0	5
NMTAP	115	96	0
NMTAP	115	96	1
NMTAP	115	144	0
NMTAP	115	144	1
NMSTR	115	240	1
NMSI_	115	240	1	96	48	4
NMSTR	115	240	2
NMSI_	115	240	2	96	48	4
NMSTR	116	48	5
NMSI_	116	48	5	96	48	0
NMSTR	116	48	6
NMSI_	116	48	6	96	48	0
BXTAP	116	240	7
NMTAP	116	336	4
NMTAP	116	336	6
NMTAP	117	0	4
NMTAP	117	0	6
NMTAP	117	96	1
NMTAP	117	96	3
NMHLD	117	144	1	96
NMTAP	117	144	3
NMTAP	117	240	4
NMTAP	117	288	3
NMTAP	117	336	2
NMTAP	118	0	1
NMTAP	118	48	0
NMTAP	118	96	7
NMTAP	118	144	6
NMSTR	118	192	5
NMSI_	118	192	5	96	48	0
BXHLD	118	288	3	576
NMSTR	120	96	1
BRSI_	120	96	1	96	48	4
CNSI_	120	240	4	0	48	7

T_REC_TAP	322
T_REC_BRK	17
T_REC_XTP	26
T_REC_BXX	17
T_REC_HLD	68
T_REC_XHO	8
T_REC_BHO	3
T_REC_BXH	14
T_REC_STR	50
T_REC_BST	5
T_REC_XST	2
T_REC_XBS	3
T_REC_TTP	22
T_REC_THO	3
T_REC_SLD	57
T_REC_BSL	3
T_REC_ALL	620
T_NUM_TAP	422
T_NUM_BRK	62
T_NUM_HLD	79
T_NUM_SLD	57
T_NUM_ALL	620
T_JUDGE_TAP	464
T_JUDGE_HLD	317
T_JUDGE_SLD	60
T_JUDGE_ALL	841
TTM_EACHPAIRS	140
TTM_SCR_TAP	211000
TTM_SCR_BRK	161200
TTM_SCR_HLD	79000
TTM_SCR_SLD	85500
TTM_SCR_ALL	536700
TTM_SCR_S	514600
TTM_SCR_SS	530500
TTM_RAT_ACV	10116

