VERSION	0.00.00	1.05.00
FES_MODE	0
BPM_DEF	195.000	195.000	195.000	195.000
MET_DEF	4	4
RESOLUTION	384
CLK_DEF	384
COMPATIBLE_CODE	MA2

BPM	0	0	195.000
MET	0	0	4	4
MET	4	0	4	3
MET	4	288	4	4

EXTAP	7	0	6
EXTAP	7	96	6
EXTAP	7	192	6
NMTAP	8	0	5
NMTAP	8	96	5
NMTAP	8	192	5
NMTAP	9	0	4
NMTAP	9	96	4
NMTAP	9	192	4
NMTAP	10	0	3
NMTAP	10	96	3
NMTAP	10	192	3
NMTAP	11	0	2
NMTAP	11	96	2
NMTAP	11	192	2
NMTAP	12	0	0
NMTAP	12	0	1
NMTAP	12	96	0
NMTAP	12	96	1
NMHLD	12	288	0	672
NMHLD	12	288	7	672
EXTAP	15	0	0
EXTAP	15	96	0
EXTAP	15	192	1
NMTAP	16	0	2
NMTAP	16	96	2
NMTAP	16	192	3
NMTAP	17	0	4
NMTAP	17	96	4
NMTAP	17	192	5
NMTAP	18	0	6
NMTAP	18	96	6
NMTAP	18	192	0
NMTAP	18	192	7
NMTAP	19	0	7
NMTAP	19	96	7
NMTAP	19	192	6
NMTAP	20	0	5
NMTAP	20	96	5
NMTAP	20	192	4
NMTAP	21	0	3
NMTAP	21	96	3
NMTAP	21	192	2
NMTAP	22	0	1
NMTAP	22	96	1
NMTAP	22	192	0
NMTAP	22	192	7
NMTAP	23	0	1
NMTAP	23	96	1
NMTAP	23	192	0
NMTAP	23	192	1
NMTAP	24	0	2
NMTAP	24	96	2
NMTAP	24	192	2
NMTAP	24	192	3
NMTAP	25	0	4
NMTAP	25	96	4
NMTAP	25	192	4
NMTAP	25	192	5
NMTAP	26	0	6
NMTAP	26	0	7
NMTAP	26	96	6
NMTAP	26	96	7
NMTAP	26	192	6
NMTAP	26	192	7
NMTAP	27	0	6
NMTAP	27	96	6
NMTAP	27	192	6
NMTAP	27	192	7
NMTAP	28	0	5
NMTAP	28	96	5
NMTAP	28	192	4
NMTAP	28	192	5
NMTAP	29	0	3
NMTAP	29	96	3
NMTAP	29	192	2
NMTAP	29	192	3
NMTAP	30	0	0
NMTAP	30	0	1
NMTAP	30	96	0
NMTAP	30	96	1
NMSTR	30	288	1
NMSI_	30	288	1	96	288	4
NMTAP	32	96	5
NMSTR	32	288	6
NMSI_	32	288	6	96	288	3
NMTAP	34	96	2
NMSTR	34	288	1
NMSI_	34	288	1	96	288	5
NMTAP	36	96	6
NMHLD	36	288	4	384
NMHLD	36	288	5	384
EXTAP	38	96	4
EXTAP	38	192	4
EXTAP	38	288	5
EXTAP	39	0	5
EXTAP	39	96	6
EXTAP	39	192	6
EXTAP	39	288	7
EXTAP	40	0	7
EXTAP	40	96	0
EXTAP	40	96	1
NMTAP	40	288	2
NMTAP	41	0	2
NMTAP	41	96	1
NMTAP	41	192	1
NMTAP	41	288	0
NMTAP	42	0	0
NMTAP	42	96	6
NMTAP	42	96	7
NMTAP	42	288	6
NMTAP	43	0	6
NMTAP	43	96	5
NMTAP	43	192	5
NMTAP	43	288	4
NMTAP	44	0	4
NMTAP	44	96	2
NMTAP	44	96	3
NMTAP	44	288	1
NMTAP	45	0	1
NMTAP	45	96	2
NMTAP	45	192	2
NMTAP	45	288	3
NMTAP	46	0	3
NMTAP	46	96	4
NMTAP	46	96	5
NMSTR	46	288	3
NMSI_	46	288	3	96	288	0
NMSTR	46	288	4
NMSI_	46	288	4	96	288	7
EXTAP	48	288	1
EXTAP	49	0	1
EXTAP	49	96	0
EXTAP	49	96	1
EXTAP	49	192	0
EXTAP	49	192	1
EXTAP	49	288	7
EXTAP	50	0	7
EXTAP	50	96	6
EXTAP	50	96	7
NMTAP	50	288	6
NMTAP	51	0	6
NMTAP	51	96	4
NMTAP	51	96	5
NMTAP	51	192	4
NMTAP	51	192	5
NMTAP	51	288	3
NMTAP	52	0	3
NMTAP	52	96	2
NMTAP	52	96	3
NMTAP	52	288	1
NMTAP	53	0	1
NMTAP	53	96	2
NMTAP	53	96	3
NMTAP	53	192	2
NMTAP	53	192	3
NMTAP	53	288	4
NMTAP	54	0	4
NMTAP	54	96	4
NMTAP	54	96	5
BXTAP	54	288	3
BXTAP	54	288	4
EXHLD	56	0	2	192
EXTAP	56	192	3
NMTAP	57	0	2
NMTAP	57	96	2
NMTAP	57	192	2
NMTAP	57	192	3
NMHLD	58	0	1	192
NMTAP	58	192	0
NMTAP	59	0	1
NMTAP	59	96	1
NMTAP	59	192	0
NMTAP	59	192	1
NMHLD	60	0	6	192
NMTAP	60	192	7
NMTAP	61	0	6
NMTAP	61	96	6
NMTAP	61	192	6
NMSTR	61	288	6
NMSI_	61	288	6	96	288	3
NMSTR	61	288	7
NMSI_	61	288	7	96	288	2
NMTAP	64	0	4
NMTAP	64	96	4
NMTAP	64	192	5
NMTAP	65	0	6
NMTAP	65	96	6
NMTAP	65	192	7
NMTAP	66	0	0
NMTAP	66	96	0
NMTAP	66	192	1
NMTAP	67	0	2
NMTAP	67	96	2
NMTAP	67	192	2
NMTAP	67	192	3
NMTAP	68	0	3
NMTAP	68	96	3
NMTAP	68	192	2
NMTAP	69	0	1
NMTAP	69	96	1
NMTAP	69	192	0
NMTAP	70	0	7
NMTAP	70	96	7
NMTAP	70	192	6
NMTAP	71	0	5
NMTAP	71	96	5
NMTAP	71	192	4
NMTAP	71	192	5
EXTAP	72	0	3
EXTAP	72	0	5
EXTAP	72	144	3
EXTAP	72	144	5
EXTAP	72	288	3
EXTAP	72	288	5
EXTAP	73	48	3
EXTAP	73	48	5
EXTAP	73	192	3
EXTAP	73	192	5
NMTAP	74	0	4
NMTAP	74	96	4
NMTAP	74	192	5
NMTAP	74	288	5
NMTAP	75	0	6
NMTAP	75	96	6
NMTAP	75	192	0
NMTAP	75	192	7
NMTAP	76	0	0
NMTAP	76	96	0
NMTAP	76	192	1
NMTAP	76	288	1
NMTAP	77	0	2
NMTAP	77	96	2
NMSTR	77	192	3
NMSI_	77	192	3	96	288	0
NMSTR	77	192	4
NMSI_	77	192	4	96	288	7
NMTTP	79	288	6	B	0	L1
NMTTP	80	96	5	B	0	L1
NMTTP	80	288	4	B	0	L1
NMTTP	81	288	1	B	0	L1
NMTTP	82	96	2	B	0	L1
NMTTP	82	288	3	B	0	L1
NMTTP	83	288	6	B	0	L1
NMTTP	84	96	5	B	0	L1
NMTTP	84	288	4	B	0	L1
NMTTP	85	96	3	B	0	L1
NMTTP	85	288	2	B	0	L1
NMTTP	86	96	1	B	0	L1
NMTTP	86	288	0	C	1	L1
NMTAP	87	288	0
NMTAP	87	288	7
NMTAP	88	0	0
NMTAP	88	0	7
NMTAP	88	96	0
NMTAP	88	96	7
NMTAP	88	288	1
NMTAP	89	0	1
NMTAP	89	96	1
NMTAP	89	288	2
NMTAP	89	288	3
NMTAP	90	0	2
NMTAP	90	0	3
NMTAP	90	96	2
NMTAP	90	96	3
NMTAP	90	288	1
NMTAP	91	0	1
NMTAP	91	96	1
NMTAP	91	288	0
NMTAP	91	288	7
NMTAP	92	0	0
NMTAP	92	0	7
NMTAP	92	96	0
NMTAP	92	96	7
NMTAP	92	288	6
NMTAP	93	0	6
NMTAP	93	96	6
NMTAP	93	288	4
NMTAP	93	288	5
NMTAP	94	0	4
NMTAP	94	0	5
NMTAP	94	96	4
NMTAP	94	96	5
EXTAP	94	288	3
EXTAP	94	288	4
NMHLD	95	288	2	192
NMHLD	96	96	3	192
NMHLD	96	288	4	192
NMTAP	97	96	5
NMHLD	97	288	5	192
NMHLD	98	96	4	192
NMHLD	98	288	3	192
NMTAP	99	96	2
NMHLD	99	288	1	192
NMHLD	100	96	2	192
NMHLD	100	288	3	192
NMTAP	101	96	4
NMHLD	101	288	6	192
NMHLD	102	96	5	192
NMHLD	102	288	4	192
NMTAP	103	96	3
EXTAP	103	288	5
EXTAP	103	336	5
EXTAP	104	0	5
NMTAP	104	96	6
NMTAP	104	96	7
NMTAP	104	192	6
NMTAP	104	192	7
NMTAP	104	288	0
NMTAP	104	336	0
NMTAP	105	0	0
NMTAP	105	96	0
NMTAP	105	96	1
NMTAP	105	288	2
NMTAP	105	336	2
NMTAP	106	0	2
NMTAP	106	96	0
NMTAP	106	96	1
NMTAP	106	192	0
NMTAP	106	192	1
NMTAP	106	288	7
NMTAP	106	336	7
NMTAP	107	0	7
NMTAP	107	96	6
NMTAP	107	96	7
NMTAP	107	288	6
NMTAP	107	336	6
NMTAP	108	0	6
NMTAP	108	96	4
NMTAP	108	96	5
NMTAP	108	192	4
NMTAP	108	192	5
NMTAP	108	288	3
NMTAP	108	336	3
NMTAP	109	0	3
NMTAP	109	96	2
NMTAP	109	96	3
NMTAP	109	288	1
NMTAP	109	336	1
NMTAP	110	0	1
NMTAP	110	96	2
NMTAP	110	96	3
NMTAP	110	192	2
NMTAP	110	192	3
NMTAP	110	288	4
NMTAP	110	336	4
NMTAP	111	0	4
NMTAP	111	96	4
NMTAP	111	96	5
BRTAP	111	288	3
BRTAP	111	288	4
EXTAP	112	288	2
EXTAP	112	288	3
EXTAP	113	0	2
EXTAP	113	0	3
NMTAP	113	96	1
NMTAP	113	144	1
NMTAP	113	192	1
NMTAP	113	288	0
NMTAP	113	288	7
NMTAP	114	0	0
NMTAP	114	0	7
NMTAP	114	96	6
NMTAP	114	144	6
NMTAP	114	192	6
NMTAP	114	288	4
NMTAP	114	288	5
NMTAP	115	0	4
NMTAP	115	0	5
NMTAP	115	96	6
NMTAP	115	144	6
NMTAP	115	192	6
NMTAP	115	288	0
NMTAP	115	288	7
NMTAP	116	0	0
NMTAP	116	0	7
NMTAP	116	96	1
NMTAP	116	96	6
NMTAP	116	288	0
NMTAP	116	288	7
NMTAP	117	0	0
NMTAP	117	0	7
NMTAP	117	96	1
NMTAP	117	96	6
NMTAP	117	192	1
NMTAP	117	192	6
NMTAP	117	288	2
NMTAP	117	288	5
NMTAP	118	0	2
NMTAP	118	0	5
NMTAP	118	96	3
NMTAP	118	96	4
NMTAP	118	192	3
NMTAP	118	192	4
NMSTR	118	288	3
NMSXR	118	288	3	96	624	0
NMSTR	118	288	4
NMSXL	118	288	4	96	624	7

T_REC_TAP	294
T_REC_BRK	2
T_REC_XTP	46
T_REC_BXX	2
T_REC_HLD	18
T_REC_XHO	1
T_REC_BHO	0
T_REC_BXH	0
T_REC_STR	11
T_REC_BST	0
T_REC_XST	0
T_REC_XBS	0
T_REC_TTP	13
T_REC_THO	0
T_REC_SLD	11
T_REC_BSL	0
T_REC_ALL	398
T_NUM_TAP	364
T_NUM_BRK	4
T_NUM_HLD	19
T_NUM_SLD	11
T_NUM_ALL	398
T_JUDGE_TAP	368
T_JUDGE_HLD	104
T_JUDGE_SLD	11
T_JUDGE_ALL	483
TTM_EACHPAIRS	88
TTM_SCR_TAP	182000
TTM_SCR_BRK	10400
TTM_SCR_HLD	19000
TTM_SCR_SLD	16500
TTM_SCR_ALL	227900
TTM_SCR_S	220700
TTM_SCR_SS	227500
TTM_RAT_ACV	10017

