VERSION	0.00.00	1.05.00
FES_MODE	0
BPM_DEF	193.000	193.000	193.000	193.000
MET_DEF	4	4
RESOLUTION	384
CLK_DEF	384
COMPATIBLE_CODE	MA2

BPM	0	0	193.000
MET	0	0	4	4

NMSTR	1	0	0
NMSCR	1	0	0	96	672	7
NMSTR	3	0	0
NMSCR	3	0	0	96	672	7
NMSTR	5	0	0
NMSXL	5	0	0	96	192	2
CNSXL	5	288	2	0	384	4
CNSXL	6	288	4	0	384	6
CNSXL	7	288	6	0	288	0
NMTAP	9	0	7
NMTAP	9	96	7
NMTAP	9	192	0
NMTAP	9	288	0
NMTAP	10	0	1
NMTAP	10	96	1
NMTAP	10	192	2
NMTAP	10	288	2
NMTAP	10	336	3
NMHLD	11	0	1	384
NMTAP	11	0	4
NMTAP	11	96	3
NMTAP	11	192	3
NMTAP	11	288	3
NMTAP	12	0	3
NMTAP	12	96	2
NMTAP	12	96	5
NMTAP	12	144	3
NMTAP	12	168	4
NMTAP	12	192	2
NMTAP	12	192	5
NMTAP	12	240	2
NMSTR	12	240	5
BRSCR	12	240	5	96	48	0
BRTAP	12	336	1
NMSTR	13	48	2
NMSI_	13	48	2	96	48	0
NMTAP	13	96	3
NMTAP	13	144	5
NMHLD	13	192	6	96
NMSTR	13	288	7
NMSCL	13	288	7	96	48	4
NMTAP	13	336	0
NMHLD	14	0	1	96
NMTAP	14	96	3
NMTAP	14	144	2
NMTAP	14	192	3
NMTAP	14	192	5
NMSTR	14	240	6
NMSI_	14	240	6	96	48	0
NMTAP	14	288	4
BRTAP	14	336	3
NMTAP	15	48	1
NMSTR	15	96	1
NMSCR	15	96	1	96	48	4
NMTAP	15	144	0
NMTAP	15	192	7
NMTAP	15	288	7
NMTAP	15	336	6
NMTAP	16	0	4
NMTAP	16	0	5
NMTAP	16	48	3
NMTAP	16	96	2
NMTAP	16	144	1
NMTAP	16	192	0
NMTAP	16	192	1
NMSTR	16	240	0
NMSI_	16	240	0	96	48	4
NMTAP	16	240	1
NMTAP	16	288	2
NMTAP	16	288	7
BRTAP	16	336	3
NMSTR	17	48	2
NMSI_	17	48	2	96	48	0
NMTAP	17	96	2
NMTAP	17	144	7
NMHLD	17	192	6	96
NMSTR	17	288	7
NMSCL	17	288	7	96	48	4
NMTAP	17	336	0
NMTAP	18	0	1
NMTAP	18	96	1
NMTAP	18	144	2
NMTAP	18	192	3
NMTAP	18	192	5
NMSTR	18	240	6
NMSI_	18	240	6	96	48	2
NMTAP	18	288	7
BRTAP	18	336	0
NMTAP	19	48	1
NMSTR	19	96	1
NMSCR	19	96	1	96	48	4
NMTAP	19	144	0
NMTAP	19	192	7
NMTAP	19	288	7
NMTAP	19	336	6
NMTAP	20	0	4
NMTAP	20	0	5
NMTAP	20	48	3
NMTAP	20	96	2
NMTAP	20	96	4
NMTAP	20	144	1
NMTAP	20	192	2
NMTAP	20	192	3
NMTAP	20	240	2
NMTAP	20	240	3
NMTAP	20	288	1
NMSTR	20	288	4
NMSI_	20	288	4	96	48	7
NMTAP	20	336	1
NMTAP	20	336	4
NMHLD	21	0	1	288
BRTAP	21	0	4
NMTAP	21	288	7
NMHLD	22	0	2	192
NMTAP	22	0	6
NMTAP	22	96	6
NMTAP	22	192	6
NMTAP	22	288	2
NMTAP	22	288	6
NMHLD	23	0	3	192
NMTAP	23	0	5
NMTAP	23	96	5
NMTAP	23	192	5
NMTAP	23	288	4
NMTAP	23	288	5
NMTHO	24	0	0	192	C	0	M1
NMTAP	24	0	5
NMTAP	24	96	5
NMTAP	24	192	5
NMTAP	24	288	5
EXTAP	25	0	0
NMTAP	25	0	6
NMTAP	25	96	6
NMTTP	25	192	0	E	0	M1
NMTAP	25	192	6
NMTTP	25	288	0	C	0	M1
NMTAP	25	288	6
NMTTP	26	0	4	E	0	M1
NMTAP	26	0	6
NMTAP	26	96	6
NMTTP	26	192	5	E	0	M1
NMTAP	26	192	6
NMTTP	26	288	0	C	0	M1
NMTAP	26	288	6
NMTTP	27	0	0	A	0	M1
NMTTP	27	0	1	E	0	M1
NMTAP	27	0	6
NMTAP	27	96	6
NMTAP	27	192	6
NMTTP	27	192	7	B	0	M1
NMTTP	27	192	7	A	0	M1
NMTAP	27	288	6
NMTAP	28	0	0
NMTAP	28	0	6
NMTAP	28	96	1
NMTAP	28	96	5
NMTAP	28	144	2
NMTAP	28	168	3
NMTAP	28	192	2
NMTAP	28	240	1
NMTAP	28	240	4
NMTAP	28	288	1
NMTAP	28	288	4
NMTAP	28	336	1
NMTAP	28	336	4
NMTAP	29	0	3
NMTAP	29	48	2
NMTAP	29	96	1
NMSTR	29	96	3
NMSV_	29	96	3	96	48	0
NMTAP	29	192	2
NMTAP	29	288	1
NMSTR	29	336	1
NMSCR	29	336	1	96	48	3
NMTAP	30	48	0
NMTAP	30	96	0
NMTAP	30	192	2
NMTAP	30	192	4
NMTAP	30	240	3
NMTAP	30	336	5
NMTAP	31	0	4
NMTAP	31	0	6
NMTAP	31	48	4
NMTAP	31	48	6
NMSTR	31	96	4
NMSV_	31	96	4	96	48	7
NMTAP	31	96	6
NMTAP	31	192	5
NMTAP	31	288	6
NMSTR	31	336	6
NMSCL	31	336	6	96	48	3
NMTAP	32	48	7
NMTAP	32	96	0
NMTAP	32	144	1
EXTAP	32	192	7
NMTAP	32	240	6
NMTAP	32	288	5
NMTAP	32	288	7
NMTAP	32	336	0
NMTAP	33	0	1
NMTAP	33	48	0
NMTAP	33	48	1
NMSTR	33	96	0
NMSV_	33	96	0	96	48	3
NMTAP	33	96	1
NMSTR	33	192	2
NMSI_	33	192	2	96	48	0
NMTAP	33	288	4
NMSTR	33	336	4
NMSI_	33	336	4	96	48	6
NMTAP	34	48	7
NMSTR	34	96	7
BRSI_	34	96	7	96	48	3
NMTAP	34	192	6
NMTAP	34	240	5
NMHLD	34	288	4	96
NMSTR	35	0	2
NMSCL	35	0	2	96	96	6
NMTAP	35	96	4
NMSTR	35	192	5
NMSCR	35	192	5	96	96	1
NMTAP	35	288	3
NMSTR	36	0	2
NMSLL	36	0	2	96	96	4
NMTAP	36	96	4
NMTAP	36	192	5
NMTAP	36	240	5
BRTAP	36	288	3
BRTAP	36	288	7
EXTAP	37	0	4
NMHLD	37	0	6	384
NMHLD	38	0	7	384
NMHLD	39	0	0	384
NMHLD	40	0	1	384
NMTHO	41	0	0	1152	C	0	M1
NMTTP	42	0	1	B	0	M1
NMTTP	42	0	2	B	0	M1
NMTTP	43	0	5	B	0	M1
NMTTP	43	0	6	B	0	M1
NMTAP	44	0	0
NMSTR	44	96	0
NMSCR	44	96	0	96	120	5
NMSTR	44	96	7
NMSI_	44	96	7	96	48	1
CNSI_	44	240	1	0	24	3
CNSI_	44	264	3	0	48	5
BRTAP	45	0	7
NMTAP	45	192	1
NMHLD	45	192	6	96
NMTAP	45	240	2
NMTAP	45	288	3
NMTAP	45	336	4
NMTAP	46	0	3
NMTAP	46	0	5
NMTAP	46	96	4
NMTAP	46	96	6
NMTAP	46	144	4
NMTAP	46	144	6
NMTAP	46	240	3
NMTAP	46	240	5
NMTAP	46	288	3
NMSTR	46	288	5
NMSLR	46	288	5	96	96	2
NMHLD	47	0	1	96
NMSTR	47	192	2
NMSI_	47	192	2	96	48	7
NMTAP	47	192	3
NMTAP	47	288	4
CNSI_	47	336	7	0	48	5
NMTAP	48	0	4
NMTAP	48	96	5
NMTAP	48	192	5
NMTAP	48	240	4
NMSTR	48	288	3
NMSI_	48	288	3	96	288	7
NMTAP	48	336	2
NMHLD	49	0	1	672
BXHLD	50	192	7	96
BRTAP	51	0	1
BRTAP	51	0	4
NMTAP	51	96	2
NMTAP	51	96	3
NMTAP	51	144	2
NMTAP	51	144	3
NMTAP	51	192	3
NMTAP	51	192	4
NMTAP	51	240	3
NMTAP	51	240	4
NMTAP	51	288	4
NMTAP	51	288	5
NMTAP	51	336	4
NMTAP	51	336	5
NMTAP	52	0	3
NMTAP	52	0	6
NMTAP	52	48	3
NMSTR	52	48	6
NMSI_	52	48	6	96	48	2
NMHLD	52	144	0	240
NMSTR	52	144	6
NMSI_	52	144	6	96	48	0
CNSI_	52	288	0	0	96	4
CNSCR	53	0	4	0	192	3
BXTAP	53	336	0
BXSTR	53	336	6
NMSI_	53	336	6	96	48	3
NMTAP	54	48	7
CNSI_	54	96	3	0	48	0
NMSTR	54	96	7
NMSV_	54	96	7	96	48	2
NMSV_	54	96	7	96	48	4
EXTAP	54	192	7
NMSTR	54	288	1
NMSI_	54	288	1	96	48	4
NMSTR	54	288	5
NMSI_	54	288	5	96	48	0
BRTAP	55	0	1
BRTAP	55	0	5
NMTAP	55	96	7
NMTAP	55	144	0
NMSTR	55	144	6
NMSCR	55	144	6	96	48	1
NMSTR	55	240	2
NMSCR	55	240	2	96	48	5
NMTAP	55	240	6
NMTAP	55	336	2
NMTAP	55	336	7
NMTAP	56	48	6
NMTAP	56	48	7
NMSTR	56	96	6
NMSI_	56	96	6	96	48	4
NMSTR	56	96	7
NMSI_	56	96	7	96	48	4
NMTAP	56	192	6
NMTAP	56	192	7
NMTAP	56	288	2
NMSTR	56	288	3
NMSCL	56	288	3	96	144	4
BRTAP	57	0	0
NMTAP	57	0	3
NMTAP	57	192	2
NMTAP	57	240	2
NMTAP	57	288	1
NMTAP	57	288	3
NMSTR	57	336	0
NMSV_	57	336	0	96	48	5
NMTAP	57	336	4
NMTAP	58	48	7
NMSTR	58	96	7
NMSI_	58	96	7	96	96	1
NMTAP	58	192	4
CNSI_	58	288	1	0	96	6
NMTAP	58	288	3
NMTAP	59	0	2
CNSI_	59	0	6	0	96	2
EXTAP	59	96	0
NMSTR	59	144	0
NMSCR	59	144	0	96	48	3
NMTAP	59	240	0
NMTAP	59	240	3
NMSTR	59	336	5
NMSI_	59	336	5	96	48	7
NMTAP	60	48	4
NMSTR	60	96	4
NMSCL	60	96	4	96	48	2
NMSTR	60	192	4
NMSCR	60	192	4	96	48	6
NMSTR	60	288	4
NMSI_	60	288	4	96	48	1
NMSI_	60	288	4	96	48	7
EXTAP	61	0	4
BRTAP	61	96	2
BRTAP	61	96	6
NMTAP	61	192	5
NMSTR	61	240	4
NMSCR	61	240	4	96	48	6
NMTAP	61	288	2
BXSTR	61	336	1
NMSI_	61	336	1	96	48	4
NMTAP	62	48	0
NMSTR	62	96	0
NMSV_	62	96	0	96	48	3
NMSV_	62	96	0	96	48	5
CNSI_	62	96	4	0	48	7
EXTAP	62	192	0
NMSTR	62	288	2
NMSI_	62	288	2	96	48	7
NMSTR	62	288	6
NMSI_	62	288	6	96	48	3
BRTAP	63	0	2
BRTAP	63	0	6
NMTAP	63	96	0
NMTAP	63	96	4
NMTAP	63	144	1
NMSTR	63	144	5
NMSCR	63	144	5	96	48	0
NMSTR	63	240	2
NMSI_	63	240	2	96	48	4
NMTAP	63	240	5
NMTAP	63	336	2
NMTAP	63	336	7
NMTAP	64	48	6
NMTAP	64	48	7
NMSTR	64	96	6
NMSI_	64	96	6	96	48	4
NMSTR	64	96	7
NMSI_	64	96	7	96	48	4
NMSTR	64	192	6
NMSI_	64	192	6	96	48	1
NMSTR	64	192	7
NMSI_	64	192	7	96	48	1
NMTAP	64	288	6
NMSTR	64	288	7
NMSF_	64	288	7	96	48	3
EXTAP	65	0	7
NMTAP	65	96	1
NMTAP	65	96	5
NMTAP	65	192	2
NMTAP	65	192	6
NMSTR	65	240	2
NMSXR	65	240	2	96	144	3
NMSTR	65	240	6
NMSXR	65	240	6	96	144	7
BRTAP	65	336	2
BRTAP	65	336	6
NMTAP	66	192	0
NMTAP	66	240	2
NMSTR	66	288	4
NMSCR	66	288	4	96	96	0
NMSTR	67	0	0
NMSCR	67	0	0	96	96	4
NMSTR	67	96	4
NMSCR	67	96	4	96	96	0
BRSTR	67	192	0
NMSCR	67	192	0	96	96	4
NMTAP	67	288	4
NMTTP	68	0	0	C	1	M1
NMTAP	68	96	1
NMTAP	68	96	7
NMTAP	68	192	0
NMTAP	68	240	1
NMSTR	68	288	4
NMSCR	68	288	4	96	48	7
NMTAP	68	336	5
BRTAP	69	0	0
EXTAP	69	96	1
EXTAP	69	96	6
NMTAP	69	192	2
NMTAP	69	216	4
NMTAP	69	240	3
NMTAP	69	264	4
NMTAP	69	288	2
NMTAP	69	312	4
NMTAP	69	336	3
NMTAP	69	360	4
NMSTR	70	0	1
NMSI_	70	0	1	96	48	6
NMTAP	70	96	1
NMSTR	70	96	5
NMSI_	70	96	5	96	48	0
NMTAP	70	192	5
NMTAP	70	240	1
NMSTR	70	288	7
NMSCL	70	288	7	96	48	4
NMTAP	70	336	3
NMSTR	71	0	7
NMSCR	71	0	7	96	48	2
NMTAP	71	96	7
NMTAP	71	192	3
NMTAP	71	192	5
NMTAP	71	240	6
NMSTR	71	288	0
NMSI_	71	288	0	96	48	4
NMTAP	71	336	1
NMTAP	72	0	0
NMTAP	72	0	7
NMSTR	72	96	6
NMSCR	72	96	6	96	96	1
NMSTR	72	192	1
NMSCR	72	192	1	96	96	4
NMSTR	72	288	4
NMSCR	72	288	4	96	96	7
NMTAP	73	0	7
NMTAP	73	96	0
NMTAP	73	144	0
NMSTR	73	192	0
NMSI_	73	192	0	96	48	4
NMSTR	73	288	0
NMSCL	73	288	0	96	48	5
NMSTR	73	288	7
NMSCR	73	288	7	96	48	2
EXTAP	74	0	0
EXTAP	74	0	7
NMTAP	74	96	3
NMTAP	74	120	4
NMTAP	74	144	3
NMTAP	74	168	4
NMTAP	74	192	3
NMTAP	74	216	4
NMTAP	74	240	3
NMTAP	74	264	4
NMTAP	74	288	3
NMTAP	74	312	5
NMTAP	74	336	3
NMTAP	74	360	5
NMTAP	75	0	2
NMTAP	75	24	6
NMTAP	75	48	2
NMTAP	75	72	6
NMTAP	75	96	2
NMTAP	75	120	6
NMTAP	75	144	2
NMTAP	75	168	6
NMTAP	75	192	1
NMTAP	75	216	7
NMTAP	75	240	1
NMTAP	75	264	7
NMSTR	75	288	0
NMSI_	75	288	0	96	48	4
NMTAP	75	312	6
NMTAP	75	336	0
NMTAP	75	360	6
EXTAP	76	0	0
NMTAP	76	96	7
NMTAP	76	120	6
NMTAP	76	144	5
NMTAP	76	168	4
NMTAP	76	192	7
NMTAP	76	216	0
NMTAP	76	240	1
NMTAP	76	264	2
NMTAP	76	288	4
NMTAP	76	312	5
NMTAP	76	336	6
NMTAP	76	360	7
NMTAP	77	0	0
NMHLD	77	0	4	384
NMSTR	78	0	0
NMSCR	78	0	0	96	576	7
NMTTP	78	192	6	E	0	M1
NMTTP	79	0	4	E	0	M1
NMTTP	79	192	2	E	0	M1
NMTAP	79	288	0
NMTAP	79	336	0
NMHLD	80	0	0	96
NMTAP	80	96	6
NMTAP	80	192	5
NMTAP	80	192	7
NMTAP	80	288	4
NMTAP	80	288	6
NMHLD	81	0	3	96
NMTAP	81	0	5
NMSTR	81	96	4
NMSCL	81	96	4	96	24	3
NMSCR	81	96	4	96	24	5
CNSI_	81	216	3	0	24	1
CNSI_	81	216	5	0	24	7
NMTTP	81	336	0	C	1	M1
NMTTP	81	336	3	B	0	M1
NMTTP	81	336	4	B	0	M1
NMTTP	81	336	5	B	0	M1
NMSTR	82	48	1
NMSI_	82	48	1	96	48	4
NMTAP	82	96	0
NMTAP	82	144	1
NMSTR	82	192	0
NMSCL	82	192	0	96	96	4
NMTAP	82	288	4
NMTAP	82	336	2
NMSTR	83	0	0
NMSLR	83	0	0	96	96	4
NMTAP	83	96	3
NMTAP	83	144	5
NMSTR	83	192	6
NMSI_	83	192	6	96	48	3
NMSTR	83	240	7
NMSCR	83	240	7	96	48	2
NMTAP	83	288	6
NMTAP	83	336	7
NMTAP	84	48	3
NMSTR	84	96	3
NMSCR	84	96	3	96	48	6
NMTAP	84	144	2
NMTAP	84	192	3
NMTAP	84	288	0
NMTAP	84	288	1
NMTAP	84	336	2
NMTAP	84	336	7
NMTAP	85	0	3
NMTAP	85	0	6
NMTAP	85	48	5
NMTAP	85	96	1
NMTAP	85	96	4
NMTAP	85	144	0
NMTAP	85	192	6
NMTAP	85	192	7
NMTAP	85	240	6
NMSTR	85	240	7
NMSI_	85	240	7	96	48	3
NMTAP	85	288	0
BRTAP	85	336	4
NMSTR	86	48	6
NMSI_	86	48	6	96	48	0
NMTAP	86	96	5
NMTAP	86	144	3
NMHLD	86	192	2	96
NMSTR	86	288	3
NMSCL	86	288	3	96	48	0
NMTAP	86	336	4
NMTAP	87	0	5
NMTAP	87	96	5
NMTAP	87	144	6
NMTAP	87	192	1
NMTAP	87	192	7
NMSTR	87	240	2
NMSI_	87	240	2	96	48	6
NMTAP	87	288	3
BRTAP	87	336	4
NMTAP	88	48	5
NMSTR	88	96	5
NMSCR	88	96	5	96	48	0
NMTAP	88	144	4
NMTAP	88	192	3
NMTAP	88	288	3
NMTAP	88	336	2
NMTAP	89	0	1
NMTAP	89	0	4
NMTAP	89	48	5
NMTAP	89	96	3
NMTAP	89	96	6
NMTAP	89	144	2
NMTAP	89	192	1
NMTAP	89	192	5
NMTAP	89	240	1
NMTAP	89	240	5
NMTAP	89	288	1
NMTAP	89	288	5
NMTAP	89	336	1
NMTAP	89	336	5
NMTAP	90	0	2
NMTAP	90	24	4
NMTAP	90	48	2
NMTAP	90	72	4
NMHLD	90	96	3	24
NMTAP	90	144	6
NMTAP	90	168	4
NMTAP	90	192	6
NMTAP	90	216	4
NMHLD	90	240	5	24
NMSTR	90	288	1
NMSI_	90	288	1	96	48	5
NMTAP	90	312	7
NMTAP	90	336	0
NMTAP	90	360	7
BRSTR	91	0	1
BRSCR	91	0	1	96	672	1
NMTTP	91	1	0	C	1	M1
CNSCL	93	0	1	0	576	1
BXHLD	94	336	1	144
BXTAP	94	336	7
NMSTR	95	96	0
NMSI_	95	96	0	96	48	5
NMSTR	95	192	3
NMSCL	95	192	3	96	96	0
CNSI_	95	240	5	0	48	3
NMSTR	95	288	0
NMSLL	95	288	0	96	96	3
NMTAP	96	0	3
NMTAP	96	96	1
NMTAP	96	144	1
NMTAP	96	192	2
EXSTR	96	240	3
BRSI_	96	240	3	96	48	7
NMTAP	96	288	2
NMTAP	96	288	4
NMHLD	96	336	1	336
BRTAP	96	336	3
NMSTR	98	0	1
NMSI_	98	0	1	96	48	7
NMTAP	98	72	7
NMSTR	98	96	1
BRSCR	98	96	1	96	96	6
NMTAP	98	144	6
NMTTP	98	192	4	E	1	M1
EXSTR	98	336	0
NMSCR	98	336	0	96	48	2
EXTAP	98	336	7
NMTAP	99	48	4
CNSI_	99	96	2	0	48	6
NMSTR	99	96	4
NMSV_	99	96	4	96	48	1
NMSV_	99	96	4	96	48	7
EXTAP	99	192	4
NMSTR	99	288	2
NMSI_	99	288	2	96	48	7
NMSTR	99	288	6
NMSI_	99	288	6	96	48	3
BRTAP	100	0	2
BRTAP	100	0	6
NMTAP	100	96	0
NMTAP	100	96	4
NMSTR	100	144	1
NMSCR	100	144	1	96	48	4
NMTAP	100	144	5
NMTAP	100	240	1
NMSTR	100	240	6
NMSI_	100	240	6	96	48	0
NMTAP	100	336	3
NMTAP	100	336	6
NMTAP	101	48	2
NMTAP	101	48	3
NMSTR	101	96	2
NMSI_	101	96	2	96	48	0
NMSTR	101	96	3
NMSI_	101	96	3	96	48	0
NMSTR	101	192	2
NMSI_	101	192	2	96	48	5
NMSTR	101	192	3
NMSI_	101	192	3	96	48	5
NMTAP	101	288	2
NMSTR	101	288	3
NMSF_	101	288	3	96	48	7
EXTAP	102	0	3
NMSTR	102	96	1
NMSXR	102	96	1	96	96	2
NMSTR	102	96	5
NMSXR	102	96	5	96	96	6
BXSTR	102	336	3
NMSXL	102	336	3	96	120	4
BXSTR	102	336	7
NMSXL	102	336	7	96	120	0
CNSCL	103	168	0	0	24	7
CNSCL	103	168	4	0	24	3
NMSTR	103	288	5
NMSI_	103	288	5	96	48	0
NMSTR	104	0	2
NMSI_	104	0	2	96	48	7
NMTAP	104	96	2
NMSTR	104	96	4
NMSCR	104	96	4	96	96	3
NMTTP	104	192	0	C	1	M1
NMTAP	104	192	4
BRTAP	105	0	0
BRTAP	105	0	7
NMTAP	105	96	3
NMTAP	105	96	5
NMSTR	105	192	6
NMSI_	105	192	6	96	48	2
NMTAP	105	240	5
NMSTR	105	288	0
NMSI_	105	288	0	96	48	3
NMSI_	105	288	0	96	48	5
NMTAP	105	336	1
EXTAP	106	0	0
NMTAP	106	96	2
NMTAP	106	96	6
NMTAP	106	192	1
NMTAP	106	216	7
NMTAP	106	240	0
NMTAP	106	264	7
NMTAP	106	288	1
NMTAP	106	312	7
NMTAP	106	336	0
NMTAP	106	360	7
NMSTR	107	0	2
NMSI_	107	0	2	96	48	5
NMTAP	107	96	2
NMSTR	107	96	6
NMSI_	107	96	6	96	48	3
NMTAP	107	192	6
NMTAP	107	240	2
NMSTR	107	288	4
NMSCR	107	288	4	96	48	7
NMTAP	107	336	0
NMSTR	108	0	4
NMSCL	108	0	4	96	48	1
NMTAP	108	96	4
NMTAP	108	192	0
NMTAP	108	192	6
NMTAP	108	240	5
NMSTR	108	288	3
NMSI_	108	288	3	96	48	7
NMTAP	108	336	2
NMTAP	109	0	3
NMTAP	109	0	4
NMSTR	109	96	5
NMSCL	109	96	5	96	96	2
NMSTR	109	192	2
NMSCL	109	192	2	96	96	7
NMSTR	109	288	7
NMSCL	109	288	7	96	96	4
NMTAP	110	0	4
NMTAP	110	96	3
NMTAP	110	144	3
NMSTR	110	192	3
NMSI_	110	192	3	96	48	7
NMSTR	110	288	3
NMSCR	110	288	3	96	48	6
NMSTR	110	288	4
NMSCL	110	288	4	96	48	1
EXTAP	111	0	3
EXTAP	111	0	4
NMTAP	111	96	0
NMTAP	111	120	7
NMTAP	111	144	0
NMTAP	111	168	7
NMTAP	111	192	0
NMTAP	111	216	7
NMTAP	111	240	0
NMTAP	111	264	7
NMTAP	111	288	1
NMTAP	111	312	6
NMTAP	111	336	2
NMTAP	111	360	5
NMTAP	112	0	3
NMTAP	112	24	4
NMTAP	112	48	3
NMTAP	112	72	4
NMTAP	112	96	2
NMTAP	112	120	4
NMTAP	112	144	2
NMTAP	112	168	4
NMTAP	112	192	3
NMTAP	112	216	5
NMTAP	112	240	3
NMTAP	112	264	5
NMSTR	112	288	2
NMSI_	112	288	2	96	48	7
NMTAP	112	312	4
NMTAP	112	336	2
NMTAP	112	360	4
BRTAP	113	0	2
NMTAP	113	96	6
NMTAP	113	120	5
NMTAP	113	144	4
NMTAP	113	168	3
NMTAP	113	192	7
NMTAP	113	216	0
NMTAP	113	240	1
NMTAP	113	264	2
NMTAP	113	288	4
NMTAP	113	312	5
NMTAP	113	336	6
NMTAP	113	360	7
NMTHO	114	0	0	384	C	1	M1
BXSTR	115	0	7
BRSUR	115	0	7	96	192	0
CNSCR	115	288	0	0	288	7
NMTAP	116	288	0
NMTAP	116	288	7
NMHLD	116	336	1	432
NMTAP	116	336	6
NMTAP	117	96	4
NMTAP	117	192	3
NMTAP	117	288	2
NMTAP	118	0	0
NMSTR	118	96	1
NMSI_	118	96	1	96	48	4
NMSTR	118	96	7
NMSI_	118	96	7	96	48	4
CNSI_	118	240	4	0	48	2
CNSI_	118	240	4	0	48	6

T_REC_TAP	461
T_REC_BRK	28
T_REC_XTP	19
T_REC_BXX	2
T_REC_HLD	24
T_REC_XHO	0
T_REC_BHO	0
T_REC_BXH	2
T_REC_STR	126
T_REC_BST	2
T_REC_XST	2
T_REC_XBS	5
T_REC_TTP	24
T_REC_THO	3
T_REC_SLD	135
T_REC_BSL	6
T_REC_ALL	839
T_NUM_TAP	632
T_NUM_BRK	45
T_NUM_HLD	27
T_NUM_SLD	135
T_NUM_ALL	839
T_JUDGE_TAP	669
T_JUDGE_HLD	158
T_JUDGE_SLD	141
T_JUDGE_ALL	968
TTM_EACHPAIRS	136
TTM_SCR_TAP	316000
TTM_SCR_BRK	117000
TTM_SCR_HLD	27000
TTM_SCR_SLD	202500
TTM_SCR_ALL	662500
TTM_SCR_S	638300
TTM_SCR_SS	658000
TTM_RAT_ACV	10068

