VERSION	0.00.00	1.05.00
FES_MODE	0
BPM_DEF	193.000	193.000	193.000	193.000
MET_DEF	4	4
RESOLUTION	384
CLK_DEF	384
COMPATIBLE_CODE	MA2

BPM	0	0	193.000
MET	0	0	4	4

NMSTR	1	0	1
NMSCR	1	0	1	96	288	5
NMSTR	3	0	6
NMSCL	3	0	6	96	288	2
NMSTR	5	0	0
NMSI_	5	0	0	96	192	4
NMSTR	6	0	7
NMSI_	6	0	7	96	192	3
NMSTR	7	0	1
NMSI_	7	0	1	96	192	5
NMHLD	8	0	6	384
NMTAP	9	0	4
NMTAP	9	96	4
NMTAP	9	192	4
NMTAP	9	288	4
NMTAP	10	0	3
NMTAP	10	96	3
NMTAP	10	192	2
NMTAP	10	288	1
NMHLD	10	336	1	432
NMTAP	11	96	3
NMTAP	11	192	3
NMTAP	11	288	3
NMTAP	12	0	4
NMTAP	12	96	4
NMTAP	12	192	3
NMTAP	12	192	5
NMTAP	12	240	3
NMTAP	12	240	5
NMHLD	12	336	6	96
NMTAP	13	48	4
NMTAP	13	96	4
NMHLD	13	192	1	96
NMTAP	13	288	3
NMTAP	14	0	4
NMTAP	14	0	5
NMSTR	14	96	6
NMSI_	14	96	6	96	48	2
NMTAP	14	288	1
NMHLD	14	336	1	96
NMTAP	15	48	3
NMTAP	15	96	3
NMHLD	15	192	6	96
NMTAP	15	288	4
NMTAP	16	0	2
NMTAP	16	48	2
NMTAP	16	96	3
NMTAP	16	144	1
NMTAP	16	192	5
NMTAP	16	240	5
NMTAP	16	288	4
BXHLD	16	336	7	96
NMTAP	17	48	0
NMTAP	17	96	0
NMTAP	17	192	6
NMTAP	17	288	4
NMTAP	17	288	5
NMTAP	18	0	2
NMTAP	18	0	3
NMSTR	18	96	1
NMSI_	18	96	1	96	48	5
NMTAP	18	288	6
NMHLD	18	336	6	96
NMTAP	19	48	4
NMTAP	19	96	4
NMHLD	19	192	1	96
NMTAP	19	288	3
NMHLD	20	0	2	96
NMHLD	20	0	4	96
EXTAP	20	192	1
EXTAP	20	192	5
EXTAP	20	288	1
EXTAP	20	288	5
NMHLD	21	0	6	1536
NMTAP	21	192	4
NMTAP	21	288	4
NMTAP	22	0	3
NMTAP	22	96	3
NMTAP	22	192	4
NMTAP	22	288	4
NMTAP	23	0	5
NMTAP	23	96	5
NMTAP	23	192	7
NMTAP	23	288	7
NMTAP	24	0	0
NMSTR	24	96	0
NMSUL	24	96	0	96	96	4
NMTAP	25	0	3
NMHLD	25	96	2	1056
NMTAP	25	192	4
NMTAP	25	288	4
NMTAP	26	0	3
NMTAP	26	96	3
NMTAP	26	192	1
NMTAP	26	288	1
NMTAP	27	0	0
NMTAP	27	96	0
NMTAP	27	192	7
NMTAP	27	288	7
NMTAP	28	0	4
NMTAP	28	96	1
NMTAP	28	96	5
NMTAP	28	192	0
NMTAP	28	288	2
NMTAP	28	288	6
NMSTR	29	0	7
NMSI_	29	0	7	96	96	3
NMHLD	29	192	1	144
NMTAP	29	336	3
NMTAP	30	0	3
NMTAP	30	96	2
NMTAP	30	96	4
NMTAP	30	192	4
NMTAP	30	192	5
NMTAP	30	288	6
NMTAP	30	288	7
NMSTR	31	0	0
NMSI_	31	0	0	96	96	4
NMHLD	31	192	5	144
NMTAP	31	336	4
NMTAP	32	0	4
NMTAP	32	96	3
NMTAP	32	96	5
NMTAP	32	192	2
NMTAP	32	192	3
NMTAP	32	288	0
NMTAP	32	288	1
NMSTR	33	0	6
NMSI_	33	0	6	96	96	2
NMTAP	33	0	7
NMHLD	33	192	0	144
NMTAP	33	336	2
NMTAP	34	0	2
NMTAP	34	96	2
NMTAP	34	96	3
NMTAP	34	192	4
NMTAP	34	192	5
NMTAP	34	288	6
NMTAP	34	288	7
NMTAP	35	0	0
NMSTR	35	0	1
NMSI_	35	0	1	96	96	5
NMHLD	35	192	6	144
NMTAP	35	336	7
NMTAP	36	0	7
NMSTR	36	96	1
NMSI_	36	96	1	96	96	5
NMSTR	36	96	7
NMSI_	36	96	7	96	96	3
NMHLD	37	0	6	288
NMTAP	37	288	4
NMHLD	38	0	4	288
NMTAP	38	288	3
NMHLD	39	0	3	288
NMTAP	39	288	1
NMTAP	40	0	1
NMTAP	40	192	2
NMTAP	40	192	3
NMHLD	41	0	1	288
NMTAP	41	288	3
NMHLD	42	0	3	288
NMTAP	42	288	4
NMHLD	43	0	4	288
NMTAP	43	288	6
NMTAP	44	0	6
BRSTR	44	192	7
NMSI_	44	192	7	96	96	3
NMTAP	45	0	2
NMTAP	45	96	2
NMTAP	45	192	2
NMTAP	45	288	2
NMTAP	46	0	1
NMTAP	46	0	3
NMTAP	46	96	1
NMTAP	46	96	3
NMTAP	46	192	2
NMTAP	46	192	4
NMTAP	46	288	2
NMTAP	46	288	4
NMTAP	47	0	5
NMTAP	47	96	5
NMTAP	47	192	5
NMTAP	47	288	5
NMTAP	48	0	4
NMTAP	48	0	6
NMTAP	48	96	4
NMTAP	48	96	6
NMTAP	48	192	3
NMTAP	48	192	5
NMTAP	48	288	3
NMTAP	48	288	5
NMSTR	49	0	2
NMSI_	49	0	2	96	96	7
NMTAP	49	192	6
NMTAP	49	288	5
NMSTR	50	0	5
NMSI_	50	0	5	96	96	0
NMTAP	50	192	1
NMTAP	50	288	2
BXHLD	51	0	3	192
BXHLD	51	0	7	192
NMTAP	51	288	2
NMTAP	52	0	1
NMTAP	52	0	5
NMSTR	52	48	1
NMSCR	52	48	1	96	144	4
NMSTR	52	48	5
NMSCR	52	48	5	96	144	0
BRTAP	53	336	0
BRTAP	53	336	5
NMTAP	54	48	6
NMTAP	54	48	7
NMSTR	54	96	6
NMSI_	54	96	6	96	48	3
NMSTR	54	96	7
NMSI_	54	96	7	96	48	3
NMSTR	54	288	0
NMSI_	54	288	0	96	48	4
NMSTR	54	288	1
NMSI_	54	288	1	96	48	4
NMTAP	55	96	6
NMHLD	55	144	6	96
NMTAP	55	240	4
NMTAP	55	336	6
NMTAP	55	336	7
NMTAP	56	48	0
NMTAP	56	48	1
NMSTR	56	96	0
NMSI_	56	96	0	96	48	4
NMSTR	56	96	1
NMSI_	56	96	1	96	48	4
NMSTR	56	288	6
NMSCL	56	288	6	96	96	3
NMSTR	56	288	7
NMSUL	56	288	7	96	96	2
NMTAP	57	192	1
NMHLD	57	240	1	96
NMTAP	57	336	0
NMTAP	58	48	2
NMTAP	58	48	3
NMTAP	58	96	2
NMTAP	58	96	3
NMTAP	58	192	4
NMTAP	58	192	5
NMTAP	58	288	6
NMTAP	58	288	7
NMHLD	59	0	0	96
NMTAP	59	96	2
NMTAP	59	144	2
NMTAP	59	240	2
NMTAP	59	240	3
NMTAP	59	336	0
NMTAP	59	336	1
NMTAP	60	48	6
NMTAP	60	48	7
NMTAP	60	96	6
NMTAP	60	96	7
NMTAP	60	192	4
NMTAP	60	192	5
NMTAP	60	288	2
NMTAP	60	288	3
EXTAP	61	0	4
EXTAP	61	0	6
EXTAP	61	96	1
EXTAP	61	96	3
NMTAP	61	192	4
NMTAP	61	192	5
NMTAP	61	240	4
NMTAP	61	240	5
NMTAP	61	336	6
NMTAP	61	336	7
NMTAP	62	48	0
NMTAP	62	48	1
NMSTR	62	96	0
NMSI_	62	96	0	96	48	4
NMSTR	62	96	1
NMSI_	62	96	1	96	48	4
NMSTR	62	288	6
NMSI_	62	288	6	96	48	3
NMSTR	62	288	7
NMSI_	62	288	7	96	48	3
NMTAP	63	96	1
NMHLD	63	144	1	96
NMTAP	63	240	3
NMTAP	63	336	0
NMTAP	63	336	1
NMTAP	64	48	6
NMTAP	64	48	7
NMSTR	64	96	6
NMSI_	64	96	6	96	48	3
NMSTR	64	96	7
NMSI_	64	96	7	96	48	3
NMTAP	64	288	2
NMTAP	65	0	0
NMTAP	65	0	1
NMTAP	65	96	6
NMTAP	65	96	7
NMTAP	65	192	4
NMTAP	65	192	5
NMSTR	65	240	4
NMSUR	65	240	4	96	96	1
NMSTR	65	240	5
NMSCR	65	240	5	96	96	0
NMTAP	66	192	3
NMHLD	66	288	2	96
NMHLD	67	0	0	96
NMHLD	67	96	7	96
NMHLD	67	192	5	96
NMSTR	67	288	4
NMSCR	67	288	4	96	240	3
NMTAP	69	0	4
NMTAP	69	0	6
NMTAP	69	96	4
NMTAP	69	96	6
NMTAP	69	192	1
NMTAP	69	192	3
NMTAP	69	288	1
NMTAP	69	288	3
NMTAP	70	0	0
NMTAP	70	0	1
NMTAP	70	96	4
NMTAP	70	96	6
NMTAP	70	192	6
NMTAP	70	192	7
NMTAP	70	288	1
NMTAP	70	288	3
NMTAP	71	0	0
NMTAP	71	0	1
NMTAP	71	96	3
NMTAP	71	96	5
NMTAP	71	192	6
NMTAP	71	192	7
NMTAP	71	288	2
NMTAP	71	288	4
NMTAP	72	0	0
NMTAP	72	96	1
NMTAP	72	96	3
NMTAP	72	192	7
NMTAP	72	288	4
NMTAP	72	288	6
NMTAP	73	0	0
NMTAP	73	96	1
NMTAP	73	96	3
NMTAP	73	192	7
NMSTR	73	288	4
NMSI_	73	288	4	96	48	0
NMHLD	73	288	6	96
NMTAP	74	96	7
NMTAP	74	144	7
NMTAP	74	192	1
NMTAP	74	240	1
NMTAP	74	288	3
NMTAP	74	336	3
NMTAP	75	0	2
NMTAP	75	48	2
NMTAP	75	96	6
NMTAP	75	144	6
NMTAP	75	192	4
NMTAP	75	240	4
NMTAP	75	288	5
NMTAP	75	336	5
NMSTR	76	0	3
NMSCL	76	0	3	96	96	0
NMTAP	76	192	7
NMHLD	76	288	6	96
NMHLD	77	0	4	96
NMHLD	77	96	3	96
NMHLD	77	192	1	864
NMTAP	78	0	3
NMTAP	78	96	2
NMTAP	78	192	0
NMTAP	78	288	7
NMTAP	79	0	6
NMTAP	79	96	5
NMTAP	79	192	4
NMHLD	79	288	5	480
NMTAP	80	0	2
NMTAP	80	96	3
NMTAP	80	192	4
NMTAP	80	288	6
NMTAP	81	0	7
EXSTR	81	96	0
NMSI_	81	96	0	96	48	3
EXSTR	81	96	4
NMSI_	81	96	4	96	24	7
EXHLD	81	336	2	96
NMTAP	82	48	0
NMTAP	82	96	0
NMHLD	82	192	5	96
NMTAP	82	288	7
NMTAP	83	0	0
NMTAP	83	96	1
NMTAP	83	96	3
NMTAP	83	192	7
NMTAP	83	288	5
NMHLD	83	336	5	96
NMTAP	84	48	7
NMTAP	84	96	7
NMHLD	84	192	2	96
NMTAP	84	288	0
NMTAP	85	0	6
NMTAP	85	48	6
NMTAP	85	96	7
NMTAP	85	144	5
NMTAP	85	192	1
NMTAP	85	240	1
NMTAP	85	288	7
BXHLD	85	336	3	96
NMTAP	86	48	0
NMTAP	86	96	0
NMHLD	86	192	5	96
NMTAP	86	288	7
NMTAP	87	0	0
NMTAP	87	96	2
NMTAP	87	96	3
NMTAP	87	192	6
NMTAP	87	288	5
NMHLD	87	336	5	96
NMTAP	88	48	7
NMTAP	88	96	7
NMHLD	88	192	2	96
NMTAP	88	288	0
NMTAP	89	0	3
NMTAP	89	0	5
NMTAP	89	96	1
NMTAP	89	96	7
EXTAP	89	192	2
EXTAP	89	192	6
EXTAP	89	288	2
EXTAP	89	288	6
NMTAP	90	0	1
NMTAP	90	0	3
NMTAP	90	48	1
NMTAP	90	48	3
NMTAP	90	144	4
NMTAP	90	144	6
NMTAP	90	192	4
NMTAP	90	192	6
NMSTR	90	288	0
NMSCR	90	288	0	96	576	6
NMTAP	90	288	7
NMTTP	91	0	0	C	1	M1
NMSTR	93	0	7
NMSLL	93	0	7	96	288	3
NMTAP	94	240	2
NMTAP	94	240	4
NMTAP	94	288	2
NMTAP	94	288	4
NMHLD	94	336	1	96
NMTAP	95	48	3
NMTAP	95	96	3
NMTAP	95	192	4
NMTAP	95	192	6
NMTAP	95	288	4
NMTAP	95	288	5
NMTAP	96	0	1
NMTAP	96	48	1
NMTAP	96	96	3
NMTAP	96	144	2
NMTAP	96	192	5
NMTAP	96	240	5
NMTAP	96	288	4
NMHLD	96	336	6	336
NMTAP	97	288	4
BXTAP	98	0	3
BXTAP	98	0	5
BXTAP	98	72	2
BXTAP	98	72	6
BXTAP	98	144	1
BXTAP	98	144	7
BXTAP	98	192	1
BXTAP	98	192	7
BRTAP	98	288	0
BRTAP	98	336	0
NMTAP	99	48	6
NMTAP	99	48	7
NMSTR	99	96	6
NMSI_	99	96	6	96	48	3
NMSTR	99	96	7
NMSI_	99	96	7	96	48	2
NMSTR	99	288	0
NMSI_	99	288	0	96	48	5
NMSTR	99	288	1
NMSI_	99	288	1	96	48	4
NMTAP	100	96	6
NMHLD	100	144	6	96
NMTAP	100	240	4
NMTAP	100	336	6
NMTAP	100	336	7
NMTAP	101	48	0
NMTAP	101	48	1
NMSTR	101	96	0
NMSI_	101	96	0	96	48	5
NMSTR	101	96	1
NMSI_	101	96	1	96	48	4
NMTAP	101	288	6
NMTAP	102	0	4
NMTAP	102	0	5
NMTAP	102	96	1
NMTAP	102	192	2
NMTAP	102	192	3
NMSTR	102	240	2
NMSCL	102	240	2	96	144	5
NMSTR	102	240	3
NMSUL	102	240	3	96	144	4
EXTAP	103	192	4
EXTAP	103	192	5
NMHLD	103	288	2	96
NMHLD	104	0	0	96
NMHLD	104	96	7	96
NMHLD	104	192	5	96
NMSTR	104	288	4
NMSCR	104	288	4	96	240	3
NMTTP	105	0	0	C	1	M1
NMTAP	106	0	1
NMTAP	106	0	3
NMTAP	106	96	1
NMTAP	106	96	3
NMTAP	106	192	4
NMTAP	106	192	6
NMTAP	106	288	4
NMTAP	106	288	6
NMSTR	107	0	5
NMSI_	107	0	5	96	96	0
NMSTR	107	192	2
NMSI_	107	192	2	96	96	7
NMSTR	108	0	4
NMSI_	108	0	4	96	96	0
NMSTR	108	192	3
NMSI_	108	192	3	96	96	7
NMTAP	109	0	5
NMTAP	109	96	7
NMTAP	109	192	2
NMTAP	109	192	3
NMTAP	109	288	0
NMTAP	110	0	6
NMTAP	110	0	7
NMTAP	110	96	4
NMTAP	110	192	0
NMTAP	110	192	1
NMHLD	110	288	1	96
NMSTR	110	288	3
NMSI_	110	288	3	96	48	7
NMTAP	111	96	0
NMTAP	111	144	0
NMTAP	111	192	6
NMTAP	111	240	6
NMTAP	111	288	7
NMTAP	111	336	7
NMTAP	112	0	5
NMTAP	112	48	5
NMTAP	112	96	1
NMTAP	112	144	1
NMTAP	112	192	0
NMTAP	112	240	0
NMTAP	112	288	2
NMTAP	112	336	2
NMSTR	113	0	7
NMSCL	113	0	7	96	96	4
NMTAP	113	192	0
NMHLD	113	288	1	96
NMHLD	114	0	3	96
NMHLD	114	96	4	96
NMHLD	114	192	6	864
NMTAP	115	0	4
NMTAP	115	96	3
NMTAP	115	192	4
NMTAP	115	288	3
NMTAP	116	0	5
NMTAP	116	96	2
NMTAP	116	192	7
NMHLD	116	288	1	480
NMTAP	117	0	0
NMTAP	117	96	7
NMTAP	117	192	2
NMTAP	117	288	5
NMTAP	118	0	3
EXSTR	118	96	0
NMSV_	118	96	0	96	96	2
EXSTR	118	96	4
NMSV_	118	96	4	96	96	6

T_REC_TAP	375
T_REC_BRK	4
T_REC_XTP	14
T_REC_BXX	8
T_REC_HLD	55
T_REC_XHO	1
T_REC_BHO	0
T_REC_BXH	4
T_REC_STR	54
T_REC_BST	1
T_REC_XST	4
T_REC_XBS	0
T_REC_TTP	2
T_REC_THO	0
T_REC_SLD	59
T_REC_BSL	0
T_REC_ALL	581
T_NUM_TAP	449
T_NUM_BRK	17
T_NUM_HLD	56
T_NUM_SLD	59
T_NUM_ALL	581
T_JUDGE_TAP	462
T_JUDGE_HLD	268
T_JUDGE_SLD	59
T_JUDGE_ALL	789
TTM_EACHPAIRS	122
TTM_SCR_TAP	224500
TTM_SCR_BRK	44200
TTM_SCR_HLD	56000
TTM_SCR_SLD	88500
TTM_SCR_ALL	413200
TTM_SCR_S	399200
TTM_SCR_SS	411500
TTM_RAT_ACV	10041

