VERSION	0.00.00	1.05.00
FES_MODE	0
BPM_DEF	193.000	193.000	193.000	193.000
MET_DEF	4	4
RESOLUTION	384
CLK_DEF	384
COMPATIBLE_CODE	MA2

BPM	0	0	193.000
MET	0	0	4	4

NMSTR	1	0	5
NMSUL	1	0	5	96	1056	3
NMSTR	5	0	2
NMSUR	5	0	2	96	1056	4
NMTAP	9	0	5
NMTAP	9	96	5
NMTAP	9	192	5
NMTAP	10	0	4
NMTAP	10	96	4
NMTAP	10	192	4
NMTAP	11	0	3
NMTAP	11	96	3
NMTAP	11	192	3
NMTAP	12	0	2
NMTAP	12	0	3
NMTAP	12	192	2
NMTAP	12	192	3
EXTAP	13	0	4
EXTAP	13	96	4
EXTAP	13	192	5
NMTAP	14	0	6
NMTAP	14	96	6
NMTAP	14	192	7
NMTAP	15	0	0
NMTAP	15	96	0
NMTAP	15	192	1
NMTAP	16	0	2
NMTAP	16	96	2
NMTAP	16	192	2
NMTAP	16	192	3
NMTAP	17	0	3
NMTAP	17	96	3
NMTAP	17	192	2
NMTAP	18	0	1
NMTAP	18	96	1
NMTAP	18	192	0
NMTAP	19	0	7
NMTAP	19	96	7
NMTAP	19	192	6
NMTAP	20	0	5
NMTAP	20	96	5
NMTAP	20	192	4
NMTAP	20	192	5
NMHLD	21	0	5	192
NMHLD	21	192	4	192
NMHLD	22	0	3	192
NMTAP	22	192	2
NMHLD	23	0	2	192
NMHLD	23	192	3	192
NMHLD	24	0	4	192
NMTAP	24	192	5
NMHLD	25	0	6	192
NMHLD	25	192	5	192
NMHLD	26	0	4	192
NMTAP	26	192	3
NMHLD	27	0	1	192
NMHLD	27	192	2	192
NMHLD	28	0	3	192
NMTAP	28	192	4
NMTAP	29	0	2
NMTAP	29	96	2
NMTAP	29	192	2
NMTAP	29	192	3
NMTAP	30	0	1
NMTAP	30	96	1
NMTAP	30	192	0
NMTAP	30	192	1
NMTAP	31	0	7
NMTAP	31	96	7
NMTAP	31	192	6
NMTAP	31	192	7
NMTAP	32	0	4
NMTAP	32	0	5
NMTAP	32	96	4
NMTAP	32	96	5
NMTAP	32	192	4
NMTAP	32	192	5
NMTAP	33	0	5
NMTAP	33	96	5
NMTAP	33	192	4
NMTAP	33	192	5
NMTAP	34	0	6
NMTAP	34	96	6
NMTAP	34	192	6
NMTAP	34	192	7
NMTAP	35	0	0
NMTAP	35	96	0
NMTAP	35	192	0
NMTAP	35	192	1
NMTAP	36	0	2
NMTAP	36	0	3
NMTAP	36	96	2
NMTAP	36	96	3
NMTAP	36	192	2
NMTAP	36	192	3
NMSTR	37	0	1
NMSI_	37	0	1	96	288	4
NMTAP	38	192	5
NMSTR	39	0	6
NMSI_	39	0	6	96	288	3
NMTAP	40	192	2
NMSTR	41	0	1
NMSI_	41	0	1	96	288	5
NMTAP	42	192	6
NMSTR	43	0	7
NMSI_	43	0	7	96	288	3
NMHLD	45	0	2	192
NMTAP	45	192	3
NMTAP	46	0	2
NMTAP	46	0	3
NMTAP	46	192	2
NMTAP	46	192	3
NMHLD	47	0	1	192
NMTAP	47	192	0
NMTAP	48	0	0
NMTAP	48	0	1
NMTAP	48	192	0
NMTAP	48	192	1
NMHLD	49	0	6	192
NMTAP	49	192	7
NMTAP	50	0	6
NMTAP	50	0	7
NMTAP	50	192	6
NMTAP	50	192	7
NMHLD	51	0	5	192
NMTAP	51	192	4
NMHLD	52	0	3	384
NMHLD	52	0	4	384
EXTAP	53	192	4
EXTAP	53	288	4
EXTAP	54	0	5
EXTAP	54	96	5
EXTAP	54	192	6
EXTAP	54	288	6
EXTAP	55	0	7
EXTAP	55	96	7
EXTAP	55	192	0
EXTAP	55	192	1
NMTAP	56	0	2
NMTAP	56	96	2
NMTAP	56	192	1
NMTAP	56	288	1
NMTAP	57	0	0
NMTAP	57	96	0
NMTAP	57	192	6
NMTAP	57	192	7
NMTAP	58	0	6
NMTAP	58	96	6
NMTAP	58	192	5
NMTAP	58	288	5
NMTAP	59	0	4
NMTAP	59	96	4
NMTAP	59	192	2
NMTAP	59	192	3
NMTAP	60	0	1
NMTAP	60	96	1
NMTAP	60	192	2
NMTAP	60	288	2
NMTAP	61	0	3
NMTAP	61	96	3
NMTAP	61	192	4
NMTAP	61	192	5
NMTAP	62	0	5
NMTAP	62	96	5
NMTAP	62	192	6
NMTAP	62	288	6
NMTAP	63	0	7
NMTAP	63	96	7
NMTAP	63	192	0
NMTAP	63	192	1
NMTAP	63	288	0
NMTAP	63	288	1
NMTAP	64	0	2
NMTAP	64	96	2
NMTAP	64	192	1
NMTAP	64	288	1
NMTAP	65	0	0
NMTAP	65	96	0
NMTAP	65	192	6
NMTAP	65	192	7
NMTAP	66	0	6
NMTAP	66	96	6
NMTAP	66	192	5
NMTAP	66	288	5
NMTAP	67	0	4
NMTAP	67	96	4
NMTAP	67	192	2
NMTAP	67	192	3
NMTAP	67	288	2
NMTAP	67	288	3
NMTAP	68	0	1
NMTAP	68	96	1
NMTAP	68	192	2
NMTAP	68	288	2
NMTAP	69	0	3
NMTAP	69	96	3
NMTAP	69	192	4
NMTAP	69	192	5
NMTAP	70	0	6
NMTAP	70	96	6
NMTAP	70	192	6
NMTAP	70	288	6
NMTAP	70	288	7
NMTAP	71	0	5
NMTAP	71	96	5
NMTAP	71	192	5
NMTAP	71	288	4
NMTAP	71	288	5
NMTAP	72	0	3
NMTAP	72	96	3
NMTAP	72	192	3
NMTAP	72	288	2
NMTAP	72	288	3
NMTAP	73	0	0
NMTAP	73	0	1
NMTAP	73	96	0
NMTAP	73	96	1
NMTAP	73	192	0
NMTAP	73	192	1
NMTAP	74	0	1
NMTAP	74	96	1
NMTAP	74	192	1
NMTAP	74	288	0
NMTAP	74	288	1
NMTAP	75	0	2
NMTAP	75	96	2
NMTAP	75	192	2
NMTAP	75	288	2
NMTAP	75	288	3
NMTAP	76	0	4
NMTAP	76	96	4
NMTAP	76	192	4
NMTAP	76	288	4
NMTAP	76	288	5
BXTAP	77	0	4
BXTAP	77	0	5
NMSTR	78	0	6
NMSI_	78	0	6	96	288	3
NMSTR	78	0	7
NMSI_	78	0	7	96	288	2
NMTAP	79	192	0
NMTAP	79	192	1
NMSTR	80	0	0
NMSI_	80	0	0	96	288	5
NMSTR	80	0	1
NMSI_	80	0	1	96	288	4
NMTTP	82	0	4	B	0	L1
NMTTP	82	0	5	B	0	L1
NMTTP	83	0	6	B	0	L1
NMTTP	83	0	7	B	0	L1
NMTTP	84	0	0	B	0	L1
NMTTP	84	0	1	B	0	L1
NMTTP	85	0	2	B	0	L1
NMTTP	85	0	3	B	0	L1
NMTTP	86	0	5	B	0	L1
NMTTP	86	0	6	B	0	L1
NMTTP	87	0	0	B	0	L1
NMTTP	87	0	7	B	0	L1
NMTTP	88	0	1	B	0	L1
NMTTP	88	0	2	B	0	L1
NMTTP	89	0	0	C	1	L1
EXSTR	91	0	7
NMSI_	91	0	7	96	288	3
NMTAP	92	192	2
NMSTR	93	0	1
NMSI_	93	0	1	96	288	4
NMTAP	94	192	5
NMSTR	95	0	5
NMSI_	95	0	5	96	288	0
NMTAP	96	192	1
EXHLD	97	0	0	384
EXHLD	97	0	1	384
NMTAP	99	0	2
NMTAP	99	96	2
NMTAP	99	192	0
NMTAP	99	192	1
NMTAP	99	288	0
NMTAP	99	288	1
NMTAP	100	0	7
NMTAP	100	96	7
NMTAP	100	192	6
NMTAP	100	192	7
NMTAP	101	0	5
NMTAP	101	96	5
NMTAP	101	192	6
NMTAP	101	192	7
NMTAP	101	288	6
NMTAP	101	288	7
NMTAP	102	0	0
NMTAP	102	96	0
NMTAP	102	192	0
NMTAP	102	192	1
NMTAP	103	0	1
NMTAP	103	96	1
NMTAP	103	192	2
NMTAP	103	192	3
NMTAP	103	288	2
NMTAP	103	288	3
NMTAP	104	0	4
NMTAP	104	96	4
NMTAP	104	192	4
NMTAP	104	192	5
NMTAP	105	0	6
NMTAP	105	96	6
NMTAP	105	192	4
NMTAP	105	192	5
NMTAP	105	288	4
NMTAP	105	288	5
NMTAP	106	0	3
NMTAP	106	96	3
NMTAP	106	192	2
NMTAP	106	192	3
NMTAP	107	0	1
NMTAP	107	96	1
NMTAP	107	192	0
NMTAP	107	192	1
NMTAP	107	288	0
NMTAP	107	288	1
NMTAP	108	0	2
NMTAP	108	96	2
NMTAP	108	192	2
NMTAP	108	192	3
NMTAP	108	288	2
NMTAP	108	288	3
NMTAP	109	0	4
NMTAP	109	96	4
NMTAP	109	192	4
NMTAP	109	192	5
NMTAP	109	288	4
NMTAP	109	288	5
NMTAP	110	0	6
NMTAP	110	0	7
NMTAP	110	96	6
NMTAP	110	96	7
NMTAP	110	192	0
NMTAP	110	192	5
NMTAP	111	0	6
NMTAP	111	96	6
NMTAP	111	192	6
NMTAP	111	192	7
NMTAP	111	288	6
NMTAP	111	288	7
NMTAP	112	0	5
NMTAP	112	96	5
NMTAP	112	192	4
NMTAP	112	192	5
NMTAP	112	288	4
NMTAP	112	288	5
NMTAP	113	0	3
NMTAP	113	96	3
NMTAP	113	192	2
NMTAP	113	192	3
NMTAP	113	288	2
NMTAP	113	288	3
NMTAP	114	0	2
NMTAP	114	0	3
EXSTR	115	0	0
NMSI_	115	0	0	96	288	5
EXSTR	115	0	1
NMSI_	115	0	1	96	288	4
NMTAP	117	0	3
NMTAP	117	0	4
NMTAP	117	96	3
NMTAP	117	96	4
NMTAP	117	192	2
NMTAP	117	192	5
NMTAP	117	288	2
NMTAP	117	288	5
NMTAP	118	0	1
NMTAP	118	0	6
NMTAP	118	96	1
NMTAP	118	96	6
BRTAP	118	192	0
BRTAP	118	192	7

T_REC_TAP	292
T_REC_BRK	2
T_REC_XTP	13
T_REC_BXX	2
T_REC_HLD	18
T_REC_XHO	2
T_REC_BHO	0
T_REC_BXH	0
T_REC_STR	12
T_REC_BST	0
T_REC_XST	3
T_REC_XBS	0
T_REC_TTP	15
T_REC_THO	0
T_REC_SLD	15
T_REC_BSL	0
T_REC_ALL	374
T_NUM_TAP	335
T_NUM_BRK	4
T_NUM_HLD	20
T_NUM_SLD	15
T_NUM_ALL	374
T_JUDGE_TAP	339
T_JUDGE_HLD	96
T_JUDGE_SLD	15
T_JUDGE_ALL	450
TTM_EACHPAIRS	83
TTM_SCR_TAP	167500
TTM_SCR_BRK	10400
TTM_SCR_HLD	20000
TTM_SCR_SLD	22500
TTM_SCR_ALL	220400
TTM_SCR_S	213400
TTM_SCR_SS	220000
TTM_RAT_ACV	10018

