VERSION	0.00.00	1.05.00
FES_MODE	0
BPM_DEF	180.000	180.000	180.000	180.000
MET_DEF	4	4
RESOLUTION	384
CLK_DEF	384
COMPATIBLE_CODE	MA2

BPM	0	0	180.000
MET	0	0	4	4
MET	42	0	4	2
MET	42	192	4	4

NMTTP	6	0	5	B	0	M1
NMTTP	6	16	4	B	0	M1
NMTTP	6	32	4	E	0	M1
NMTTP	7	0	2	B	0	M1
NMTTP	7	16	3	B	0	M1
NMTTP	7	32	4	E	0	M1
NMTTP	8	0	6	B	0	M1
NMTTP	8	16	5	B	0	M1
NMTTP	8	32	5	E	0	M1
NMTTP	9	0	1	B	0	M1
NMTTP	9	16	2	B	0	M1
NMTTP	9	32	3	E	0	M1
NMTAP	9	288	3
NMTAP	9	288	4
EXTAP	10	0	0
NMTAP	10	48	1
NMTAP	10	96	2
NMTAP	10	144	3
NMTAP	10	144	6
NMTAP	10	192	4
NMTAP	10	240	5
NMTAP	10	288	0
NMTAP	10	288	6
NMTAP	10	336	1
NMTAP	11	0	2
NMTAP	11	48	3
NMTAP	11	48	4
NMTAP	11	96	5
NMTAP	11	144	6
NMTAP	11	192	1
NMSTR	11	192	7
NMSCL	11	192	7	96	48	4
NMTTP	11	288	3	B	0	M1
NMTTP	11	288	4	B	0	M1
NMTTP	11	288	4	E	0	M1
EXTAP	11	288	7
EXTAP	12	0	2
NMTAP	12	48	1
NMTAP	12	96	0
NMTAP	12	144	6
NMTAP	12	144	7
NMTAP	12	192	5
NMTAP	12	240	4
NMTAP	12	288	1
NMTAP	12	288	3
NMTAP	12	336	0
NMTAP	13	0	7
NMTAP	13	48	3
NMTAP	13	48	6
NMTAP	13	96	2
NMTAP	13	144	1
NMSTR	13	192	0
NMSCR	13	192	0	96	48	3
NMTAP	13	192	6
EXTAP	13	288	0
NMTTP	13	288	3	B	0	M1
NMTTP	13	288	4	B	0	M1
NMTTP	13	288	4	E	0	M1
EXHLD	14	0	6	96
NMTAP	14	96	7
NMTAP	14	144	7
NMTAP	14	192	0
NMTAP	14	192	6
NMTAP	14	240	0
NMTAP	14	240	6
NMTAP	14	288	1
NMTAP	14	288	5
NMTAP	14	336	1
NMTAP	14	336	5
NMTAP	15	0	2
NMTAP	15	0	4
NMTAP	15	48	5
NMTAP	15	72	4
NMTAP	15	96	5
NMTAP	15	144	2
NMTAP	15	168	3
NMTAP	15	192	2
NMTAP	15	240	6
NMTAP	15	264	4
NMTAP	15	288	6
NMTAP	15	336	1
NMTAP	15	360	3
NMTAP	16	0	1
NMTAP	16	48	6
NMTAP	16	72	4
NMTAP	16	96	5
NMTAP	16	120	4
NMTAP	16	144	5
NMTAP	16	168	4
NMTAP	16	192	5
NMTAP	16	216	4
NMTAP	16	240	5
NMTAP	16	264	4
NMTAP	16	288	5
NMTAP	16	312	4
NMTAP	16	336	5
NMTAP	16	360	4
NMTAP	17	0	5
BXTAP	17	48	2
BXTAP	17	48	3
BXTAP	17	96	0
BXTAP	17	96	1
BRTAP	17	144	6
BRTAP	17	144	7
NMHLD	18	0	2	1056
NMTAP	18	192	5
NMTAP	18	288	5
NMTAP	19	0	4
NMTAP	19	96	4
NMTAP	19	192	3
NMTAP	19	288	3
NMSTR	20	0	1
NMSCL	20	0	1	96	192	3
NMTTP	20	288	3	E	0	M1
NMTTP	20	312	2	E	0	M1
NMTTP	20	336	1	E	0	M1
NMTTP	20	360	0	E	0	M1
NMTTP	21	0	7	E	0	M1
NMTTP	21	24	6	E	0	M1
NMTTP	21	48	5	E	0	M1
NMTTP	21	72	4	E	0	M1
NMTTP	21	96	3	E	0	M1
NMTAP	21	192	0
NMTAP	21	192	1
NMTAP	21	288	1
NMTAP	21	288	2
NMTAP	22	0	2
NMHLD	22	0	3	96
NMTAP	22	96	2
NMTAP	22	192	3
NMHLD	22	192	4	96
NMTAP	22	288	3
NMTAP	23	0	4
NMHLD	23	0	5	96
NMTAP	23	96	4
NMTAP	23	192	5
NMHLD	23	192	6	96
NMTAP	23	288	5
NMSTR	24	0	6
NMSCL	24	0	6	96	192	1
NMHLD	24	0	7	96
NMTAP	24	144	0
NMHLD	24	192	0	96
NMTTP	24	336	0	E	0	M1
NMTTP	24	360	1	E	0	M1
NMTTP	24	360	7	E	0	M1
NMTTP	25	0	2	E	0	M1
NMTTP	25	0	6	E	0	M1
NMTAP	25	96	4
NMTAP	25	192	3
NMTAP	25	288	2
NMTAP	25	288	7
NMSTR	26	0	6
NMSI_	26	0	6	96	48	4
NMTAP	26	96	4
NMTAP	26	144	3
NMSTR	26	192	2
NMSI_	26	192	2	96	48	4
NMTAP	26	288	0
NMTAP	26	336	7
NMTAP	27	0	6
NMSTR	27	48	5
NMSUL	27	48	5	96	240	3
EXTAP	27	192	2
EXTAP	27	288	1
EXHLD	28	0	0	96
EXHLD	28	96	7	96
EXTAP	28	192	6
EXTAP	28	240	5
EXHLD	28	288	4	96
NMTAP	29	0	3
NMTAP	29	96	2
NMTAP	29	96	3
NMTAP	29	192	1
NMTAP	29	240	1
NMTAP	29	288	0
NMTAP	29	288	2
NMTAP	30	0	5
NMTAP	30	0	7
NMTAP	30	96	4
NMTAP	30	144	4
NMTAP	30	240	3
NMTAP	30	288	2
NMTAP	30	336	1
NMSTR	31	0	0
NMSI_	31	0	0	96	48	6
NMSTR	31	96	5
NMSI_	31	96	5	96	48	1
NMSTR	31	192	7
NMSI_	31	192	7	96	48	3
NMSI_	31	192	7	96	48	5
EXTAP	31	288	7
EXTAP	32	0	4
NMTAP	32	48	4
NMTAP	32	96	4
NMTAP	32	144	4
NMTAP	32	192	3
NMTAP	32	240	3
NMTAP	32	288	3
NMTAP	32	336	3
NMSTR	33	0	2
NMSI_	33	0	2	96	48	5
NMTAP	33	48	1
NMSTR	33	96	0
NMSI_	33	96	0	96	48	4
NMSTR	33	192	7
NMSI_	33	192	7	96	48	3
EXTAP	34	0	2
NMTAP	34	48	2
NMTAP	34	96	2
NMTAP	34	144	2
NMTAP	34	192	3
NMTAP	34	240	3
NMTAP	34	288	4
NMTAP	34	336	4
NMTAP	35	0	3
NMTAP	35	0	5
NMTAP	35	48	3
NMSTR	35	48	5
NMSI_	35	48	5	96	48	2
NMSTR	35	144	3
NMSI_	35	144	3	96	48	0
NMTAP	35	240	7
NMSTR	35	288	7
NMSCL	35	288	7	96	48	4
NMSTR	36	0	7
NMSCR	36	0	7	96	48	2
NMSTR	36	96	7
NMSI_	36	96	7	96	48	3
NMSTR	36	192	3
NMSI_	36	192	3	96	48	0
NMSI_	36	192	3	96	48	6
NMTAP	37	0	7
NMTAP	37	48	6
NMTAP	37	96	4
NMTAP	37	96	5
NMTAP	37	192	2
NMTAP	37	216	3
NMTAP	37	240	2
NMTAP	37	264	3
NMTAP	37	288	2
EXSTR	37	336	1
NMSI_	37	336	1	96	48	4
EXTAP	37	336	4
NMTAP	38	48	5
NMHLD	38	96	5	96
NMTAP	38	192	7
NMTAP	38	240	0
NMTAP	38	288	1
EXTAP	38	336	2
EXTAP	38	336	7
NMTAP	39	48	0
NMTAP	39	48	1
NMSTR	39	96	0
NMSUR	39	96	0	96	48	5
NMSTR	39	96	1
NMSUR	39	96	1	96	48	5
NMTAP	39	288	6
NMTAP	39	336	7
NMHLD	40	0	0	96
NMTAP	40	0	4
NMTAP	40	96	3
NMTAP	40	120	1
NMTAP	40	144	3
NMTAP	40	168	1
NMTAP	40	192	4
NMTAP	40	216	2
NMTAP	40	240	4
NMTAP	40	264	2
NMTAP	40	288	5
NMTAP	40	312	3
NMTAP	40	336	5
NMTAP	40	360	3
EXHLD	41	0	6	96
NMTAP	41	96	7
NMSTR	41	144	0
NMSI_	41	144	0	96	48	3
NMSTR	41	144	4
NMSI_	41	144	4	96	48	7
EXTAP	41	240	0
EXTAP	41	240	4
NMTTP	42	0	0	D	0	M1
NMTTP	42	12	7	A	0	M1
NMTTP	42	24	7	D	0	M1
NMTTP	42	36	6	A	0	M1
NMTTP	42	48	6	D	0	M1
NMTTP	42	60	5	A	0	M1
NMTTP	42	72	5	D	0	M1
NMTTP	42	84	4	A	0	M1
NMTTP	42	96	4	D	0	M1
BRTAP	42	192	0
NMTAP	42	288	6
NMTAP	42	312	7
NMTAP	42	336	6
NMTAP	42	360	7
NMTAP	43	0	5
NMTAP	43	24	0
NMTAP	43	48	5
NMTAP	43	72	0
NMTAP	43	96	4
NMTAP	43	120	1
NMTAP	43	144	4
NMTAP	43	168	1
BRHLD	43	192	3	96
NMTAP	43	288	2
NMTAP	43	312	3
NMTAP	43	336	2
NMTAP	43	360	3
NMTAP	44	0	1
NMTAP	44	24	4
NMTAP	44	48	1
NMTAP	44	72	4
NMSTR	44	96	0
NMSI_	44	96	0	96	48	4
NMTAP	44	120	5
NMTAP	44	144	0
NMTAP	44	168	5
BRTAP	44	192	0
NMTAP	44	288	6
NMTAP	44	312	4
NMTAP	44	336	6
NMTAP	44	360	4
NMTAP	45	0	5
NMTAP	45	24	3
NMTAP	45	48	5
NMTAP	45	72	3
NMTAP	45	96	4
NMTAP	45	120	2
NMTAP	45	144	4
NMTAP	45	168	2
BRHLD	45	192	3	96
NMTTP	45	288	0	C	0	M1
BRTAP	46	0	0
BRTAP	46	0	6
BRHLD	46	48	0	96
BRHLD	46	48	6	96
EXSTR	46	192	1
NMSCR	46	192	1	96	48	4
EXTAP	46	192	7
NMTAP	46	288	5
NMTAP	46	336	6
NMSTR	47	0	7
NMSUR	47	0	7	96	96	5
NMTAP	47	96	2
NMTAP	47	144	1
NMSTR	47	192	0
NMSI_	47	192	0	96	48	2
NMTAP	47	288	0
NMTAP	47	288	7
NMSTR	47	336	6
NMSCL	47	336	6	96	96	1
NMTAP	48	48	7
NMSTR	48	96	0
NMSI_	48	96	0	96	48	4
NMSI_	48	96	0	96	48	5
NMTAP	48	192	0
NMSTR	48	288	3
NMSI_	48	288	3	96	48	6
NMTAP	48	336	2
NMHLD	49	0	1	96
NMSTR	49	96	7
NMSI_	49	96	7	96	48	3
NMTAP	49	144	6
NMSTR	49	192	5
NMSI_	49	192	5	96	48	1
NMSTR	49	288	0
NMSI_	49	288	0	96	48	3
NMTAP	50	0	7
NMTAP	50	48	6
NMTAP	50	96	4
NMTAP	50	96	5
NMSTR	50	192	1
NMSCL	50	192	1	96	96	6
NMSTR	50	288	6
NMSI_	50	288	6	96	96	2
NMSTR	51	0	2
NMSCR	51	0	2	96	96	5
NMSTR	51	96	5
NMSUR	51	96	5	96	96	2
NMTAP	51	192	7
NMTAP	51	288	6
NMHLD	51	336	6	144
NMTAP	52	48	7
NMSTR	52	96	7
NMSCR	52	96	7	96	48	2
NMTTP	52	192	0	E	0	M1
NMTTP	52	208	1	E	0	M1
NMTTP	52	224	2	E	0	M1
NMTTP	52	240	3	E	0	M1
NMSTR	52	288	7
NMSCL	52	288	7	96	48	4
NMTTP	53	0	0	E	0	M1
NMTTP	53	16	7	E	0	M1
NMTTP	53	32	6	E	0	M1
NMTTP	53	48	5	E	0	M1
NMSTR	53	96	0
NMSCR	53	96	0	96	96	3
NMSTR	53	192	3
NMSUR	53	192	3	96	96	0
NMSTR	53	288	0
BRSCR	53	288	0	96	192	6
BRHLD	54	0	4	192
NMTTP	55	0	2	B	0	M1
NMTTP	55	16	3	E	0	M1
NMTTP	55	192	5	B	0	M1
NMTTP	55	208	5	E	0	M1
NMTTP	56	0	0	C	0	M1
NMTTP	56	16	3	B	0	M1
NMTTP	56	16	4	B	0	M1
NMTTP	56	32	3	A	0	M1
NMTTP	56	32	4	A	0	M1
EXTAP	56	192	0
EXTAP	56	192	7
NMTAP	56	288	4
NMTAP	56	288	6
NMTAP	56	336	6
NMTAP	57	0	3
NMTAP	57	0	5
NMTAP	57	48	5
NMSTR	57	96	2
BRSI_	57	96	2	96	48	7
NMTAP	57	96	4
BRTAP	57	192	0
NMTTP	57	192	2	A	1	M1
NMTAP	58	48	3
NMTAP	58	48	4
NMTAP	58	96	3
NMTAP	58	96	4
BXSTR	58	192	0
BRSCL	58	192	0	96	384	3
BXHLD	58	192	5	576
CNSXL	59	288	3	0	96	1
NMTAP	60	96	3
NMTAP	60	96	4
NMHLD	60	192	0	96
NMTAP	60	192	4
NMTAP	60	288	3
NMTAP	60	360	3
NMTAP	61	0	2
NMTAP	61	48	2
NMTAP	61	96	2
NMTAP	61	96	4
NMTAP	61	192	3
NMHLD	61	192	6	96
NMTAP	61	288	4
NMTAP	61	360	4
NMTAP	62	0	5
NMTAP	62	48	5
NMTAP	62	96	3
NMTAP	62	96	5
NMHLD	62	192	1	96
NMTAP	62	192	4
NMTAP	62	288	3
NMTAP	62	360	3
NMTAP	63	0	2
NMTAP	63	48	2
NMTAP	63	96	1
NMTAP	63	96	3
NMTAP	63	192	3
NMHLD	63	192	6	96
NMTAP	63	288	4
NMTAP	63	360	4
NMTAP	64	0	5
NMTAP	64	48	5
NMTAP	64	96	4
NMSTR	64	96	6
NMSI_	64	96	6	96	48	3
EXTAP	64	192	6
EXTAP	64	192	7
NMTAP	64	288	0
NMHLD	64	336	1	96
NMTAP	64	336	7
NMTAP	65	48	2
NMSTR	65	96	0
NMSCL	65	96	0	96	48	5
NMTAP	65	96	3
EXTAP	65	192	0
EXTAP	65	192	1
NMTTP	65	288	2	B	0	M1
NMTTP	65	288	3	B	0	M1
NMTTP	65	288	3	E	0	M1
NMTAP	66	0	1
NMTAP	66	24	7
NMTAP	66	48	1
NMTAP	66	72	7
NMTAP	66	96	1
NMTAP	66	120	7
NMTAP	66	144	1
NMTAP	66	168	7
BXTAP	66	192	2
NMTAP	66	288	3
NMTTP	66	288	6	E	0	M1
NMTAP	66	336	3
NMTAP	67	0	4
NMTTP	67	0	7	E	0	M1
NMTAP	67	48	4
NMTTP	67	96	0	E	0	M1
NMTAP	67	96	5
NMTAP	67	144	5
NMTTP	67	192	1	E	0	M1
NMTAP	67	192	6
NMTAP	67	240	6
NMTTP	67	288	2	E	0	M1
NMTAP	67	288	7
NMTAP	67	336	7
NMTAP	68	0	0
NMTTP	68	0	3	E	0	M1
NMTAP	68	48	0
NMTAP	68	96	1
NMTTP	68	96	4	E	0	M1
NMTAP	68	144	1
NMTAP	68	192	2
NMTAP	68	192	3
NMTAP	68	288	5
NMTAP	68	336	5
NMTAP	69	0	0
NMTAP	69	0	6
NMTAP	69	48	1
NMTAP	69	96	2
NMTAP	69	144	3
NMHLD	69	192	4	96
NMSTR	69	288	6
BRSI_	69	288	6	96	48	3
EXTAP	70	0	2
EXTAP	70	0	6
CNSI_	70	48	3	0	48	7
NMTTP	70	60	3	B	0	M1
NMTTP	70	72	0	C	0	M1
NMTTP	70	84	7	B	0	M1
NMTTP	70	96	7	A	1	M1
NMTAP	70	192	0
NMTAP	70	192	6
NMTAP	70	288	5
NMTAP	70	336	5
NMTAP	71	0	4
NMTAP	71	0	6
NMTAP	71	48	4
NMTAP	71	48	6
NMTAP	71	96	3
NMTAP	71	96	7
NMTAP	71	144	3
NMTAP	71	144	7
NMTAP	71	192	0
NMTAP	71	192	2
NMTAP	71	240	3
NMTAP	71	288	4
NMTAP	71	336	5
NMTAP	72	0	6
NMTAP	72	0	7
NMTAP	72	48	0
NMTAP	72	48	5
NMSTR	72	96	1
NMSI_	72	96	1	96	48	4
NMTAP	72	96	4
NMTAP	72	192	1
NMTAP	72	192	7
NMSTR	72	288	0
NMSI_	72	288	0	96	48	4
NMSTR	72	288	6
NMSI_	72	288	6	96	48	4
NMTAP	72	336	0
NMTAP	72	336	6
EXSTR	73	0	0
NMSI_	73	0	0	96	48	2
EXSTR	73	0	6
NMSI_	73	0	6	96	48	2
NMSTR	73	96	0
BRSCL	73	96	0	96	288	1
NMTAP	73	96	6
BRTAP	73	192	0
NMTTP	73	192	5	B	0	M1
NMTTP	73	192	6	B	0	M1
NMTTP	73	192	6	E	1	M1
NMHLD	74	192	2	96
NMTAP	74	336	2
NMTTP	76	0	0	C	0	M1
NMHLD	76	192	2	96
NMTAP	76	336	2
NMTTP	77	192	3	E	0	M1
NMTTP	77	336	4	E	0	M1
NMTTP	78	96	5	E	0	M1
NMHLD	78	192	5	96
NMTAP	78	336	5
NMTTP	80	0	0	C	0	M1
NMHLD	80	192	5	96
NMTAP	80	336	5
NMHLD	81	192	7	96
NMHLD	82	0	0	96
NMHLD	82	192	1	96
NMHLD	82	192	3	96
NMTAP	82	336	1
NMSTR	82	336	3
NMSI_	82	336	3	96	48	5
NMSTR	83	192	4
NMSF_	83	192	4	96	192	0
NMTAP	83	192	6
NMHLD	84	192	1	2688
NMSTR	84	192	7
NMSCL	84	192	7	96	288	3
NMSTR	86	192	2
NMSCR	86	192	2	96	288	5
NMTTP	88	192	5	B	0	M1
NMTTP	88	208	4	B	0	M1
NMTTP	88	224	4	E	0	M1
NMTTP	89	192	2	B	0	M1
NMTTP	89	208	3	B	0	M1
NMTTP	89	224	4	E	0	M1
NMTTP	90	192	6	B	0	M1
NMTTP	90	208	5	B	0	M1
NMTTP	90	224	5	E	0	M1
NMTTP	91	192	1	B	0	M1
NMTTP	91	208	2	B	0	M1
NMTTP	91	224	3	E	0	M1
NMTAP	92	48	3
NMTAP	92	48	4
NMTAP	92	96	3
NMTAP	92	96	4
EXTAP	92	192	0
NMTAP	92	240	1
NMTAP	92	288	2
NMTAP	92	336	3
NMTAP	92	336	6
NMTAP	93	0	4
NMTAP	93	48	5
NMTAP	93	96	6
NMTAP	93	96	7
NMTAP	93	144	0
NMTAP	93	192	1
NMTAP	93	240	2
NMTAP	93	240	4
NMTAP	93	288	3
NMTAP	93	336	4
NMSTR	94	0	5
NMSI_	94	0	5	96	48	0
NMTAP	94	0	7
NMTTP	94	96	4	B	0	M1
EXTAP	94	96	5
NMTTP	94	112	3	B	0	M1
NMTTP	94	128	3	E	0	M1
EXTAP	94	192	7
NMTAP	94	240	6
NMTAP	94	288	5
NMTAP	94	336	1
NMTAP	94	336	4
NMTAP	95	0	3
NMTAP	95	48	2
NMTAP	95	96	0
NMTAP	95	96	1
NMTAP	95	144	7
NMTAP	95	192	6
NMTAP	95	240	3
NMTAP	95	240	5
NMTAP	95	288	4
NMTAP	95	336	3
NMTAP	96	0	0
NMSTR	96	0	2
NMSI_	96	0	2	96	48	7
EXTAP	96	96	2
NMTTP	96	96	3	B	0	M1
NMTTP	96	112	4	B	0	M1
NMTTP	96	128	5	E	0	M1
EXTAP	96	192	0
EXHLD	96	192	6	96
NMTAP	96	288	7
NMTAP	96	336	7
NMTAP	97	0	0
NMTAP	97	0	6
NMTAP	97	48	0
NMTAP	97	48	6
NMTAP	97	96	1
NMTAP	97	96	5
NMTAP	97	144	1
NMTAP	97	144	5
NMTAP	97	192	2
NMTAP	97	192	4
NMTAP	97	240	5
NMTAP	97	264	4
NMTAP	97	288	5
NMTAP	97	336	2
NMTAP	97	360	3
NMTAP	98	0	2
NMTAP	98	48	6
NMTAP	98	72	4
NMTAP	98	96	6
NMTAP	98	144	1
NMTAP	98	168	3
NMTAP	98	192	1
NMTAP	98	240	6
NMTAP	98	264	7
NMTAP	98	288	5
NMTAP	98	312	0
NMTAP	98	336	5
NMTAP	98	360	0
NMTAP	99	0	4
NMTAP	99	24	1
NMTAP	99	48	4
NMTAP	99	72	1
NMTAP	99	96	3
NMTAP	99	120	2
NMTAP	99	144	3
NMTAP	99	168	2
NMTAP	99	192	3
BRTAP	99	240	4
BRTAP	99	240	5
BRTAP	99	288	6
BRTAP	99	288	7
BRTAP	99	336	0
BRTAP	99	336	1
NMSTR	100	192	3
NMSXL	100	192	3	96	1056	1
NMSTR	100	192	7
NMSXL	100	192	7	96	1056	5

T_REC_TAP	396
T_REC_BRK	14
T_REC_XTP	30
T_REC_BXX	5
T_REC_HLD	26
T_REC_XHO	6
T_REC_BHO	5
T_REC_BXH	1
T_REC_STR	57
T_REC_BST	0
T_REC_XST	4
T_REC_XBS	1
T_REC_TTP	100
T_REC_THO	0
T_REC_SLD	60
T_REC_BSL	5
T_REC_ALL	710
T_NUM_TAP	587
T_NUM_BRK	31
T_NUM_HLD	32
T_NUM_SLD	60
T_NUM_ALL	710
T_JUDGE_TAP	607
T_JUDGE_HLD	163
T_JUDGE_SLD	65
T_JUDGE_ALL	835
TTM_EACHPAIRS	104
TTM_SCR_TAP	293500
TTM_SCR_BRK	80600
TTM_SCR_HLD	32000
TTM_SCR_SLD	90000
TTM_SCR_ALL	496100
TTM_SCR_S	478250
TTM_SCR_SS	493000
TTM_RAT_ACV	10062

