VERSION	0.00.00	1.05.00
FES_MODE	0
BPM_DEF	180.000	180.000	180.000	180.000
MET_DEF	4	4
RESOLUTION	384
CLK_DEF	384
COMPATIBLE_CODE	MA2

BPM	0	0	180.000
MET	0	0	4	4
MET	42	0	4	2
MET	42	192	4	4

NMTTP	2	0	2	E	0	M1
NMTTP	2	192	3	E	0	M1
NMTTP	3	0	4	E	0	M1
NMTTP	4	0	6	E	0	M1
NMTTP	4	192	5	E	0	M1
NMTTP	5	0	4	E	0	M1
NMHLD	6	0	2	384
NMTAP	6	288	3
NMHLD	7	0	3	384
NMTAP	7	288	4
NMHLD	8	0	4	384
NMTAP	8	288	5
NMSTR	9	0	5
NMSI_	9	0	5	96	96	2
NMTAP	10	0	2
NMTAP	10	0	3
NMTAP	10	96	1
NMHLD	10	144	1	384
NMTAP	10	240	0
NMTAP	10	288	0
NMTAP	11	0	7
NMTAP	11	48	7
NMTAP	11	144	0
NMTAP	11	192	0
NMTAP	11	288	2
NMTAP	11	288	3
NMTAP	12	0	4
NMTAP	12	0	5
NMTAP	12	96	6
NMHLD	12	144	6	384
NMTAP	12	240	7
NMTAP	12	288	7
NMTAP	13	0	0
NMTAP	13	48	0
NMTAP	13	144	7
NMTAP	13	192	7
NMTAP	13	288	4
NMTAP	13	288	5
NMTAP	14	0	2
NMTAP	14	0	3
NMTAP	14	96	1
NMTAP	14	144	1
NMTAP	14	192	3
NMTAP	14	240	3
NMTAP	14	288	2
NMTAP	14	336	2
NMTAP	15	0	6
NMTAP	15	48	6
NMTAP	15	96	4
NMTAP	15	144	4
NMTAP	15	192	5
NMTAP	15	240	5
NMTAP	15	288	4
NMTAP	16	0	3
NMTAP	16	0	6
NMTAP	16	96	5
NMTAP	16	144	5
NMTAP	16	192	0
NMTAP	16	240	0
NMTAP	16	288	7
NMTAP	16	336	7
NMTAP	17	0	2
NMTAP	17	48	2
NMTAP	17	96	3
NMTAP	17	96	4
NMTAP	17	144	3
NMTAP	17	144	4
NMHLD	18	0	4	1056
NMTAP	18	0	5
NMTAP	18	192	5
NMTAP	18	288	5
NMTAP	19	0	3
NMTAP	19	96	3
NMTAP	19	192	3
NMTAP	19	288	3
NMTAP	20	0	5
NMTAP	20	96	5
NMSTR	20	192	5
NMSUL	20	192	5	96	288	2
NMHLD	22	0	2	768
NMTAP	22	0	3
NMTAP	22	192	3
NMTAP	22	288	3
NMTAP	23	0	1
NMTAP	23	96	1
NMTAP	23	192	1
NMTAP	23	288	1
NMSTR	24	0	0
NMSCL	24	0	0	96	192	5
NMSCR	24	0	0	96	192	3
NMTAP	25	0	4
NMTAP	25	96	5
NMTAP	25	192	3
NMTAP	25	288	2
NMTAP	26	0	2
NMTAP	26	0	3
NMTAP	26	96	1
NMTAP	26	144	1
NMTAP	26	192	0
NMTAP	26	288	0
NMTAP	26	288	7
NMTAP	27	0	6
NMTAP	27	48	6
NMTAP	27	96	4
NMHLD	27	192	5	96
NMHLD	27	288	7	96
NMHLD	28	0	0	96
NMHLD	28	96	2	96
NMSTR	28	192	3
NMSCR	28	192	3	96	192	7
NMTTP	28	288	2	E	1	M1
NMTAP	29	192	0
NMTAP	29	192	1
NMTAP	29	288	0
NMTAP	29	288	1
NMHLD	30	0	2	96
EXTAP	30	96	0
NMHLD	30	192	6	96
EXTAP	30	288	0
NMTAP	31	0	2
NMTAP	31	0	4
NMTAP	31	96	3
NMTAP	31	96	5
NMTAP	31	192	2
NMTAP	31	192	6
NMHLD	32	0	4	672
NMTTP	32	96	5	E	0	M1
NMTTP	32	192	6	E	0	M1
NMTTP	32	288	7	E	0	M1
NMTTP	33	0	0	C	0	M1
NMTTP	33	96	5	E	0	M1
NMTTP	33	192	6	E	0	M1
NMHLD	34	0	0	672
NMTTP	34	96	1	E	0	M1
NMTTP	34	192	2	E	0	M1
NMTTP	34	288	3	E	0	M1
NMTTP	35	0	0	C	0	M1
NMTTP	35	96	1	E	0	M1
NMTTP	35	192	2	E	0	M1
NMSTR	36	0	7
NMSCL	36	0	7	96	96	4
NMSTR	36	192	2
NMSCL	36	192	2	96	96	7
NMTAP	37	0	3
NMTAP	37	96	3
BXTAP	37	192	1
BXTAP	37	192	5
BXTAP	37	240	1
BXTAP	37	240	5
NMHLD	37	336	2	96
NMTAP	38	48	3
NMTAP	38	96	3
NMTAP	38	192	0
NMTAP	38	192	1
NMTAP	38	288	6
NMHLD	38	336	6	96
NMTAP	39	48	7
NMTAP	39	96	7
NMTAP	39	192	5
NMTAP	39	240	5
NMTAP	39	288	4
NMTAP	40	0	6
NMTAP	40	0	7
NMTAP	40	96	0
NMTAP	40	96	1
NMTAP	40	192	2
NMTAP	40	192	3
NMTAP	40	288	4
NMTAP	40	288	5
NMTAP	41	0	3
NMTAP	41	0	6
NMTAP	41	96	1
NMTAP	41	96	4
NMTAP	41	144	1
NMTAP	41	144	4
NMTAP	41	240	0
NMTAP	41	240	7
NMSTR	41	288	0
BRSCR	41	288	0	96	96	3
NMSTR	41	288	7
BRSCL	41	288	7	96	96	4
BRTAP	42	192	1
BRTAP	42	192	6
NMTAP	42	288	2
NMTAP	42	336	2
NMTAP	43	0	0
NMTAP	43	48	0
NMTAP	43	96	1
NMTAP	43	144	1
NMTAP	43	192	7
NMTAP	43	240	7
NMTAP	43	288	0
NMTAP	43	336	0
NMTAP	44	0	6
NMTAP	44	48	6
NMTAP	44	96	4
NMTAP	44	192	4
NMTAP	44	192	5
NMTAP	44	288	6
NMTAP	44	336	6
NMTAP	45	0	7
NMTAP	45	48	7
NMTAP	45	96	4
NMTAP	45	144	4
NMTAP	45	192	2
NMTAP	45	288	3
NMTAP	45	288	5
NMTAP	46	0	2
NMTAP	46	0	6
NMTAP	46	48	2
NMTAP	46	48	6
NMTAP	46	144	0
NMTAP	46	144	1
NMTAP	46	192	0
NMTAP	46	192	1
NMTAP	46	288	2
NMTAP	46	288	3
NMTAP	47	0	4
NMTAP	47	0	5
NMTAP	47	96	6
NMTAP	47	144	6
NMTAP	47	192	7
NMTAP	47	288	1
NMTAP	47	336	1
NMTAP	48	0	0
NMTAP	48	96	0
NMTAP	48	96	7
NMSTR	48	192	6
NMSUL	48	192	6	96	96	2
NMSTR	49	0	0
NMSUR	49	0	0	96	96	4
NMHLD	49	192	5	96
NMTAP	49	288	3
BRTAP	50	0	2
BRTAP	50	0	6
NMSTR	50	192	0
NMSI_	50	192	0	96	48	4
NMSTR	50	192	1
NMSI_	50	192	1	96	48	4
NMTAP	51	0	5
NMTAP	51	48	5
NMTAP	51	96	4
NMSTR	51	192	6
NMSI_	51	192	6	96	48	3
NMSTR	51	192	7
NMSI_	51	192	7	96	48	3
NMTAP	52	0	2
NMTAP	52	48	2
NMTAP	52	96	3
NMHLD	52	192	0	96
NMHLD	52	192	1	96
NMTAP	53	0	2
NMTAP	53	0	3
NMTAP	53	96	4
NMTAP	53	96	5
NMTAP	53	192	6
NMTAP	53	192	7
NMTAP	53	288	6
NMTAP	53	288	7
BRTAP	54	0	0
BRTAP	54	0	5
NMSTR	54	192	1
NMSCR	54	192	1	96	192	3
NMSTR	54	192	7
NMSCL	54	192	7	96	192	5
CNSV_	55	96	3	0	192	0
CNSV_	55	96	5	0	192	0
BRTAP	56	0	0
BRTAP	56	0	1
NMTAP	56	192	2
NMTAP	56	192	3
NMTAP	56	288	0
NMTAP	56	288	1
NMTAP	56	336	0
NMTAP	56	336	1
NMTAP	57	0	2
NMTAP	57	0	7
NMTAP	57	48	2
NMTAP	57	48	7
NMTAP	57	96	3
NMTAP	57	96	6
NMTAP	57	192	4
NMTAP	57	192	5
NMTAP	57	288	6
NMTAP	57	288	7
NMTAP	57	336	6
NMTAP	57	336	7
NMTAP	58	48	0
NMTAP	58	48	1
NMTAP	58	96	0
NMTAP	58	96	1
NMTTP	58	192	0	C	1	M1
NMTTP	58	192	2	B	0	M1
NMTTP	58	192	2	E	0	M1
NMTTP	58	192	3	E	0	M1
NMTTP	58	192	6	B	0	M1
NMTTP	58	192	6	E	0	M1
NMTTP	58	192	7	E	0	M1
EXTAP	59	192	0
EXTAP	59	192	7
EXTAP	59	288	0
EXTAP	59	288	7
NMTAP	60	0	1
NMTAP	60	96	2
NMTAP	60	96	3
NMHLD	60	192	1	96
NMTAP	60	288	3
NMTAP	61	0	0
NMTAP	61	48	0
NMTAP	61	96	1
NMTAP	61	96	7
NMHLD	61	192	6	96
NMTAP	61	288	4
NMTAP	62	0	7
NMTAP	62	48	7
NMTAP	62	96	0
NMTAP	62	96	6
NMTAP	62	192	2
NMTAP	62	288	2
NMTAP	62	288	3
NMTAP	63	0	1
NMTAP	63	48	1
NMTAP	63	96	0
NMTAP	63	192	5
NMTAP	63	288	4
NMTAP	63	288	5
NMTAP	64	0	6
NMTAP	64	48	6
NMTAP	64	96	7
NMHLD	64	192	0	96
NMHLD	64	192	5	96
NMHLD	64	336	1	96
NMHLD	64	336	6	96
NMTAP	65	96	2
NMSTR	65	96	7
NMSUL	65	96	7	96	96	2
EXTAP	66	0	0
EXTAP	66	24	7
EXTAP	66	48	0
EXTAP	66	72	7
EXTAP	66	96	0
NMTAP	66	192	2
NMTAP	66	192	3
NMTAP	66	288	1
NMTAP	66	288	3
NMTAP	67	0	4
NMTAP	67	0	5
NMTAP	67	96	4
NMTAP	67	96	6
NMSTR	67	192	2
NMSI_	67	192	2	96	48	7
NMTAP	67	288	3
NMSTR	68	0	5
NMSI_	68	0	5	96	48	0
NMTAP	68	96	4
NMTAP	68	192	2
NMTAP	68	288	0
NMTAP	68	288	1
NMTAP	69	0	5
NMTAP	69	96	6
NMTAP	69	96	7
NMTAP	69	192	3
NMSTR	69	288	0
NMSV_	69	288	0	96	96	5
NMSTR	69	288	1
NMSV_	69	288	1	96	96	6
NMHLD	70	192	7	96
NMTAP	70	288	0
NMTAP	70	336	0
NMTAP	71	0	0
NMTAP	71	48	6
NMTAP	71	96	6
NMTAP	71	144	6
NMTAP	71	192	3
NMTAP	71	192	5
NMTAP	71	288	7
NMTAP	71	336	7
NMTAP	72	0	7
NMTAP	72	48	2
NMTAP	72	96	2
NMTAP	72	144	2
NMTAP	72	192	3
NMTAP	72	192	5
NMTAP	72	288	0
NMTAP	72	336	0
NMTAP	73	0	0
NMTAP	73	48	1
NMTAP	73	48	7
NMTAP	73	96	1
NMTAP	73	96	7
NMTAP	73	144	1
NMTAP	73	144	7
BXHLD	73	192	2	288
BXHLD	73	192	6	288
NMTAP	74	192	5
NMTAP	74	240	4
NMTAP	74	288	3
NMTAP	75	0	3
NMTAP	75	0	5
NMTAP	75	96	3
NMTAP	75	96	5
NMTAP	75	192	5
NMTAP	75	240	4
NMTAP	75	288	3
NMTAP	76	0	3
NMTAP	76	0	5
NMTAP	76	192	2
NMTAP	76	240	3
NMTAP	76	288	4
NMTAP	77	0	2
NMTAP	77	0	4
NMTAP	77	96	2
NMTAP	77	96	4
NMTAP	77	192	2
NMTAP	77	240	3
NMTAP	77	288	4
NMTAP	78	0	2
NMTAP	78	0	4
NMSTR	78	96	0
NMSCR	78	96	0	96	192	4
NMTAP	79	144	5
NMHLD	79	192	5	96
NMTAP	79	288	4
NMTAP	79	336	4
NMTAP	80	96	6
NMTAP	80	144	6
NMTAP	80	192	7
NMTAP	80	288	0
NMTAP	80	288	5
NMTAP	80	336	0
NMTAP	80	336	5
NMTAP	81	48	1
NMTAP	81	48	6
NMTAP	81	96	1
NMTAP	81	96	6
NMSTR	81	192	2
NMSCR	81	192	2	96	96	5
NMTAP	81	192	7
NMSTR	82	0	6
NMSCR	82	0	6	96	96	1
NMTHO	82	192	0	384	C	1	M1
NMHLD	84	192	2	192
NMHLD	85	0	3	192
NMSTR	85	192	4
NMSLL	85	192	4	96	192	0
NMHLD	86	192	5	192
NMHLD	87	0	4	192
NMSTR	87	192	3
NMSLR	87	192	3	96	192	7
NMSTR	88	192	0
NMSUL	88	192	0	96	192	4
NMTAP	88	192	1
NMSTR	89	192	3
NMSUL	89	192	3	96	192	7
NMTAP	89	192	4
NMSTR	90	192	6
NMSUL	90	192	6	96	192	2
NMTAP	90	192	7
NMTAP	91	192	0
NMSTR	91	192	1
BRSI_	91	192	1	96	96	5
NMTAP	92	0	7
NMTAP	92	48	7
NMTAP	92	96	4
NMTAP	92	96	6
NMTAP	92	192	1
NMTAP	92	192	3
NMTAP	92	288	4
NMTAP	92	288	5
NMTAP	92	336	4
NMTAP	92	336	5
NMTAP	93	48	2
NMTAP	93	48	3
NMTAP	93	96	2
NMTAP	93	96	3
NMTAP	93	192	5
NMTAP	93	192	7
NMTAP	93	240	5
NMTAP	93	240	7
NMTAP	93	336	0
NMTAP	93	336	2
NMTAP	94	0	0
NMTAP	94	0	2
NMTAP	94	96	6
NMTAP	94	96	7
NMTAP	94	192	4
NMTAP	94	192	5
NMTAP	94	288	1
NMTAP	94	288	3
NMTAP	94	336	1
NMTAP	94	336	3
NMTAP	95	48	4
NMTAP	95	48	6
NMTAP	95	96	4
NMTAP	95	96	6
NMTAP	95	192	0
NMTAP	95	192	2
NMTAP	95	240	0
NMTAP	95	240	2
NMTAP	95	336	5
NMTAP	95	336	7
NMTAP	96	0	5
NMTAP	96	0	7
NMTAP	96	96	2
NMTAP	96	96	3
NMTAP	96	192	4
NMTAP	96	192	5
NMTAP	96	288	3
NMTAP	96	336	3
NMTAP	97	0	2
NMTAP	97	48	2
NMTAP	97	96	1
NMTAP	97	144	1
NMTAP	97	192	0
NMTAP	97	240	0
NMTAP	97	288	7
NMTAP	97	336	7
NMTAP	98	0	6
NMTAP	98	48	6
NMTAP	98	96	5
NMTAP	98	144	5
NMTAP	98	192	4
NMTAP	98	288	1
NMTAP	98	336	1
NMTAP	99	0	3
NMTAP	99	96	5
NMTAP	99	144	5
NMTAP	99	192	3
NMTAP	99	288	2
NMTAP	99	288	6
NMHLD	99	336	2	144
NMHLD	99	336	6	144
NMTTP	100	192	0	C	1	M1
NMTTP	100	192	2	B	0	M1
NMTTP	100	192	2	E	0	M1
NMTTP	100	192	3	E	0	M1
NMTTP	100	192	6	B	0	M1
NMTTP	100	192	6	E	0	M1
NMTTP	100	192	7	E	0	M1

T_REC_TAP	383
T_REC_BRK	8
T_REC_XTP	11
T_REC_BXX	4
T_REC_HLD	34
T_REC_XHO	0
T_REC_BHO	0
T_REC_BXH	2
T_REC_STR	30
T_REC_BST	0
T_REC_XST	0
T_REC_XBS	0
T_REC_TTP	33
T_REC_THO	1
T_REC_SLD	28
T_REC_BSL	3
T_REC_ALL	537
T_NUM_TAP	457
T_NUM_BRK	17
T_NUM_HLD	35
T_NUM_SLD	28
T_NUM_ALL	537
T_JUDGE_TAP	469
T_JUDGE_HLD	186
T_JUDGE_SLD	31
T_JUDGE_ALL	686
TTM_EACHPAIRS	123
TTM_SCR_TAP	228500
TTM_SCR_BRK	44200
TTM_SCR_HLD	35000
TTM_SCR_SLD	42000
TTM_SCR_ALL	349700
TTM_SCR_S	337600
TTM_SCR_SS	348000
TTM_RAT_ACV	10048

