VERSION	0.00.00	1.05.00
FES_MODE	0
BPM_DEF	184.000	184.000	184.000	184.000
MET_DEF	4	4
RESOLUTION	384
CLK_DEF	384
COMPATIBLE_CODE	MA2

BPM	0	0	184.000
MET	0	0	4	4

NMTAP	1	288	0
NMTAP	1	312	1
NMTAP	1	336	2
NMTAP	1	336	3
NMTAP	1	360	4
NMHLD	2	0	5	48
NMSTR	2	96	3
NMSI_	2	96	3	96	96	0
NMHLD	2	96	5	48
NMHLD	2	192	5	48
NMHLD	2	288	5	48
NMTAP	3	0	0
NMHLD	3	0	5	48
NMSTR	3	96	0
NMSCR	3	96	0	96	96	3
NMHLD	3	96	5	48
NMHLD	3	192	5	48
NMHLD	3	288	5	48
NMTAP	4	0	3
NMHLD	4	0	5	48
NMSTR	4	96	3
NMSUL	4	96	3	96	96	7
NMHLD	4	96	5	48
NMHLD	4	192	5	48
NMHLD	4	288	5	48
NMHLD	5	0	5	48
NMTAP	5	0	6
NMHLD	5	96	5	48
NMSTR	5	96	6
NMSCR	5	96	6	96	96	1
NMHLD	5	192	5	48
NMHLD	5	288	5	48
NMHLD	6	0	2	48
NMTAP	6	0	4
NMHLD	6	96	2	48
NMSTR	6	96	4
NMSV_	6	96	4	96	96	7
NMHLD	6	192	2	48
NMHLD	6	288	2	48
NMHLD	7	0	2	48
NMTAP	7	0	7
NMHLD	7	96	2	48
NMSTR	7	96	7
NMSCL	7	96	7	96	96	4
NMHLD	7	192	2	48
NMHLD	7	288	2	48
NMHLD	8	0	2	48
NMTAP	8	0	4
NMHLD	8	96	2	48
NMSTR	8	96	4
NMSI_	8	96	4	96	96	0
NMHLD	8	192	2	48
NMHLD	8	288	2	48
NMTAP	9	0	0
NMHLD	9	0	2	48
NMSTR	9	96	0
NMSUL	9	96	0	96	96	4
NMHLD	9	96	2	48
NMHLD	9	192	2	48
NMHLD	9	288	2	48
NMSTR	10	0	2
NMSXR	10	0	2	96	96	1
NMTAP	10	96	4
NMSTR	10	192	5
NMSXL	10	192	5	96	96	6
NMTAP	10	288	4
NMSTR	11	0	3
NMSXR	11	0	3	96	96	2
NMTAP	11	96	4
NMSTR	11	192	4
NMSXL	11	192	4	96	96	5
NMTAP	11	288	3
NMSTR	12	0	3
NMSCL	12	0	3	96	384	4
NMTAP	13	192	5
NMTAP	13	224	6
NMTAP	13	256	7
NMTAP	13	288	1
NMTAP	13	320	2
NMTAP	13	352	3
NMTTP	14	0	5	E	1	M1
NMTAP	14	64	5
NMTAP	14	96	5
NMTAP	14	128	4
NMTAP	14	160	7
NMTAP	14	192	5
NMTAP	14	256	2
NMTAP	14	288	2
NMTAP	14	320	3
NMTAP	14	352	0
NMSTR	15	0	4
NMSI_	15	0	4	96	48	0
NMTAP	15	64	4
NMSTR	15	96	2
NMSI_	15	96	2	96	48	5
NMTAP	15	160	2
NMSTR	15	192	6
NMSI_	15	192	6	96	48	0
NMTAP	15	256	6
NMTAP	15	288	4
NMTAP	16	0	3
NMTAP	16	0	5
NMTAP	16	64	2
NMTAP	16	96	2
NMTAP	16	128	3
NMTAP	16	160	0
NMTAP	16	192	2
NMTAP	16	256	5
NMTAP	16	288	5
NMTAP	16	320	4
NMTAP	16	352	7
NMSTR	17	0	3
NMSI_	17	0	3	96	48	7
NMTAP	17	64	3
NMSTR	17	96	5
NMSI_	17	96	5	96	48	2
NMTAP	17	160	5
NMSTR	17	192	1
NMSI_	17	192	1	96	48	6
NMTAP	17	256	1
NMTAP	17	288	4
NMHLD	18	0	7	768
NMTTP	18	128	7	E	0	M1
NMTTP	18	160	6	E	0	M1
NMTTP	18	192	5	E	0	M1
NMTTP	18	320	1	E	0	M1
NMTTP	18	352	2	E	0	M1
NMTTP	19	0	3	E	0	M1
NMTTP	19	128	0	E	0	M1
NMTTP	19	160	0	C	0	M1
NMTTP	19	192	4	E	0	M1
NMTAP	20	0	1
NMSTR	20	64	0
NMSCR	20	64	0	96	320	7
NMHLD	20	128	0	448
NMTTP	22	0	2	E	0	M1
NMTTP	22	96	1	E	0	M1
NMTTP	22	192	0	E	0	M1
NMTTP	22	288	7	E	0	M1
NMTTP	23	0	6	E	0	M1
NMTTP	23	192	7	D	0	M1
NMTTP	23	288	6	B	0	M1
NMTTP	24	0	0	E	0	M1
NMTTP	24	96	1	B	0	M1
NMTTP	24	192	1	D	0	M1
NMTTP	25	0	2	B	0	M1
NMTTP	25	96	3	B	0	M1
NMTTP	25	192	4	B	0	M1
NMTTP	25	288	5	B	0	M1
NMTHO	26	0	0	192	C	0	M1
NMTTP	27	0	0	E	0	M1
NMTTP	27	192	0	A	0	M1
NMTTP	27	192	7	A	0	M1
NMTTP	27	288	1	A	0	M1
NMTTP	27	288	6	A	0	M1
NMTTP	28	0	2	A	0	M1
NMTTP	28	0	5	A	0	M1
NMTTP	28	96	3	A	0	M1
NMTTP	28	96	4	A	0	M1
NMTTP	28	96	4	D	0	M1
NMTTP	28	192	2	D	0	M1
NMTTP	28	192	6	D	0	M1
NMTTP	28	288	1	D	0	M1
NMTTP	28	288	7	D	0	M1
EXHLD	29	0	0	288
EXHLD	29	192	7	96
BRTAP	30	0	0
BRTAP	30	0	7
NMTAP	30	64	1
NMSTR	30	96	1
NMSCL	30	96	1	96	48	6
NMTAP	30	128	3
NMTAP	30	160	3
NMHLD	30	192	2	96
EXTAP	30	288	0
NMTAP	31	0	7
NMTAP	31	32	7
NMTAP	31	64	7
NMTAP	31	96	0
NMTAP	31	96	6
NMTAP	31	192	1
NMTAP	31	224	3
NMTAP	31	256	2
NMTAP	31	288	6
NMTAP	31	320	4
NMTAP	31	352	5
NMTAP	32	0	5
NMTAP	32	64	6
NMSTR	32	96	6
NMSCR	32	96	6	96	48	1
NMTAP	32	128	4
NMTAP	32	160	4
NMHLD	32	192	5	96
EXTAP	32	288	7
NMTAP	33	0	0
NMTAP	33	32	0
NMTAP	33	64	0
NMTAP	33	96	1
NMTAP	33	96	7
NMTAP	33	192	5
NMTAP	33	224	4
NMTAP	33	256	6
NMTAP	33	288	2
NMTAP	33	320	3
NMTAP	33	352	1
NMTAP	34	0	1
NMTAP	34	0	3
NMSTR	34	96	2
NMSCR	34	96	2	96	48	5
NMTAP	34	128	0
NMTAP	34	160	0
NMHLD	34	192	1	96
NMSTR	34	192	2
NMSI_	34	192	2	96	48	7
NMTAP	34	288	2
NMTAP	35	0	5
NMTAP	35	32	5
NMTAP	35	64	5
NMTAP	35	96	4
NMTAP	35	96	6
NMTAP	35	192	2
NMTAP	35	224	0
NMTAP	35	256	1
NMTAP	35	288	5
NMTAP	35	320	7
NMTAP	35	352	6
NMTAP	36	0	6
NMTAP	36	64	5
NMSTR	36	96	5
NMSCL	36	96	5	96	48	2
NMTAP	36	128	7
NMTAP	36	160	7
NMSTR	36	192	5
NMSI_	36	192	5	96	48	0
NMHLD	36	192	6	96
NMTAP	36	288	5
NMSTR	37	0	1
NMSCR	37	0	1	96	48	4
NMSTR	37	0	7
NMSCL	37	0	7	96	48	4
NMTAP	37	32	0
NMTAP	37	64	0
NMSTR	37	192	0
NMSCR	37	192	0	96	48	3
NMSTR	37	192	6
NMSCL	37	192	6	96	48	3
NMTAP	37	224	7
NMTAP	37	256	7
NMTHO	38	0	0	1536	C	0	M1
NMTTP	38	0	1	B	0	M1
NMTTP	38	0	5	B	0	M1
NMTTP	39	0	7	E	0	M1
NMTTP	39	96	0	D	0	M1
NMTTP	39	128	7	A	0	M1
NMTTP	39	160	7	D	0	M1
NMTTP	39	192	6	A	0	M1
NMTTP	39	224	6	D	0	M1
NMTTP	39	256	5	A	0	M1
NMTTP	39	288	5	D	0	M1
NMTTP	39	320	4	A	0	M1
NMTTP	39	352	4	D	0	M1
NMTTP	40	0	3	A	0	M1
NMTTP	41	0	1	E	0	M1
NMTTP	41	96	0	D	0	M1
NMTTP	41	128	0	A	0	M1
NMTTP	41	160	1	D	0	M1
NMTTP	41	192	1	A	0	M1
NMTTP	41	224	2	D	0	M1
NMTTP	41	256	2	A	0	M1
NMTTP	41	288	3	D	0	M1
NMTTP	41	320	3	A	0	M1
NMTTP	41	352	4	D	0	M1
NMTTP	42	0	4	A	0	M1
EXTAP	42	96	7
EXTAP	42	288	7
NMTAP	42	352	3
NMTAP	43	0	5
EXTAP	43	96	0
EXTAP	43	288	0
NMTAP	43	352	4
NMTAP	44	0	2
NMTAP	44	64	2
NMTAP	44	96	3
NMTAP	44	128	1
NMTAP	44	160	2
NMTAP	44	192	0
NMTAP	44	256	5
NMTAP	44	288	4
NMTAP	44	320	6
NMTAP	44	352	5
NMTAP	45	0	7
NMTAP	45	32	7
NMTAP	45	64	7
NMTAP	45	96	0
NMTAP	45	96	6
NMTAP	45	160	2
NMTAP	45	160	4
NMTAP	45	192	2
NMTAP	45	192	4
NMTAP	45	256	3
NMTAP	45	288	3
NMTAP	45	320	5
NMTAP	45	352	1
NMSTR	46	0	7
NMSCL	46	0	7	96	48	4
NMTAP	46	64	2
NMSTR	46	96	7
NMSCR	46	96	7	96	48	2
NMTAP	46	160	3
NMSTR	46	192	7
NMSCL	46	192	7	96	48	4
NMTAP	46	256	4
NMTAP	46	288	3
NMTAP	46	288	7
NMTAP	46	320	2
NMTAP	46	352	1
NMSTR	47	0	0
NMSCR	47	0	0	96	48	3
NMTAP	47	64	5
NMSTR	47	96	0
NMSCL	47	96	0	96	48	5
NMTAP	47	160	4
NMSTR	47	192	0
NMSCR	47	192	0	96	48	3
NMTAP	47	256	3
NMTAP	47	288	0
NMTAP	47	288	4
NMTAP	47	320	5
NMTAP	47	352	6
NMSTR	48	0	7
NMSCL	48	0	7	96	48	4
NMTAP	48	64	2
NMSTR	48	96	7
NMSCR	48	96	7	96	48	2
NMTAP	48	160	3
NMSTR	48	192	7
NMSCL	48	192	7	96	48	4
NMTAP	48	256	4
NMSTR	48	288	3
NMSI_	48	288	3	96	48	7
NMTAP	48	320	2
NMTAP	48	352	1
NMSTR	49	0	0
NMSI_	49	0	0	96	48	4
NMSTR	49	96	0
NMSCL	49	96	0	96	48	5
NMSCR	49	96	0	96	48	3
NMTAP	49	192	0
BRTAP	49	288	2
BRTAP	49	288	6
NMSTR	50	0	3
NMSLL	50	0	3	96	96	7
NMTAP	50	0	5
NMTAP	50	96	4
NMTAP	50	128	4
NMTAP	50	160	4
NMSTR	50	192	4
NMSLR	50	192	4	96	96	0
NMTAP	50	288	3
NMTAP	50	320	3
NMTAP	50	352	3
NMSTR	51	0	3
NMSLL	51	0	3	96	96	7
NMTAP	51	96	4
NMTAP	51	128	4
NMTAP	51	160	4
NMSTR	51	192	4
NMSLR	51	192	4	96	96	0
NMTAP	51	288	3
NMTAP	52	0	2
NMSTR	52	96	2
NMSI_	52	96	2	96	48	6
NMSI_	52	96	2	96	48	7
NMTAP	52	128	3
NMTAP	52	160	1
NMSTR	52	288	5
NMSI_	52	288	5	96	48	0
NMSI_	52	288	5	96	48	1
NMTAP	52	320	4
NMTAP	52	352	6
NMSTR	53	96	2
NMSCL	53	96	2	96	96	4
NMSUL	53	96	2	96	96	4
NMTAP	53	128	3
NMTAP	53	160	1
BRTAP	53	192	2
NMTAP	54	0	4
NMTAP	54	0	5
NMTAP	54	64	6
NMSTR	54	96	7
NMSCL	54	96	7	96	48	3
NMSUL	54	96	7	96	48	2
NMTAP	54	128	6
EXTAP	54	192	7
EXTAP	54	288	1
EXTAP	54	288	4
NMTAP	55	0	2
NMTAP	55	0	3
NMTAP	55	64	1
NMSTR	55	96	0
NMSCR	55	96	0	96	48	4
NMSUR	55	96	0	96	48	5
NMTAP	55	128	1
EXTAP	55	192	0
EXTAP	55	288	3
EXTAP	55	288	6
NMSTR	56	0	4
NMSI_	56	0	4	96	48	0
NMSTR	56	0	5
NMSI_	56	0	5	96	48	0
NMTAP	56	96	4
NMTAP	56	96	5
NMSTR	56	192	2
NMSI_	56	192	2	96	48	7
NMSTR	56	192	3
NMSI_	56	192	3	96	48	7
NMTAP	56	288	2
NMTAP	56	288	3
NMTAP	57	0	5
NMTAP	57	32	4
NMTAP	57	64	6
NMTAP	57	96	1
NMTAP	57	128	3
NMTAP	57	160	2
NMTAP	57	192	6
NMTAP	57	224	4
NMTAP	57	256	5
NMTAP	57	288	2
NMTAP	57	320	3
NMTAP	57	352	0
NMSTR	58	0	0
NMSCR	58	0	0	96	96	4
NMTAP	58	64	6
NMTAP	58	96	6
NMSTR	58	192	0
NMSCL	58	192	0	96	96	4
NMTAP	58	256	2
NMTAP	58	288	2
NMSTR	59	0	0
NMSCR	59	0	0	96	96	4
NMTAP	59	64	6
NMTAP	59	96	6
BRTAP	59	192	0
BRTAP	60	0	2
NMTAP	60	24	4
NMTAP	60	48	2
NMTAP	60	72	4
NMTAP	60	96	2
NMTAP	60	120	3
NMTAP	60	144	2
NMTAP	60	168	3
EXTAP	60	192	2
NMTAP	60	216	1
NMTAP	60	240	2
NMTAP	60	264	3
EXTAP	60	288	2
NMTAP	60	312	1
NMTAP	60	336	2
NMTAP	60	360	3
EXTAP	61	0	2
NMTAP	61	24	4
NMTAP	61	48	2
NMTAP	61	72	4
NMTAP	61	96	2
NMTAP	61	120	3
NMTAP	61	144	2
NMTAP	61	168	3
EXTAP	61	192	2
NMTAP	61	216	1
NMTAP	61	240	2
NMTAP	61	264	0
NMTAP	61	288	2
NMTAP	61	312	0
NMTAP	61	336	2
BRTAP	62	0	5
NMTAP	62	24	3
NMTAP	62	48	5
NMTAP	62	72	3
NMTAP	62	96	5
NMTAP	62	120	4
NMTAP	62	144	5
NMTAP	62	168	4
EXTAP	62	192	5
NMTAP	62	216	6
NMTAP	62	240	5
NMTAP	62	264	4
EXTAP	62	288	5
NMTAP	62	312	6
NMTAP	62	336	5
NMTAP	62	360	4
EXTAP	63	0	5
NMTAP	63	24	3
NMTAP	63	48	5
NMTAP	63	72	3
NMTAP	63	96	5
NMTAP	63	120	4
NMTAP	63	144	5
NMTAP	63	168	4
EXTAP	63	192	5
NMTAP	63	216	6
NMTAP	63	240	5
NMTAP	63	264	7
EXTAP	63	288	5
NMTAP	63	312	0
NMTAP	63	336	5
NMTAP	63	360	1
EXSTR	64	0	5
NMSI_	64	0	5	96	48	0
NMSTR	64	96	2
NMSI_	64	96	2	96	48	7
NMTAP	64	96	5
NMTAP	64	192	2
NMSTR	64	192	6
NMSI_	64	192	6	96	48	3
NMSTR	64	288	0
NMSI_	64	288	0	96	48	5
NMTAP	64	288	6
NMTAP	65	0	0
NMSTR	65	0	4
NMSV_	65	0	4	96	48	7
NMTAP	65	96	4
NMTAP	65	96	6
NMTAP	65	160	5
NMTAP	65	192	6
NMTAP	65	224	7
NMTAP	65	256	0
NMTAP	65	288	1
NMTAP	65	320	2
NMTAP	65	352	3
NMHLD	66	0	0	672
NMHLD	66	0	4	672
NMTTP	68	0	1	A	0	M1
NMTTP	68	96	2	E	0	M1
NMTTP	68	192	3	E	0	M1
NMTTP	68	288	3	A	0	M1
NMTTP	69	0	1	A	0	M1
NMHLD	69	0	7	384
NMTTP	69	96	2	E	0	M1
NMTTP	69	192	3	E	0	M1
NMTTP	69	288	3	A	0	M1
NMTTP	70	0	1	A	0	M1
NMTTP	70	96	2	E	0	M1
NMSTR	70	96	6
NMSI_	70	96	6	96	48	0
NMTTP	70	192	3	E	0	M1
NMTTP	70	288	3	A	0	M1
NMTAP	70	288	7
NMTTP	71	0	1	A	0	M1
NMTAP	71	0	7
NMTTP	71	96	2	E	0	M1
NMSTR	71	96	7
NMSCL	71	96	7	96	48	4
NMTTP	71	192	3	E	0	M1
NMTTP	71	288	3	A	0	M1
NMTAP	71	288	6
NMTTP	72	0	1	A	0	M1
NMTAP	72	0	5
NMTTP	72	96	2	E	0	M1
NMSTR	72	96	4
NMSI_	72	96	4	96	96	7
NMTTP	72	192	3	E	0	M1
NMTTP	72	288	3	A	0	M1
NMTTP	73	0	1	A	0	M1
NMSTR	73	0	7
NMSI_	73	0	7	96	96	4
NMTTP	73	96	2	E	0	M1
NMTTP	73	192	3	E	0	M1
NMTTP	73	288	3	A	0	M1
NMTTP	74	0	1	A	0	M1
NMHLD	74	0	4	288
NMTTP	74	96	2	E	0	M1
NMTTP	74	192	3	E	0	M1
NMTTP	74	288	3	A	0	M1
NMTTP	75	0	1	A	0	M1
NMSTR	75	0	4
NMSV_	75	0	4	96	96	7
NMTTP	75	96	2	E	0	M1
NMTTP	75	192	3	E	0	M1
NMTTP	75	288	3	A	0	M1
NMTAP	76	0	1
NMTTP	76	0	6	A	0	M1
NMTAP	76	96	1
NMTTP	76	96	6	E	0	M1
NMTAP	76	192	0
NMTTP	76	192	5	E	0	M1
NMTAP	76	288	0
NMTTP	76	288	4	A	0	M1
NMHLD	77	0	0	96
NMTTP	77	0	6	A	0	M1
NMTTP	77	96	6	E	0	M1
NMTAP	77	192	1
NMTTP	77	192	5	E	0	M1
NMTAP	77	288	1
NMTTP	77	288	4	A	0	M1
NMTAP	78	0	0
NMTTP	78	0	6	A	0	M1
NMSTR	78	96	0
NMSCR	78	96	0	96	48	3
NMTTP	78	96	6	E	0	M1
NMTTP	78	192	5	E	0	M1
NMTTP	78	288	4	A	0	M1
NMTAP	79	0	3
NMTTP	79	0	6	A	0	M1
NMTTP	79	96	6	E	0	M1
NMSTR	79	192	3
NMSXR	79	192	3	96	480	0
NMTTP	79	192	5	E	0	M1
NMTTP	79	288	4	A	0	M1
NMTTP	80	0	6	A	0	M1
NMTTP	80	96	6	E	0	M1
NMTTP	80	192	5	E	0	M1
NMTTP	80	288	4	A	0	M1
NMTTP	81	0	6	A	0	M1
NMTTP	81	96	6	E	0	M1
NMTAP	81	192	1
NMTTP	81	192	5	E	0	M1
NMTAP	81	288	1
NMTTP	81	288	4	A	0	M1
NMTAP	82	0	0
NMTTP	82	0	6	A	0	M1
NMSTR	82	96	0
NMSCR	82	96	0	96	48	3
NMTTP	82	96	6	E	0	M1
NMTTP	82	192	5	E	0	M1
NMTAP	82	288	1
NMTTP	82	288	4	A	0	M1
NMTAP	83	0	2
NMTTP	83	0	6	A	0	M1
NMSTR	83	96	3
NMSI_	83	96	3	96	96	0
NMTTP	83	96	6	E	0	M1
NMTTP	83	192	5	E	0	M1
NMTTP	83	288	4	A	0	M1
NMHLD	84	0	1	288
NMHLD	84	0	7	288
NMHLD	85	0	3	288
NMTAP	85	0	5
NMTAP	85	96	4
NMTAP	85	128	5
NMTAP	85	160	6
NMTAP	85	192	7
NMTAP	85	224	0
NMTAP	85	256	1
NMTAP	85	288	2
NMTAP	85	320	3
NMTAP	85	352	4
NMHLD	86	0	3	288
NMHLD	86	0	5	288
NMHLD	87	0	1	288
NMTAP	87	0	7
NMTAP	87	96	0
NMTAP	87	128	7
NMTAP	87	160	6
NMTAP	87	192	5
NMTAP	87	224	4
NMTAP	87	256	3
NMTAP	87	288	2
NMTAP	87	320	1
NMTAP	87	352	0
NMSTR	88	0	7
NMSI_	88	0	7	96	48	3
NMTAP	88	64	7
NMTAP	88	96	2
NMSTR	88	192	0
NMSI_	88	192	0	96	48	4
NMTAP	88	256	0
NMTAP	88	288	4
NMSTR	89	0	5
NMSI_	89	0	5	96	48	1
NMTAP	89	64	5
NMTAP	89	96	3
NMSTR	89	192	2
NMSI_	89	192	2	96	48	6
NMTAP	89	256	2
NMTAP	89	288	6
NMSTR	90	0	7
NMSCL	90	0	7	96	96	3
NMTAP	90	64	7
NMTAP	90	96	2
NMTAP	90	192	1
NMTAP	90	288	0
NMSTR	91	0	0
NMSCR	91	0	0	96	96	4
NMTAP	91	64	0
NMTAP	91	96	6
NMHLD	91	192	7	384
NMSTR	92	0	4
NMSI_	92	0	4	96	48	1
NMTAP	92	32	4
NMTAP	92	64	4
NMSTR	92	96	4
NMSI_	92	96	4	96	48	0
NMSTR	92	192	4
NMSI_	92	192	4	96	48	7
NMTAP	92	288	2
NMTAP	92	288	4
NMTAP	93	0	1
NMTAP	93	24	0
NMTAP	93	48	1
NMTAP	93	72	0
NMTAP	93	96	2
NMTAP	93	120	3
NMTAP	93	144	2
NMTAP	93	168	3
NMTAP	93	192	4
NMTAP	93	216	5
NMTAP	93	240	6
NMTAP	93	264	7
NMTAP	93	288	4
NMTAP	93	312	3
NMTAP	93	336	2
NMTAP	93	360	1
NMTAP	94	0	6
NMTAP	94	24	7
NMTAP	94	48	6
NMTAP	94	72	7
NMTAP	94	96	5
NMTAP	94	120	4
NMTAP	94	144	5
NMTAP	94	168	4
NMTAP	94	192	3
NMTAP	94	216	2
NMTAP	94	240	1
NMTAP	94	264	0
NMTAP	94	288	3
NMTAP	94	312	4
NMTAP	94	336	5
NMTAP	94	360	6
NMTAP	95	0	2
NMTAP	95	24	3
NMTAP	95	48	2
NMTAP	95	72	3
NMTAP	95	96	1
NMTAP	95	120	0
NMTAP	95	144	1
NMTAP	95	168	0
NMTAP	95	192	7
NMTAP	95	216	6
NMTAP	95	240	5
NMTAP	95	264	4
NMTAP	95	288	7
NMTAP	95	312	0
NMTAP	95	336	1
NMTAP	95	360	2
NMTAP	96	0	5
NMTAP	96	24	4
NMTAP	96	48	5
NMTAP	96	72	4
NMTAP	96	96	6
NMTAP	96	120	7
NMTAP	96	144	6
NMTAP	96	168	7
NMTAP	96	192	0
NMTAP	96	216	1
NMTAP	96	240	2
NMTAP	96	264	3
NMTAP	96	288	0
NMTAP	96	312	7
NMTAP	96	336	6
NMTAP	96	360	5
NMSTR	97	0	1
NMSI_	97	0	1	96	48	5
NMTAP	97	32	1
NMTAP	97	64	1
NMTAP	97	96	6
NMTAP	97	128	6
NMTAP	97	160	6
NMSTR	97	192	7
NMSI_	97	192	7	96	48	3
NMTAP	97	224	7
NMTAP	97	256	7
NMTAP	97	288	1
NMTAP	97	320	1
NMTAP	97	352	1
NMSTR	98	0	0
NMSI_	98	0	0	96	48	4
NMTAP	98	32	0
NMTAP	98	64	0
NMTAP	98	96	5
NMTAP	98	128	5
NMTAP	98	160	5
NMSTR	98	192	6
NMSI_	98	192	6	96	48	2
NMTAP	98	224	6
NMTAP	98	256	6
NMTAP	98	288	2
NMTAP	99	0	1
NMTAP	99	32	1
NMTAP	99	64	3
NMTAP	99	96	2
NMTAP	99	128	2
NMTAP	99	160	3
NMTAP	99	192	1
NMTAP	99	224	1
NMTAP	99	256	3
NMTAP	99	288	0
NMTAP	99	320	0
NMTAP	99	352	3
NMTAP	100	0	1
NMTAP	100	0	3
NMTAP	100	32	1
NMTAP	100	32	3
NMTAP	100	96	3
NMTAP	100	96	4
NMTAP	100	128	3
NMTAP	100	128	4
NMTAP	100	192	4
NMTAP	100	192	6
NMTAP	100	224	4
NMTAP	100	224	6
NMTAP	100	288	0
NMTAP	100	288	7
NMTAP	100	320	0
NMTAP	100	320	7
NMTAP	101	0	6
NMTAP	101	32	6
NMTAP	101	64	4
NMTAP	101	96	5
NMTAP	101	128	5
NMTAP	101	160	4
NMTAP	101	192	6
NMTAP	101	224	6
NMTAP	101	256	4
NMTAP	101	288	7
NMTAP	101	320	7
NMTAP	101	352	4
NMTAP	102	0	1
NMTAP	102	0	3
NMTAP	102	32	1
NMTAP	102	32	3
NMTAP	102	96	4
NMTAP	102	96	6
NMTAP	102	128	4
NMTAP	102	128	6
NMTAP	102	192	3
NMTAP	102	192	4
NMTAP	102	224	2
NMTAP	102	224	4
NMTAP	102	256	1
NMTAP	102	256	4
NMTAP	102	288	0
NMTAP	102	288	4
NMTAP	102	320	4
NMSTR	102	320	7
NMSCR	102	320	7	96	448	6
NMTAP	102	352	4
NMTAP	102	352	6
NMTAP	103	0	4
BRTAP	103	0	5
NMTAP	105	0	0
NMSTR	105	96	0
NMSV_	105	96	0	96	96	2
CNSI_	105	288	2	0	96	4
NMTAP	106	0	7
NMSTR	106	96	7
NMSV_	106	96	7	96	96	5
CNSI_	106	288	5	0	96	3
NMTAP	107	0	0
NMSTR	107	96	0
NMSXL	107	96	0	96	96	2
CNSCR	107	288	2	0	96	4
NMTAP	108	0	7
NMSTR	108	96	7
NMSXR	108	96	7	96	96	5
CNSCL	108	288	5	0	96	3
NMTAP	109	0	0
NMSTR	109	96	0
NMSCR	109	96	0	96	96	4
NMTAP	110	0	7
NMSTR	110	96	7
NMSLL	110	96	7	96	96	3
NMTAP	110	192	2
NMHLD	110	288	1	96
BRSTR	111	0	3
NMSI_	111	0	3	96	48	0
NMTAP	111	32	4
NMTAP	111	64	5
NMTAP	111	96	6
NMTAP	111	128	6
NMTAP	111	160	5
NMSTR	111	192	4
NMSV_	111	192	4	96	48	7
NMTAP	111	224	3
NMTAP	111	256	2
NMSTR	111	288	1
BRSCR	111	288	1	96	48	3
NMSTR	111	288	4
BRSCR	111	288	4	96	48	6
NMTAP	111	320	0
NMTAP	111	352	0
BRTAP	112	0	1
BRTAP	112	0	4

T_REC_TAP	477
T_REC_BRK	11
T_REC_XTP	21
T_REC_BXX	0
T_REC_HLD	51
T_REC_XHO	2
T_REC_BHO	0
T_REC_BXH	0
T_REC_STR	94
T_REC_BST	1
T_REC_XST	1
T_REC_XBS	0
T_REC_TTP	126
T_REC_THO	2
T_REC_SLD	100
T_REC_BSL	2
T_REC_ALL	888
T_NUM_TAP	719
T_NUM_BRK	14
T_NUM_HLD	55
T_NUM_SLD	100
T_NUM_ALL	888
T_JUDGE_TAP	731
T_JUDGE_HLD	200
T_JUDGE_SLD	102
T_JUDGE_ALL	1033
TTM_EACHPAIRS	73
TTM_SCR_TAP	359500
TTM_SCR_BRK	36400
TTM_SCR_HLD	55000
TTM_SCR_SLD	150000
TTM_SCR_ALL	600900
TTM_SCR_S	581550
TTM_SCR_SS	599500
TTM_RAT_ACV	10023

