VERSION	0.00.00	1.05.00
FES_MODE	0
BPM_DEF	184.000	184.000	184.000	184.000
MET_DEF	4	4
RESOLUTION	384
CLK_DEF	384
COMPATIBLE_CODE	MA2

BPM	0	0	184.000
MET	0	0	4	4

NMHLD	2	0	0	192
NMHLD	2	192	2	192
NMHLD	3	0	3	192
NMHLD	3	192	5	192
NMSTR	4	0	4
NMSCL	4	0	4	96	96	1
NMSTR	4	192	7
NMSCL	4	192	7	96	96	4
NMTAP	5	0	0
NMTAP	5	192	3
NMTAP	5	192	5
NMHLD	6	0	2	288
NMTAP	6	0	4
NMTAP	6	288	0
NMTAP	7	0	1
NMHLD	7	0	7	288
NMTAP	7	288	5
NMHLD	8	0	4	288
NMTAP	8	0	6
NMTAP	8	288	2
NMSTR	9	0	2
NMSCL	9	0	2	96	288	4
NMHLD	10	0	3	192
NMHLD	10	192	1	192
NMHLD	11	0	7	192
NMHLD	11	192	5	192
NMSTR	12	0	3
NMSSR	12	0	3	96	480	7
BXTAP	14	0	7
NMTAP	14	64	7
NMTAP	14	96	0
NMTAP	14	160	0
NMTAP	14	192	6
NMTAP	14	256	6
NMTAP	14	288	4
NMTAP	15	0	1
NMTAP	15	64	1
NMTAP	15	96	3
NMTAP	15	192	5
NMTAP	15	224	4
NMTAP	15	256	5
EXTAP	15	288	4
NMTAP	16	0	0
NMTAP	16	64	0
NMTAP	16	96	7
NMTAP	16	160	7
NMTAP	16	192	1
NMTAP	16	256	1
NMTAP	16	288	3
NMTAP	17	0	6
NMTAP	17	64	6
NMTAP	17	96	4
NMTAP	17	192	2
NMTAP	17	224	3
NMTAP	17	256	2
EXTAP	17	288	3
NMTAP	18	0	7
NMTTP	18	128	6	E	0	M1
NMTTP	18	192	5	E	0	M1
NMTTP	18	256	4	E	0	M1
NMTTP	18	320	3	E	0	M1
NMTAP	19	0	0
NMTTP	19	128	2	E	0	M1
NMTTP	19	192	3	E	0	M1
NMTTP	19	256	4	E	0	M1
NMTTP	19	320	5	E	0	M1
NMSTR	20	0	6
NMSCL	20	0	6	96	192	3
CNSI_	20	288	3	0	96	7
CNSCR	21	0	7	0	192	2
NMHLD	22	0	3	384
NMTAP	22	288	4
NMHLD	23	0	4	384
NMTAP	23	288	2
NMHLD	24	0	2	192
NMTAP	24	192	3
NMTAP	25	0	4
NMTAP	25	192	5
NMHLD	26	0	5	192
NMTAP	26	192	4
NMHLD	27	0	2	192
NMTAP	27	192	3
NMTAP	28	0	4
NMTAP	28	96	4
NMTAP	28	192	3
NMTAP	28	288	5
NMSTR	29	0	7
NMSCL	29	0	7	96	96	4
NMSTR	29	192	0
NMSCR	29	192	0	96	96	3
BRTAP	30	0	7
NMTAP	30	96	5
NMTAP	30	128	4
NMTAP	30	160	5
NMTAP	30	192	4
NMTAP	30	288	3
NMTAP	30	288	7
NMTAP	31	0	1
NMTAP	31	32	0
NMTAP	31	64	1
NMTAP	31	96	0
NMTAP	31	192	3
NMTAP	31	224	2
NMTAP	31	256	1
NMTAP	31	288	7
NMTAP	31	320	6
NMTAP	31	352	5
EXTAP	32	0	0
NMTAP	32	96	2
NMTAP	32	128	3
NMTAP	32	160	2
NMTAP	32	192	3
NMTAP	32	288	0
NMTAP	32	288	4
NMTAP	33	0	6
NMTAP	33	32	7
NMTAP	33	64	6
NMTAP	33	96	7
NMTAP	33	192	4
NMTAP	33	224	5
NMTAP	33	256	6
NMTAP	33	288	0
NMTAP	33	320	1
NMTAP	33	352	2
EXTAP	34	0	7
NMTAP	34	96	6
NMTAP	34	128	4
NMTAP	34	160	6
NMTAP	34	192	4
NMTAP	34	288	0
NMTAP	34	288	7
NMTAP	35	0	1
NMTAP	35	32	3
NMTAP	35	64	1
NMTAP	35	96	3
NMTAP	35	192	1
NMTAP	35	224	2
NMTAP	35	256	3
NMTAP	35	288	4
NMTAP	35	320	5
NMTAP	35	352	6
EXTAP	36	0	7
NMHLD	36	96	1	96
NMHLD	36	192	3	96
NMHLD	36	288	5	96
NMSTR	37	0	7
NMSI_	37	0	7	96	64	4
NMTAP	37	96	3
NMSTR	37	192	0
NMSI_	37	192	0	96	64	3
NMTAP	37	288	4
NMTAP	38	0	7
NMTAP	38	192	6
NMTAP	39	0	5
NMTTP	39	96	0	A	0	M1
NMTTP	39	128	0	E	0	M1
NMTTP	39	160	7	E	0	M1
NMTTP	39	192	1	B	0	M1
NMTTP	39	224	0	C	0	M1
NMTTP	39	256	5	B	0	M1
NMTTP	39	288	3	E	0	M1
NMTTP	39	320	4	E	0	M1
NMTTP	39	352	4	A	0	M1
NMTAP	40	0	0
NMTAP	40	192	1
NMTAP	41	0	2
NMTTP	41	96	4	A	0	M1
NMTTP	41	128	4	E	0	M1
NMTTP	41	160	3	E	0	M1
NMTTP	41	192	5	B	0	M1
NMTTP	41	224	0	C	0	M1
NMTTP	41	256	1	B	0	M1
NMTTP	41	288	7	E	0	M1
NMTTP	41	320	0	E	0	M1
NMTTP	41	352	0	A	0	M1
EXTAP	42	0	4
NMTAP	42	96	4
NMTAP	42	96	5
NMTAP	42	192	6
NMTAP	42	192	7
NMTAP	42	288	0
NMTAP	42	288	1
NMTAP	42	352	7
EXTAP	43	0	7
NMTAP	43	96	2
NMTAP	43	96	3
NMTAP	43	192	0
NMTAP	43	192	1
NMTAP	43	288	6
NMTAP	43	288	7
NMTAP	43	352	0
EXTAP	44	0	0
NMTAP	44	96	6
NMTAP	44	128	4
NMTAP	44	160	6
NMTAP	44	192	4
NMTAP	44	288	0
NMTAP	44	288	7
NMTAP	45	0	1
NMTAP	45	32	3
NMTAP	45	64	1
NMSTR	45	96	3
NMSF_	45	96	3	96	96	7
BRTAP	46	0	0
BRTAP	46	0	6
NMTAP	46	96	1
NMTAP	46	96	3
NMSTR	46	192	4
NMSI_	46	192	4	96	48	0
NMTAP	46	192	6
BRTAP	47	0	7
NMTAP	47	96	4
NMTAP	47	96	6
NMSTR	47	192	1
NMSI_	47	192	1	96	48	3
NMSTR	47	192	3
NMSI_	47	192	3	96	48	7
EXTAP	48	0	4
EXTAP	48	0	6
NMTAP	48	96	0
NMTAP	48	96	7
NMTAP	48	192	2
NMTAP	48	192	3
NMSTR	48	288	1
NMSCL	48	288	1	96	96	6
NMSTR	48	288	5
NMSCL	48	288	5	96	96	2
NMTAP	49	192	0
NMTAP	49	192	7
NMTAP	49	288	0
NMTAP	49	288	7
BRSTR	50	0	1
NMSI_	50	0	1	96	48	4
BRTAP	50	0	6
NMTAP	50	96	0
NMSTR	50	192	5
NMSI_	50	192	5	96	48	0
NMTAP	50	288	4
NMSTR	51	0	2
NMSI_	51	0	2	96	48	7
NMTAP	51	96	3
NMSTR	51	192	6
NMSI_	51	192	6	96	48	3
NMTAP	51	288	7
NMSTR	52	0	0
NMSCR	52	0	0	96	48	3
NMTAP	52	96	5
NMSTR	52	192	7
NMSCL	52	192	7	96	48	4
NMTAP	52	288	2
NMHLD	53	0	0	96
NMHLD	53	96	2	96
NMHLD	53	192	4	96
BRTAP	53	288	6
EXTAP	54	0	6
EXTAP	54	0	7
NMTAP	54	64	0
NMTAP	54	64	5
NMTAP	54	128	1
NMTAP	54	128	4
NMSTR	54	192	2
NMSI_	54	192	2	96	48	7
NMSTR	54	192	3
NMSI_	54	192	3	96	48	6
EXTAP	55	0	0
EXTAP	55	0	1
NMTAP	55	64	2
NMTAP	55	64	7
NMTAP	55	128	3
NMTAP	55	128	6
NMSTR	55	192	4
NMSI_	55	192	4	96	48	1
NMSTR	55	192	5
NMSI_	55	192	5	96	48	0
EXHLD	56	0	7	96
EXSTR	56	96	0
NMSUL	56	96	0	96	192	7
NMTTP	56	192	0	C	1	M1
CNSCL	57	0	7	0	288	1
NMTAP	57	288	0
NMTAP	58	0	1
NMTAP	58	0	7
NMTAP	58	64	6
NMTAP	58	96	6
NMTAP	58	192	3
NMTAP	58	192	4
NMTAP	58	256	1
NMTAP	58	288	1
NMTAP	59	0	6
NMTAP	59	0	7
NMTAP	59	64	4
NMTAP	59	96	4
NMTAP	59	192	0
NMTAP	59	192	1
NMTAP	59	256	3
NMTAP	59	288	3
BRTAP	60	0	4
BRSTR	60	0	5
NMSI_	60	0	5	96	48	0
NMSTR	60	96	1
NMSI_	60	96	1	96	48	4
NMSTR	60	192	6
NMSCL	60	192	6	96	48	3
NMTAP	60	288	0
NMSTR	61	0	2
NMSCL	61	0	2	96	48	7
NMSTR	61	96	5
NMSI_	61	96	5	96	48	0
NMSTR	61	192	1
NMSI_	61	192	1	96	48	4
NMTAP	61	288	7
NMSTR	62	0	5
NMSI_	62	0	5	96	48	0
NMSI_	62	0	5	96	48	7
NMSTR	62	192	1
NMSI_	62	192	1	96	48	3
NMSI_	62	192	1	96	48	4
NMSTR	63	0	6
NMSI_	63	0	6	96	48	0
NMSTR	63	96	2
NMSI_	63	96	2	96	48	4
NMSTR	63	192	5
NMSI_	63	192	5	96	48	1
NMTTP	64	0	3	E	0	M1
NMTTP	64	32	4	E	0	M1
NMTTP	64	64	4	A	0	M1
NMTTP	64	96	0	A	0	M1
NMTTP	64	128	0	E	0	M1
NMTTP	64	160	7	E	0	M1
NMTTP	64	192	1	B	0	M1
NMTTP	64	224	0	C	0	M1
NMTTP	64	256	5	B	0	M1
NMTTP	64	288	3	E	0	M1
NMTTP	64	320	4	E	0	M1
NMTTP	64	352	4	A	0	M1
NMTTP	65	0	0	E	0	M1
NMTTP	65	32	7	E	0	M1
NMTTP	65	64	6	A	0	M1
NMTTP	65	96	1	B	0	M1
NMTTP	65	128	0	C	0	M1
NMTTP	65	160	5	B	0	M1
NMTTP	65	192	2	A	0	M1
NMTTP	65	224	3	E	0	M1
NMTTP	65	256	4	E	0	M1
NMTTP	65	288	0	E	0	M1
NMTTP	65	320	7	E	0	M1
NMTTP	65	352	6	A	0	M1
NMTHO	66	0	0	576	C	0	M1
NMTAP	68	0	0
NMTAP	68	0	7
NMTAP	69	0	4
NMSTR	69	0	5
NMSUL	69	0	5	96	384	3
NMTAP	71	0	2
NMTAP	71	0	3
NMTAP	71	192	5
NMTAP	72	0	0
NMTAP	72	0	7
NMSTR	73	0	2
NMSUR	73	0	2	96	384	4
NMTAP	73	0	3
NMTTP	74	192	6	B	0	M1
NMTTP	74	192	6	E	0	M1
NMTTP	75	0	4	B	0	M1
NMTTP	75	0	4	E	0	M1
NMTTP	75	192	2	B	0	M1
NMTTP	75	192	2	E	0	M1
NMTAP	76	0	0
NMHLD	76	0	6	192
NMTAP	76	192	5
NMTAP	76	288	4
NMTAP	77	0	3
NMTAP	77	0	5
NMHLD	77	192	1	192
NMTAP	77	192	7
NMTAP	78	0	2
NMTAP	78	96	3
NMTAP	78	192	2
NMTAP	78	192	4
NMHLD	79	0	6	192
NMHLD	79	192	4	192
NMHLD	80	0	2	192
NMSTR	80	192	0
NMSI_	80	192	0	96	96	4
NMTAP	81	0	6
NMHLD	81	192	5	192
NMTAP	81	288	4
NMHLD	82	0	0	192
NMTAP	82	96	7
NMHLD	82	192	3	192
NMTAP	82	288	2
NMSTR	83	0	1
NMSI_	83	0	1	96	96	5
NMSTR	83	192	6
NMSI_	83	192	6	96	96	2
NMSTR	84	0	0
NMSCR	84	0	0	96	672	7
NMTTP	86	0	0	E	0	M1
CNSCL	86	0	7	0	672	0
NMTTP	86	192	0	C	0	M1
NMTTP	87	0	4	E	0	M1
EXTAP	88	0	0
EXTAP	88	0	7
NMTAP	88	96	1
NMTAP	88	96	2
NMTAP	88	192	3
NMTAP	88	288	4
NMTAP	88	288	5
EXTAP	88	352	7
EXTAP	89	0	7
NMTAP	89	96	5
NMTAP	89	96	6
NMTAP	89	192	4
NMTAP	89	288	2
NMTAP	89	288	3
EXTAP	89	352	0
EXTAP	90	0	0
NMTAP	90	96	1
NMTAP	90	96	2
NMTAP	90	192	3
NMTAP	90	192	4
NMTAP	90	288	5
NMTAP	90	288	6
EXTAP	90	352	7
EXTAP	91	0	7
NMTAP	91	96	3
NMTAP	91	96	5
EXTAP	91	192	0
EXTAP	91	192	1
NMTAP	91	288	2
NMTAP	91	288	4
NMHLD	92	96	3	96
NMTAP	92	96	5
NMHLD	92	192	1	96
BRTAP	92	288	7
NMTAP	93	0	0
NMTAP	93	0	6
NMTAP	93	48	0
NMSTR	93	48	6
NMSI_	93	48	6	96	48	3
NMTAP	93	144	2
NMSTR	93	192	2
NMSI_	93	192	2	96	48	7
NMTAP	93	288	4
NMTAP	94	0	5
NMSTR	94	48	5
NMSI_	94	48	5	96	48	0
NMTAP	94	144	1
NMSTR	94	192	1
NMSI_	94	192	1	96	48	4
NMTAP	94	288	7
NMTAP	95	0	5
NMSTR	95	48	5
NMSI_	95	48	5	96	48	2
NMTAP	95	144	1
NMSTR	95	192	1
NMSI_	95	192	1	96	48	6
NMTAP	95	288	3
NMSTR	96	0	4
NMSCR	96	0	4	96	48	7
NMSTR	96	96	0
NMSCR	96	96	0	96	48	3
BRTAP	96	288	7
NMTAP	97	0	0
NMTAP	97	64	0
NMTAP	97	96	7
NMTAP	97	160	7
NMTAP	97	192	1
NMTAP	97	256	1
NMTAP	97	288	3
NMTAP	97	352	3
NMTAP	98	0	5
NMTAP	98	64	5
NMTAP	98	96	7
NMTAP	98	160	7
NMTAP	98	192	0
NMTAP	98	256	0
NMTAP	98	288	6
NMTAP	98	352	6
NMTAP	99	0	4
NMTAP	99	64	4
NMTAP	99	96	2
NMTAP	99	160	2
NMTAP	99	192	0
NMTAP	99	256	0
NMTAP	99	288	7
NMTAP	99	352	7
NMTAP	100	0	1
NMTAP	100	64	1
NMTAP	100	96	3
NMTAP	100	160	3
NMTAP	100	192	5
NMTAP	100	256	5
BRTAP	100	288	7
NMTAP	101	0	2
NMTAP	101	32	3
NMTAP	101	64	2
NMTAP	101	96	5
NMTAP	101	128	4
NMTAP	101	160	5
NMTAP	101	192	2
NMTAP	101	224	3
NMTAP	101	256	2
NMTAP	101	288	5
NMTAP	101	320	4
NMTAP	101	352	5
NMTAP	102	0	1
NMTAP	102	32	3
NMTAP	102	64	2
NMTAP	102	96	6
NMTAP	102	128	4
NMTAP	102	160	5
NMTAP	102	192	1
NMTAP	102	224	0
NMTAP	102	256	1
NMTAP	102	288	6
NMTAP	102	320	7
NMTAP	102	352	6
BRTAP	103	0	0
NMTTP	105	96	1	A	0	M1
NMTTP	105	192	2	E	0	M1
NMTTP	105	288	3	E	0	M1
NMTTP	106	96	0	B	0	M1
NMTTP	106	192	0	C	0	M1
NMTTP	106	288	4	B	0	M1
NMTTP	107	96	7	E	0	M1
NMTTP	107	192	6	E	0	M1
NMTTP	107	288	5	A	0	M1
NMTTP	108	96	1	A	0	M1
NMTTP	108	192	2	E	0	M1
NMTTP	108	288	3	E	0	M1
NMTTP	109	96	0	B	0	M1
NMTTP	109	192	0	C	0	M1
NMTTP	109	288	4	B	0	M1
NMTTP	110	96	7	E	0	M1
NMTTP	110	192	6	E	0	M1
NMTTP	110	288	5	A	0	M1
NMTAP	111	0	4
NMTAP	111	64	2
NMTAP	111	64	3
NMTAP	111	96	2
NMTAP	111	96	3
NMTAP	111	160	0
NMTAP	111	160	7
NMTAP	111	192	0
NMTAP	111	192	7
NMTAP	111	256	4
NMTAP	111	256	5
NMSTR	111	288	4
NMSCR	111	288	4	96	192	3
NMHLD	111	288	5	96

T_REC_TAP	292
T_REC_BRK	11
T_REC_XTP	24
T_REC_BXX	1
T_REC_HLD	33
T_REC_XHO	1
T_REC_BHO	0
T_REC_BXH	0
T_REC_STR	49
T_REC_BST	2
T_REC_XST	1
T_REC_XBS	0
T_REC_TTP	78
T_REC_THO	1
T_REC_SLD	54
T_REC_BSL	0
T_REC_ALL	547
T_NUM_TAP	444
T_NUM_BRK	14
T_NUM_HLD	35
T_NUM_SLD	54
T_NUM_ALL	547
T_JUDGE_TAP	458
T_JUDGE_HLD	142
T_JUDGE_SLD	54
T_JUDGE_ALL	654
TTM_EACHPAIRS	68
TTM_SCR_TAP	222000
TTM_SCR_BRK	36400
TTM_SCR_HLD	35000
TTM_SCR_SLD	81000
TTM_SCR_ALL	374400
TTM_SCR_S	361850
TTM_SCR_SS	373000
TTM_RAT_ACV	10037

