VERSION	0.00.00	1.05.00
FES_MODE	0
BPM_DEF	184.000	184.000	184.000	184.000
MET_DEF	4	4
RESOLUTION	384
CLK_DEF	384
COMPATIBLE_CODE	MA2

BPM	0	0	184.000
MET	0	0	4	4

NMTAP	2	0	0
NMTAP	2	192	0
NMTAP	3	0	1
NMTAP	3	192	1
NMTAP	4	0	2
NMTAP	4	192	2
NMTAP	5	0	3
NMTAP	5	0	4
NMTAP	5	192	3
NMTAP	5	192	4
NMTAP	6	0	4
NMTAP	6	192	4
NMTAP	7	0	5
NMTAP	7	192	5
NMTAP	8	0	6
NMTAP	8	192	6
NMTAP	9	0	0
NMTAP	9	0	7
NMTAP	10	0	6
NMTAP	10	0	7
NMTAP	10	192	6
NMTAP	10	192	7
NMTAP	11	0	0
NMTAP	11	0	1
NMTAP	11	192	0
NMTAP	11	192	1
NMSTR	12	0	0
NMSI_	12	0	0	96	288	3
NMSTR	12	0	7
NMSI_	12	0	7	96	288	4
NMTAP	14	0	2
NMTAP	14	96	2
NMTAP	14	192	2
NMTAP	14	192	3
NMTAP	15	0	1
NMTAP	15	96	1
NMTAP	15	192	0
NMTAP	15	192	1
NMTAP	16	0	7
NMTAP	16	96	7
NMTAP	16	192	6
NMTAP	16	192	7
NMTAP	17	0	4
NMTAP	17	0	5
NMTAP	17	96	4
NMTAP	17	96	5
NMTAP	17	192	4
NMTAP	17	192	5
NMSTR	18	0	3
NMSI_	18	0	3	96	288	0
NMTAP	19	192	7
NMSTR	20	0	6
NMSI_	20	0	6	96	288	3
NMHLD	22	0	1	384
NMHLD	23	0	2	384
NMHLD	24	0	3	384
NMTAP	25	0	4
NMHLD	26	0	6	384
NMHLD	27	0	5	384
NMHLD	28	0	4	384
NMTAP	29	0	3
NMTAP	30	0	4
NMTAP	30	96	4
NMTAP	30	192	5
NMTAP	30	288	5
NMTAP	31	0	6
NMTAP	31	96	6
NMTAP	31	192	0
NMTAP	31	192	7
NMTAP	32	0	0
NMTAP	32	96	0
NMTAP	32	192	1
NMTAP	32	288	1
NMTAP	33	0	2
NMTAP	33	96	2
NMTAP	33	192	3
NMTAP	33	192	4
NMTAP	34	0	3
NMTAP	34	96	3
NMTAP	34	192	2
NMTAP	34	288	2
NMTAP	35	0	1
NMTAP	35	96	1
NMTAP	35	192	0
NMTAP	35	192	1
NMTAP	36	0	7
NMTAP	36	96	7
NMTAP	36	192	6
NMTAP	36	288	6
NMTAP	37	0	4
NMTAP	37	0	5
NMTTP	38	0	4	B	0	L1
NMTTP	38	0	5	B	0	L1
NMTTP	38	192	6	B	0	L1
NMTTP	38	192	7	B	0	L1
NMTTP	39	0	0	B	0	L1
NMTTP	39	0	1	B	0	L1
NMTTP	39	192	2	B	0	L1
NMTTP	39	192	3	B	0	L1
NMTTP	40	0	5	B	0	L1
NMTTP	40	0	5	E	0	L1
NMTTP	40	192	7	B	0	L1
NMTTP	40	192	7	E	0	L1
NMTTP	41	0	1	B	0	L1
NMTTP	41	0	1	E	0	L1
NMTTP	41	192	3	B	0	L1
NMTTP	41	192	3	E	0	L1
NMTTP	42	0	5	E	0	L1
NMTTP	42	96	5	B	0	L1
NMTTP	42	192	6	B	0	L1
NMTTP	43	0	3	E	0	L1
NMTTP	43	96	2	B	0	L1
NMTTP	43	192	1	B	0	L1
NMTTP	44	0	6	B	0	L1
NMTTP	44	96	7	B	0	L1
NMTTP	44	192	0	B	0	L1
NMTTP	44	288	1	B	0	L1
NMTTP	45	0	0	C	1	L1
EXTAP	46	0	1
EXTAP	46	96	1
EXTAP	46	192	1
EXTAP	46	288	0
EXTAP	46	288	1
NMTAP	47	0	2
NMTAP	47	96	2
NMTAP	47	192	2
NMTAP	47	288	2
NMTAP	47	288	3
NMTAP	48	0	4
NMTAP	48	96	4
NMTAP	48	192	4
NMTAP	48	288	4
NMTAP	48	288	5
NMTAP	49	0	6
NMTAP	49	0	7
NMTAP	49	96	6
NMTAP	49	96	7
BRTAP	49	192	6
BRTAP	49	192	7
NMTAP	50	0	6
NMTAP	50	96	6
NMTAP	50	192	6
NMTAP	50	288	6
NMTAP	50	288	7
NMTAP	51	0	5
NMTAP	51	96	5
NMTAP	51	192	5
NMTAP	51	288	4
NMTAP	51	288	5
NMTAP	52	0	3
NMTAP	52	96	3
NMTAP	52	192	3
NMTAP	52	288	2
NMTAP	52	288	3
NMTAP	53	0	0
NMTAP	53	0	1
NMTAP	53	96	0
NMTAP	53	96	1
BXTAP	53	192	0
BXTAP	53	192	1
NMTAP	54	0	0
NMTAP	54	0	1
NMTAP	54	96	0
NMTAP	54	96	1
NMTAP	54	192	2
NMTAP	54	288	2
NMTAP	55	0	3
NMTAP	55	0	4
NMTAP	55	96	3
NMTAP	55	96	4
NMTAP	55	192	5
NMTAP	55	288	5
NMTAP	56	0	6
NMTAP	56	0	7
NMTAP	56	96	6
NMTAP	56	96	7
NMTAP	56	192	5
NMTAP	56	288	5
NMTAP	57	0	3
NMTAP	57	0	4
NMTAP	57	96	3
NMTAP	57	96	4
NMTAP	57	192	2
NMTAP	57	192	5
NMSTR	58	0	3
NMSI_	58	0	3	96	288	0
NMSTR	58	0	4
NMSI_	58	0	4	96	288	7
NMTAP	60	0	0
NMTAP	60	96	1
NMTAP	60	192	2
NMTAP	60	288	3
NMTAP	61	0	4
NMTAP	61	96	5
NMTAP	61	192	6
NMTAP	61	192	7
NMTAP	62	0	7
NMTAP	62	96	6
NMTAP	62	192	5
NMTAP	62	288	4
NMTAP	63	0	3
NMTAP	63	96	2
NMTAP	63	192	0
NMTAP	63	192	1
NMTAP	64	0	0
NMTAP	64	96	1
NMTAP	64	192	2
NMTAP	64	288	3
NMTAP	65	0	4
NMTAP	65	96	5
NMTAP	65	192	6
NMTAP	65	288	7
NMSTR	66	0	0
NMSSL	66	0	0	96	480	4
NMHLD	68	0	5	192
NMTAP	68	192	4
NMTAP	69	0	4
NMTAP	69	0	5
NMTAP	69	192	4
NMTAP	69	192	5
NMHLD	70	0	6	192
NMTAP	70	192	7
NMTAP	71	0	6
NMTAP	71	0	7
NMTAP	71	192	6
NMTAP	71	192	7
NMHLD	72	0	1	192
NMTAP	72	192	0
NMTAP	73	0	0
NMTAP	73	0	1
NMTAP	73	192	0
NMTAP	73	192	1
NMHLD	74	0	2	192
NMTAP	74	192	3
NMTAP	75	0	2
NMTAP	75	0	3
NMTAP	75	192	2
NMTAP	75	192	3
NMTAP	76	0	2
NMTAP	76	96	2
NMTAP	76	192	2
NMTAP	76	288	2
NMTAP	77	0	1
NMTAP	77	96	1
NMTAP	77	192	1
NMTAP	77	288	1
NMTAP	78	0	0
NMTAP	78	96	0
NMTAP	78	192	0
NMTAP	78	288	0
NMTAP	79	0	6
NMTAP	79	0	7
NMTAP	79	192	6
NMTAP	79	192	7
NMTAP	80	0	5
NMTAP	80	96	5
NMTAP	80	192	5
NMTAP	80	288	5
NMTAP	81	0	6
NMTAP	81	96	6
NMTAP	81	192	6
NMTAP	81	288	6
NMTAP	82	0	7
NMTAP	82	96	7
NMTAP	82	192	7
NMTAP	82	288	7
NMTAP	83	0	0
NMTAP	83	0	1
NMTAP	83	192	0
NMTAP	83	192	1
NMSTR	84	0	1
NMSI_	84	0	1	96	288	4
NMTAP	85	192	5
NMSTR	86	0	6
NMSI_	86	0	6	96	288	3
NMTAP	87	192	2
NMSTR	88	0	1
NMSI_	88	0	1	96	288	5
NMTAP	89	192	6
NMSTR	90	0	7
NMSI_	90	0	7	96	288	3
NMTAP	91	192	2
NMTAP	92	0	3
NMTAP	92	0	4
NMTAP	93	0	5
NMTAP	93	48	5
NMTAP	93	96	5
NMTAP	93	192	6
NMTAP	93	192	7
NMTAP	93	288	6
NMTAP	93	288	7
NMTAP	94	0	0
NMTAP	94	48	0
NMTAP	94	96	0
NMTAP	94	192	0
NMTAP	94	192	1
NMTAP	95	0	2
NMTAP	95	48	2
NMTAP	95	96	2
NMTAP	95	192	0
NMTAP	95	192	1
NMTAP	95	288	0
NMTAP	95	288	1
NMTAP	96	0	7
NMTAP	96	48	7
NMTAP	96	96	7
NMTAP	96	192	6
NMTAP	96	192	7
NMTAP	97	0	6
NMTAP	97	48	6
NMTAP	97	96	6
NMTAP	97	192	5
NMTAP	97	240	5
NMTAP	97	288	5
NMTAP	98	0	4
NMTAP	98	48	4
NMTAP	98	96	4
NMTAP	98	192	2
NMTAP	98	192	3
NMTAP	99	0	1
NMTAP	99	48	1
NMTAP	99	96	1
NMTAP	99	192	2
NMTAP	99	240	2
NMTAP	99	288	2
NMTAP	100	0	3
NMTAP	100	48	3
NMTAP	100	96	3
NMTAP	100	192	4
NMTAP	100	192	5
NMTAP	101	0	3
NMTAP	101	0	4
NMTAP	101	48	3
NMTAP	101	48	4
NMTAP	101	96	3
NMTAP	101	96	4
NMTAP	101	192	2
NMTAP	101	192	5
NMTAP	101	240	2
NMTAP	101	240	5
NMTAP	101	288	2
NMTAP	101	288	5
NMTAP	102	0	1
NMTAP	102	0	6
NMTAP	102	48	1
NMTAP	102	48	6
NMTAP	102	96	1
NMTAP	102	96	6
NMTAP	102	192	0
NMTAP	102	192	7
NMTAP	102	240	0
NMTAP	102	240	7
NMTAP	102	288	0
NMTAP	102	288	7
NMSTR	103	0	1
NMSLR	103	0	1	96	480	0
NMSTR	103	0	6
NMSLL	103	0	6	96	480	7
NMTTP	105	0	0	E	0	L1
NMTTP	105	96	7	E	0	L1
NMTTP	105	192	6	E	0	L1
NMTTP	105	288	5	E	0	L1
NMTTP	106	0	4	E	0	L1
NMTTP	106	96	3	E	0	L1
NMTTP	106	192	0	C	0	L1
NMTTP	107	0	1	B	0	L1
NMTTP	107	96	2	B	0	L1
NMTTP	107	192	3	B	0	L1
NMTTP	107	288	4	B	0	L1
NMTTP	108	0	5	B	0	L1
NMTTP	108	96	6	B	0	L1
NMTTP	108	192	0	C	0	L1
EXTAP	109	0	1
EXTAP	109	96	1
EXTAP	109	192	0
EXTAP	109	192	1
EXTAP	110	0	6
EXTAP	110	96	6
EXTAP	110	192	6
EXTAP	110	192	7
NMTAP	111	0	0
NMTAP	111	0	7
NMTAP	111	96	1
NMTAP	111	96	6
NMTAP	111	192	2
NMTAP	111	192	5
NMTAP	111	288	3
NMTAP	111	288	4
BRTAP	112	0	2
BRTAP	112	0	5

T_REC_TAP	294
T_REC_BRK	4
T_REC_XTP	13
T_REC_BXX	2
T_REC_HLD	10
T_REC_XHO	0
T_REC_BHO	0
T_REC_BXH	0
T_REC_STR	13
T_REC_BST	0
T_REC_XST	0
T_REC_XBS	0
T_REC_TTP	41
T_REC_THO	0
T_REC_SLD	13
T_REC_BSL	0
T_REC_ALL	390
T_NUM_TAP	361
T_NUM_BRK	6
T_NUM_HLD	10
T_NUM_SLD	13
T_NUM_ALL	390
T_JUDGE_TAP	367
T_JUDGE_HLD	64
T_JUDGE_SLD	13
T_JUDGE_ALL	444
TTM_EACHPAIRS	83
TTM_SCR_TAP	180500
TTM_SCR_BRK	15600
TTM_SCR_HLD	10000
TTM_SCR_SLD	19500
TTM_SCR_ALL	225600
TTM_SCR_S	218250
TTM_SCR_SS	225000
TTM_RAT_ACV	10026

