VERSION	0.00.00	1.05.00
FES_MODE	0
BPM_DEF	165.000	165.000	165.000	160.000
MET_DEF	4	4
RESOLUTION	384
CLK_DEF	384
COMPATIBLE_CODE	MA2

BPM	0	0	165.000
BPM	48	0	160.000
BPM	49	0	165.000
MET	0	0	4	4

NMSTR	1	0	3
NMSCL	1	0	3	96	288	0
NMHLD	1	0	4	384
CNSSL	2	0	0	0	384	4
NMSTR	3	0	5
NMSCL	3	0	5	96	288	2
NMTHO	3	192	0	192	C	0	M1
CNSUR	4	0	2	0	384	6
BRHLD	5	0	3	72
NMTAP	5	72	6
NMTAP	5	96	4
NMTAP	5	144	4
NMHLD	5	192	3	72
NMTAP	5	192	7
NMTAP	5	264	5
NMTAP	5	288	4
NMTAP	5	336	4
NMHLD	6	0	3	72
NMTAP	6	0	6
NMTAP	6	72	5
NMTAP	6	96	4
NMTAP	6	144	4
NMHLD	6	192	3	72
NMHLD	6	192	5	72
NMTAP	6	288	3
NMTAP	6	288	5
NMTAP	6	336	2
NMTAP	7	0	1
NMHLD	7	0	4	72
NMTAP	7	72	2
NMTAP	7	96	3
NMTAP	7	144	3
NMTAP	7	192	0
NMHLD	7	192	4	72
NMTAP	7	264	2
NMTAP	7	288	3
NMTAP	7	336	3
NMTAP	8	0	1
NMHLD	8	0	4	72
NMTAP	8	72	2
NMTAP	8	96	3
NMTAP	8	144	3
NMHLD	8	192	2	72
NMHLD	8	192	4	72
NMTAP	8	288	2
NMTAP	8	288	4
NMTAP	8	336	5
NMHLD	9	0	3	72
NMTAP	9	0	6
NMTAP	9	72	5
NMTAP	9	96	4
NMTAP	9	144	4
NMHLD	9	192	3	72
NMTAP	9	192	7
NMTAP	9	264	6
NMTAP	9	288	4
NMTAP	9	336	4
NMHLD	10	0	3	72
NMTAP	10	0	6
NMTAP	10	72	5
NMTAP	10	96	4
NMTAP	10	144	4
NMHLD	10	192	3	72
NMTAP	10	192	7
NMTAP	10	264	5
NMTAP	10	288	4
NMTAP	10	336	4
NMHLD	11	0	3	72
NMHLD	11	0	5	72
NMTAP	11	96	3
NMTAP	11	96	5
NMTAP	11	144	2
NMTAP	11	144	4
NMHLD	11	192	1	72
NMHLD	11	192	3	72
NMTAP	11	288	1
NMTAP	11	288	3
NMSTR	11	336	2
NMSI_	11	336	2	96	96	5
NMTAP	11	336	4
NMTAP	12	48	5
CNSI_	12	144	5	0	96	0
NMTAP	12	144	6
NMTAP	12	240	7
NMTAP	12	288	7
NMTAP	13	0	1
NMSTR	13	0	5
NMSCL	13	0	5	96	48	2
NMTAP	13	48	6
NMTAP	13	96	7
NMSTR	13	144	0
NMSCL	13	144	0	96	48	5
NMTAP	13	192	1
NMTAP	13	240	2
NMTAP	13	288	3
NMTAP	13	336	3
NMSTR	14	0	2
NMSCR	14	0	2	96	48	5
NMTAP	14	48	1
NMTAP	14	96	0
NMSTR	14	144	7
NMSCR	14	144	7	96	48	2
NMTAP	14	192	6
NMTAP	14	240	5
NMTAP	14	288	4
NMTAP	14	336	3
NMSTR	15	0	2
NMSCR	15	0	2	96	48	5
NMTAP	15	48	1
NMTAP	15	96	1
NMSTR	15	144	0
NMSCL	15	144	0	96	48	5
NMTAP	15	192	1
NMTAP	15	240	1
NMTAP	15	288	2
NMTAP	15	336	3
NMSTR	16	0	4
NMSCL	16	0	4	96	48	1
NMTAP	16	48	5
NMTAP	16	96	5
NMSTR	16	144	6
NMSCR	16	144	6	96	48	1
NMTAP	16	192	5
NMTAP	16	240	5
NMTAP	16	288	4
NMTAP	16	336	3
NMSTR	17	0	2
NMSCR	17	0	2	96	48	5
NMTAP	17	48	1
NMTAP	17	96	0
NMSTR	17	144	1
NMSCL	17	144	1	96	48	6
NMTAP	17	192	2
NMTAP	17	240	3
NMTAP	17	288	4
NMTAP	17	336	5
NMSTR	18	0	5
NMSCL	18	0	5	96	48	2
NMTAP	18	48	6
NMTAP	18	96	7
NMSTR	18	144	6
NMSCR	18	144	6	96	48	1
NMTAP	18	192	5
NMTAP	18	240	4
NMTAP	18	288	3
NMTAP	18	336	3
NMTAP	19	0	2
NMTAP	19	0	4
NMTAP	19	48	2
NMTAP	19	96	0
NMTAP	19	96	2
NMTAP	19	144	3
NMTAP	19	144	7
NMTAP	19	192	7
NMTAP	19	240	7
NMTAP	19	288	4
NMTAP	19	288	6
NMTAP	19	336	3
NMTAP	19	336	5
NMTAP	20	0	2
NMHLD	20	0	4	192
NMTTP	20	192	5	E	0	M1
NMTTP	20	216	6	E	0	M1
NMTTP	20	240	7	E	0	M1
NMTTP	20	264	0	E	0	M1
NMTTP	20	288	1	E	0	M1
NMTTP	20	312	2	E	0	M1
NMTTP	20	336	3	E	0	M1
NMTTP	20	360	4	E	0	M1
EXTAP	21	0	7
NMTAP	21	48	5
NMTAP	21	72	4
NMTAP	21	96	5
NMTAP	21	144	3
NMTAP	21	144	4
NMTAP	21	192	2
NMTAP	21	216	3
NMTAP	21	240	1
NMTAP	21	288	0
NMTAP	21	288	4
NMTAP	21	336	5
NMTAP	21	336	7
NMTAP	22	0	0
NMTAP	22	0	4
NMTAP	22	48	1
NMTAP	22	72	3
NMTAP	22	96	2
NMTAP	22	144	3
NMTAP	22	144	4
NMTAP	22	192	5
NMTAP	22	216	4
NMTAP	22	240	5
NMTAP	22	288	4
NMTAP	22	288	6
NMTAP	22	312	3
NMTAP	22	336	2
NMTAP	22	360	1
NMTAP	23	0	0
NMTAP	23	0	5
NMTAP	23	48	6
NMTAP	23	72	7
NMTAP	23	96	5
NMTAP	23	144	0
NMTAP	23	144	4
NMTAP	23	192	1
NMTAP	23	216	3
NMTAP	23	240	2
NMTAP	23	288	2
NMTAP	23	312	4
NMTAP	23	336	3
NMTAP	23	360	5
NMTAP	24	0	4
NMTAP	24	48	4
NMTAP	24	72	6
NMTAP	24	96	4
NMTAP	24	144	3
NMTAP	24	144	7
NMTAP	24	192	2
NMTAP	24	216	0
NMTAP	24	240	2
NMTAP	24	288	1
NMTAP	24	288	7
NMTAP	24	336	2
NMTAP	24	336	6
NMTAP	25	0	3
NMTAP	25	0	5
NMTAP	25	48	6
NMTAP	25	72	4
NMTAP	25	96	5
NMTAP	25	144	3
NMTAP	25	144	4
NMTAP	25	192	2
NMTAP	25	216	3
NMTAP	25	240	1
NMTAP	25	288	1
NMTAP	25	312	0
NMTAP	25	336	2
NMTAP	25	360	7
NMTAP	26	0	3
NMTAP	26	48	3
NMTAP	26	72	4
NMTAP	26	96	2
NMTAP	26	144	1
NMTAP	26	144	5
NMTAP	26	192	4
NMTAP	26	216	3
NMTAP	26	240	5
NMTAP	26	288	4
NMTAP	26	288	6
NMTAP	26	312	3
NMTAP	26	336	2
NMTAP	26	360	1
NMTAP	27	0	0
NMTAP	27	0	5
NMTAP	27	48	6
NMTAP	27	72	7
NMTAP	27	96	6
NMTAP	27	120	7
NMTAP	27	144	5
NMTAP	27	192	1
NMTAP	27	216	0
NMTAP	27	240	1
NMTAP	27	264	0
NMTAP	27	288	2
NMTAP	27	336	3
NMTAP	27	336	6
NMHLD	28	0	4	48
NMHLD	28	0	5	48
NMHLD	28	72	4	48
NMHLD	28	72	5	48
NMHLD	28	144	3	48
NMHLD	28	144	6	48
NMHLD	28	216	2	48
NMHLD	28	216	7	48
NMTAP	28	288	1
NMTAP	28	312	0
NMTAP	28	336	1
NMTAP	28	360	0
EXHLD	29	0	2	384
NMTHO	29	192	0	576	C	1	M1
NMSTR	31	0	0
NMSI_	31	0	0	96	96	2
NMSI_	31	0	0	96	96	3
CNSI_	31	192	2	0	96	7
CNSI_	31	192	3	0	96	6
NMTAP	32	0	6
NMTAP	32	48	6
NMTAP	32	96	6
NMTAP	32	120	0
NMTAP	32	168	0
NMHLD	32	192	7	24
NMHLD	32	240	0	24
NMHLD	32	240	6	24
BRTAP	32	288	1
BRTAP	32	288	5
NMSTR	33	0	2
NMSLL	33	0	2	96	96	6
NMTAP	33	0	4
NMSTR	33	96	6
NMSI_	33	96	6	96	48	1
BRTAP	33	192	4
CNSI_	33	240	1	0	96	4
NMTAP	33	288	0
NMTAP	33	336	7
NMSTR	34	0	6
NMSLL	34	0	6	96	96	2
NMSTR	34	96	2
NMSI_	34	96	2	96	48	5
BRTAP	34	192	0
CNSI_	34	240	5	0	96	0
NMTAP	34	288	1
NMTAP	34	336	1
NMSTR	35	0	2
NMSCR	35	0	2	96	96	7
NMTAP	35	0	7
NMTAP	35	96	0
NMSTR	35	192	1
NMSUL	35	192	1	96	96	5
CNSUL	35	192	7	0	96	1
NMTAP	35	288	0
EXTAP	36	0	7
NMTAP	36	96	0
NMTAP	36	120	0
NMTAP	36	144	6
NMTAP	36	168	6
NMTAP	36	192	1
NMTAP	36	216	2
NMTAP	36	240	3
NMTAP	36	264	4
NMTAP	36	288	7
NMTAP	36	312	6
NMTAP	36	336	5
NMTAP	36	360	4
NMSTR	37	0	1
NMSLL	37	0	1	96	96	5
NMTAP	37	0	3
NMSTR	37	96	5
NMSI_	37	96	5	96	48	0
BRTAP	37	192	3
CNSCR	37	240	0	0	96	3
NMTAP	37	288	4
NMTAP	37	336	5
NMSTR	38	0	6
NMSLR	38	0	6	96	96	2
NMSTR	38	96	2
NMSI_	38	96	2	96	48	7
BRTAP	38	192	4
CNSCL	38	240	7	0	96	4
NMTAP	38	288	3
NMTAP	38	336	2
NMSTR	39	0	1
NMSCR	39	0	1	96	96	6
NMTAP	39	0	3
NMTAP	39	96	7
NMTAP	39	192	0
CNSUL	39	192	6	0	96	0
NMTTP	39	288	0	C	0	M1
NMTAP	40	0	0
NMTAP	40	24	6
NMTAP	40	48	0
NMTAP	40	72	6
NMTAP	40	96	1
NMTAP	40	120	7
NMTAP	40	144	1
NMTAP	40	168	7
NMTAP	40	192	1
NMTAP	40	216	2
NMTAP	40	240	3
NMTAP	40	264	4
NMTAP	40	288	5
NMTAP	40	312	6
NMTAP	40	336	7
NMTAP	40	360	0
NMTAP	41	0	1
BRHLD	41	0	5	192
NMTAP	41	192	3
NMTAP	41	288	2
NMTAP	41	288	4
NMTAP	41	336	2
NMTAP	41	336	4
BRTAP	42	0	1
NMSTR	42	0	3
NMSCR	42	0	3	96	48	6
NMTAP	42	96	1
NMSTR	42	96	3
NMSI_	42	96	3	96	48	7
NMTAP	42	144	2
NMSTR	42	192	1
NMSI_	42	192	1	96	48	5
NMTAP	42	192	3
EXTAP	42	288	1
EXTAP	42	288	7
NMSTR	43	0	4
NMSCL	43	0	4	96	48	1
BRTAP	43	0	6
NMSTR	43	96	4
NMSI_	43	96	4	96	48	0
NMTAP	43	96	6
NMTAP	43	144	5
NMTAP	43	192	4
NMSTR	43	192	6
NMSI_	43	192	6	96	48	2
EXTAP	43	288	0
EXTAP	43	288	6
NMSTR	44	0	1
NMSI_	44	0	1	96	48	4
NMSTR	44	0	3
NMSUL	44	0	3	96	48	7
NMTAP	44	96	1
NMSTR	44	96	3
NMSCL	44	96	3	96	120	6
EXTAP	44	192	3
NMTTP	44	192	4	B	0	M1
NMTTP	44	192	5	B	0	M1
NMTTP	44	192	5	E	1	M1
BRTAP	45	0	6
NMTAP	45	24	7
NMTAP	45	48	6
NMTAP	45	72	7
NMTAP	45	96	5
NMTAP	45	120	0
NMTAP	45	144	4
NMTAP	45	168	1
NMTAP	45	192	3
NMTAP	45	216	2
NMTAP	45	240	4
NMTAP	45	264	1
NMTAP	45	288	3
NMTAP	45	336	2
NMTAP	45	336	3
NMTAP	46	0	1
NMTAP	46	24	0
NMTAP	46	48	1
NMTAP	46	72	0
NMTAP	46	96	2
NMTAP	46	120	7
NMTAP	46	144	3
NMTAP	46	168	6
NMTAP	46	192	4
NMTAP	46	216	5
NMTAP	46	240	3
NMTAP	46	264	6
NMTAP	46	288	4
NMTAP	46	336	4
NMTAP	46	336	6
BRHLD	47	0	3	48
BRHLD	47	0	5	48
BRHLD	47	72	0	48
BRHLD	47	72	2	48
BRTAP	47	144	3
BRTAP	47	144	7
BRHLD	47	192	2	48
BRHLD	47	192	4	48
BRHLD	47	264	5	48
BRHLD	47	264	7	48
BRTAP	47	336	0
BRTAP	47	336	4
BRSTR	48	0	0
BRSUR	48	0	0	96	192	0
BRSTR	48	0	4
BRSUR	48	0	4	96	192	4
BRTAP	49	0	1
BRTAP	49	0	4
NMSTR	49	48	2
NMSV_	49	48	2	96	48	7
NMTAP	49	72	3
NMTAP	49	96	1
NMTAP	49	144	4
NMSTR	49	192	5
BRSI_	49	192	5	96	48	3
NMTAP	49	240	6
NMSTR	49	288	1
BRSI_	49	288	1	96	48	6
NMSTR	49	288	5
BRSI_	49	288	5	96	48	0
NMTAP	49	336	2
NMSTR	50	0	1
BRSCR	50	0	1	96	48	4
NMTAP	50	0	5
NMTAP	50	96	1
NMSTR	50	96	7
BRSI_	50	96	7	96	48	3
NMTAP	50	144	6
NMTAP	50	192	0
NMTAP	50	192	7
NMTAP	50	288	6
NMTAP	50	312	0
NMTAP	50	336	6
NMTAP	50	360	0
NMTAP	51	0	6
NMTAP	51	24	5
NMSTR	51	48	4
NMSI_	51	48	4	96	48	7
NMTAP	51	96	1
NMSTR	51	144	1
NMSI_	51	144	1	96	48	5
NMTAP	51	168	2
NMTAP	51	192	3
NMTAP	51	240	0
NMTAP	51	288	6
NMTAP	51	336	1
NMTAP	52	0	1
NMTAP	52	24	2
NMSTR	52	48	3
NMSI_	52	48	3	96	48	0
NMTAP	52	96	6
NMSTR	52	144	6
NMSI_	52	144	6	96	48	2
NMTAP	52	168	5
NMTAP	52	192	4
NMTAP	52	240	7
NMTAP	52	288	0
NMTAP	52	336	1
NMTAP	53	0	2
NMTAP	53	0	7
NMSTR	53	48	6
NMSV_	53	48	6	96	48	3
NMTAP	53	72	7
NMTAP	53	96	5
NMTAP	53	144	0
NMSTR	53	192	1
BRSI_	53	192	1	96	48	7
NMTAP	53	240	2
NMSTR	53	288	1
BRSI_	53	288	1	96	48	4
NMSTR	53	288	5
BRSI_	53	288	5	96	48	2
NMTAP	53	336	6
NMTAP	54	0	1
NMSTR	54	0	5
BRSCR	54	0	5	96	48	0
NMSTR	54	96	3
BRSI_	54	96	3	96	48	7
NMTAP	54	96	5
NMTAP	54	144	2
NMTAP	54	192	3
NMTAP	54	192	4
NMTAP	54	288	0
NMTAP	54	288	1
NMTAP	54	336	0
NMTAP	54	336	1
EXTAP	55	0	0
EXSTR	55	0	1
NMSI_	55	0	1	96	48	4
EXTAP	55	16	7
EXTAP	55	32	6
NMSTR	55	96	1
NMSCL	55	96	1	96	48	6
NMTAP	55	144	5
NMSTR	55	192	1
NMSI_	55	192	1	96	48	3
NMTAP	55	240	3
NMTAP	55	288	1
NMTAP	55	336	5
BRHLD	56	0	4	48
BRHLD	56	0	6	48
BRHLD	56	72	0	48
BRHLD	56	72	7	48
BRTAP	56	144	1
BRTAP	56	144	3
NMTAP	56	192	2
NMTAP	56	216	3
NMTAP	56	240	4
NMTAP	56	264	5
EXTAP	56	288	6
NMTAP	56	312	7
NMTAP	56	336	0
NMTAP	56	360	1
BRTAP	57	0	2
BRTAP	57	0	7
NMSTR	57	48	5
NMSV_	57	48	5	96	48	0
NMTAP	57	72	4
NMTAP	57	96	6
NMTAP	57	144	3
NMSTR	57	192	2
BRSI_	57	192	2	96	48	4
NMTAP	57	240	1
NMSTR	57	288	2
BRSI_	57	288	2	96	48	7
NMSTR	57	288	6
BRSI_	57	288	6	96	48	1
NMTAP	57	336	5
NMTAP	58	0	2
NMSTR	58	0	6
BRSCL	58	0	6	96	48	3
NMSTR	58	96	0
BRSI_	58	96	0	96	48	3
BRSI_	58	96	0	96	48	6
NMTAP	58	96	6
NMTAP	58	144	1
NMTAP	58	192	0
NMTAP	58	288	4
NMTAP	58	312	3
NMSTR	58	336	5
NMSI_	58	336	5	96	48	0
NMTAP	58	360	2
NMTAP	59	0	4
NMTAP	59	24	3
NMTAP	59	48	5
NMTAP	59	96	1
NMSTR	59	144	1
NMSI_	59	144	1	96	48	5
NMTAP	59	168	2
NMTAP	59	192	3
NMTAP	59	240	1
NMTAP	59	240	7
NMTAP	59	288	0
NMTAP	59	336	2
NMTAP	59	336	7
NMTAP	60	0	2
NMTAP	60	24	1
NMSTR	60	48	0
NMSCR	60	48	0	96	48	3
NMTAP	60	96	5
NMTAP	60	144	0
NMSTR	60	144	5
NMSI_	60	144	5	96	48	1
NMTAP	60	168	6
NMTAP	60	192	7
NMTAP	60	240	5
NMTAP	60	288	3
NMTAP	60	336	3
BRTAP	61	0	1
BRTAP	61	0	5
NMSTR	61	48	6
NMSV_	61	48	6	96	48	3
NMTAP	61	72	7
NMTAP	61	96	5
NMTAP	61	144	0
NMSTR	61	192	1
BRSI_	61	192	1	96	48	7
NMTAP	61	240	2
NMSTR	61	288	1
BRSI_	61	288	1	96	48	4
NMSTR	61	288	5
BRSI_	61	288	5	96	48	2
NMTAP	61	336	6
NMTAP	62	0	1
NMSTR	62	0	5
BRSCR	62	0	5	96	48	7
NMSTR	62	96	3
BRSI_	62	96	3	96	48	1
BRSI_	62	96	3	96	48	7
NMTAP	62	96	5
NMTAP	62	144	4
NMTAP	62	192	3
NMHLD	62	288	0	48
NMHLD	62	288	6	48
BRTAP	63	0	5
NMTAP	63	24	3
NMTAP	63	48	4
BRTAP	63	72	1
NMTAP	63	96	3
NMTAP	63	120	2
NMTAP	63	144	7
NMTAP	63	168	7
BRTAP	63	192	1
NMTAP	63	216	0
NMTAP	63	240	2
BRTAP	63	264	7
NMTAP	63	288	0
NMTAP	63	312	6
NMTAP	63	336	3
NMTAP	63	360	3
BRHLD	64	0	5	48
BXTAP	64	72	4
BXTAP	64	72	6
NMTAP	64	144	0
BRTAP	64	144	1
BRTAP	64	168	0
NMTAP	64	168	1
NMSTR	64	192	0
NMSSR	64	192	0	96	48	4
BRSTR	64	192	1
NMSSL	64	192	1	96	48	5
BRTAP	64	288	0
BRTAP	64	288	1
NMHLD	65	0	3	48
NMHLD	65	0	6	48
NMHLD	65	72	3	48
NMHLD	65	72	6	48
NMTTP	65	144	4	B	1	M1
BXTAP	65	144	5
NMHLD	65	288	1	48
NMHLD	65	288	3	48
NMHLD	65	360	1	48
NMHLD	65	360	3	48
BXTAP	66	48	1
BXTAP	66	48	3
NMTAP	66	96	2
NMTAP	66	120	4
NMTAP	66	144	2
NMTAP	66	168	4
NMTAP	66	192	3
NMTAP	66	216	5
NMTAP	66	240	3
NMTAP	66	264	5
NMTAP	66	288	4
NMTAP	66	336	4
NMHLD	67	0	5	48
NMHLD	67	0	6	48
NMHLD	67	72	5	48
NMHLD	67	72	6	48
NMTTP	67	144	4	B	1	M1
BXTAP	67	144	7
NMHLD	67	288	1	48
NMHLD	67	288	2	48
NMHLD	67	360	1	48
NMHLD	67	360	2	48
BXTAP	68	48	3
BXTAP	68	48	4
EXHLD	68	96	4	96
BXTAP	68	96	5
NMTAP	68	192	7
NMTAP	68	216	6
NMTAP	68	240	5
NMTAP	68	264	4
NMSTR	68	288	0
BRSI_	68	288	0	96	48	4
NMTAP	68	312	1
NMTAP	68	336	2
NMTAP	68	360	3
BRTAP	69	0	0
NMTAP	69	0	4
NMSTR	69	96	6
NMSI_	69	96	6	96	48	0
NMTAP	69	144	4
NMTAP	69	192	3
NMSTR	69	192	6
NMSI_	69	192	6	96	48	3
NMSTR	69	240	2
NMSCL	69	240	2	96	48	7
NMTAP	69	288	6
NMTAP	69	336	2
NMTAP	70	0	4
NMTAP	70	48	4
NMTAP	70	72	0
NMTAP	70	96	5
NMTAP	70	144	5
NMTAP	70	168	7
NMSTR	70	192	6
NMSI_	70	192	6	96	48	4
NMSTR	70	240	6
NMSI_	70	240	6	96	48	0
EXTAP	70	288	6
EXTAP	70	336	6
BRTAP	71	0	3
NMTAP	71	96	1
NMTAP	71	96	7
NMTAP	71	144	2
NMTAP	71	144	6
NMTAP	71	192	3
NMSTR	71	192	5
NMSCR	71	192	5	96	48	0
NMTAP	71	240	4
NMTAP	71	264	3
NMTAP	71	288	5
CNSI_	71	336	0	0	48	4
NMTAP	71	336	1
NMTAP	72	0	1
NMTAP	72	48	1
NMTAP	72	72	3
NMSTR	72	96	2
NMSI_	72	96	2	96	48	7
NMTAP	72	144	3
NMTAP	72	144	4
NMTAP	72	192	5
NMTAP	72	240	5
CNSI_	72	240	7	0	48	1
CNSI_	72	288	1	0	48	4
NMSTR	72	288	6
BRSI_	72	288	6	96	48	2
NMTAP	72	336	7
BRTAP	73	0	3
BRSTR	73	0	6
BRSCL	73	0	6	96	48	3
NMSTR	73	96	1
NMSI_	73	96	1	96	48	7
NMTAP	73	96	6
NMTAP	73	144	2
NMSTR	73	192	1
NMSI_	73	192	1	96	48	4
NMTAP	73	240	5
NMTAP	73	288	1
NMTAP	73	336	7
NMTAP	73	360	6
NMSTR	74	0	5
NMSI_	74	0	5	96	48	1
NMTAP	74	96	4
CNSI_	74	144	1	0	48	7
NMTAP	74	144	4
NMTAP	74	168	3
NMTAP	74	192	2
CNSI_	74	192	7	0	72	3
NMTAP	74	240	2
NMSTR	74	288	0
NMSCR	74	288	0	96	48	4
NMSV_	74	288	0	96	48	5
NMTAP	74	336	7
NMTAP	75	96	6
NMSTR	75	144	6
NMSCR	75	144	6	96	48	1
NMTAP	75	168	5
NMTAP	75	192	4
NMTAP	75	240	4
NMTAP	75	264	3
NMTAP	75	288	2
NMTAP	75	336	2
NMTAP	76	0	1
NMTAP	76	0	3
BRTAP	76	48	0
NMTAP	76	96	2
NMTAP	76	96	4
BRTAP	76	144	0
NMTAP	76	192	3
NMTAP	76	192	5
BRTAP	76	240	6
BRTAP	76	264	7
NMSTR	76	288	4
NMSI_	76	288	4	96	48	0
BRTAP	76	336	3
BRTAP	76	336	5
NMHLD	77	0	2	192
NMSTR	77	192	0
NMSI_	77	192	0	96	48	3
NMSI_	77	192	0	96	48	5
NMTAP	77	216	1
NMTAP	77	240	0
NMTAP	77	264	1
BXTAP	77	288	0
BRSTR	78	0	2
NMSCR	78	0	2	96	48	5
BRTAP	78	0	6
NMTAP	78	48	7
NMTAP	78	96	2
NMTAP	78	96	5
NMTAP	78	144	6
NMTAP	78	168	6
NMSTR	78	192	7
NMSI_	78	192	7	96	48	3
NMTAP	78	240	0
NMTAP	78	264	6
NMTAP	78	288	7
NMTAP	78	336	4
NMTAP	79	0	4
NMTAP	79	24	5
NMTAP	79	48	6
NMTAP	79	72	7
NMTAP	79	96	0
NMTAP	79	120	1
NMTAP	79	144	2
NMTAP	79	168	3
NMTAP	79	192	0
NMTAP	79	216	7
NMTAP	79	240	6
NMTAP	79	264	5
NMTAP	79	288	4
NMTAP	79	312	3
NMTAP	79	336	2
NMTAP	79	360	1
NMTAP	80	0	6
NMTAP	80	24	7
NMTAP	80	48	6
NMTAP	80	72	7
NMTAP	80	96	5
NMTAP	80	144	1
NMTAP	80	168	0
NMTAP	80	192	1
NMTAP	80	216	0
NMTAP	80	240	2
BRTAP	80	288	3
BRTAP	80	288	7
NMTAP	81	0	1
NMTAP	81	24	4
NMTAP	81	48	2
NMTAP	81	72	3
NMTAP	81	96	1
NMTAP	81	120	4
NMTAP	81	144	2
NMTAP	81	168	3
NMTAP	81	192	1
NMTAP	81	216	4
NMTAP	81	240	2
NMTAP	81	264	3
BXTAP	81	288	2
NMTAP	81	312	1
NMTAP	81	336	0
NMTAP	81	360	7
NMTAP	82	0	5
NMTAP	82	24	4
NMTAP	82	48	6
NMTAP	82	72	3
NMTAP	82	96	5
NMTAP	82	120	4
NMTAP	82	144	6
NMTAP	82	168	3
NMTAP	82	192	5
NMTAP	82	216	4
NMTAP	82	240	6
NMTAP	82	264	3
BXTAP	82	288	5
NMTAP	82	312	6
NMTAP	82	336	7
NMTAP	82	360	0
BRTAP	83	0	2
NMTAP	83	48	1
NMTAP	83	48	3
NMTAP	83	72	1
NMTAP	83	72	3
NMTAP	83	120	7
NMTAP	83	144	7
NMTAP	83	168	0
BRTAP	83	192	5
NMTAP	83	240	4
NMTAP	83	240	6
NMTAP	83	264	4
NMTAP	83	264	6
NMTAP	83	312	3
NMTAP	83	312	7
NMTAP	83	336	3
NMTAP	83	336	7
NMTAP	84	0	6
NMTAP	84	24	5
NMTAP	84	48	2
NMTAP	84	48	4
NMTAP	84	72	3
NMTAP	84	96	4
NMTAP	84	96	7
NMTAP	84	120	6
NMTAP	84	144	1
NMTAP	84	144	5
NMTAP	84	168	2
NMTAP	84	192	0
NMTAP	84	192	3
NMTAP	84	216	7
NMTAP	84	240	0
NMTAP	84	240	6
NMTAP	84	264	1
NMTAP	84	288	2
BRSTR	84	288	4
NMSF_	84	288	4	96	48	0
NMTAP	84	300	5
NMTAP	84	312	6
NMTAP	84	324	7
NMTAP	84	336	0
NMTAP	84	348	1
NMTAP	84	360	2
NMTAP	84	372	3
NMTTP	85	0	4	A	1	M1

T_REC_TAP	588
T_REC_BRK	43
T_REC_XTP	13
T_REC_BXX	12
T_REC_HLD	49
T_REC_XHO	2
T_REC_BHO	15
T_REC_BXH	0
T_REC_STR	88
T_REC_BST	6
T_REC_XST	1
T_REC_XBS	0
T_REC_TTP	15
T_REC_THO	2
T_REC_SLD	73
T_REC_BSL	27
T_REC_ALL	934
T_NUM_TAP	705
T_NUM_BRK	103
T_NUM_HLD	53
T_NUM_SLD	73
T_NUM_ALL	934
T_JUDGE_TAP	766
T_JUDGE_HLD	124
T_JUDGE_SLD	100
T_JUDGE_ALL	990
TTM_EACHPAIRS	147
TTM_SCR_TAP	352500
TTM_SCR_BRK	267800
TTM_SCR_HLD	53000
TTM_SCR_SLD	109500
TTM_SCR_ALL	782800
TTM_SCR_S	749350
TTM_SCR_SS	772500
TTM_RAT_ACV	10133

