VERSION	0.00.00	1.05.00
FES_MODE	0
BPM_DEF	165.000	165.000	165.000	160.000
MET_DEF	4	4
RESOLUTION	384
CLK_DEF	384
COMPATIBLE_CODE	MA2

BPM	0	0	165.000
BPM	48	0	160.000
BPM	49	0	165.000
MET	0	0	4	4

NMHLD	1	0	2	192
NMTTP	1	192	4	E	0	M1
NMHLD	2	0	5	192
NMTTP	2	192	4	E	0	M1
NMHLD	3	0	2	144
NMTAP	3	144	3
NMSTR	3	192	3
NMSCL	3	192	3	96	288	0
NMSCR	3	192	3	96	288	6
BXTAP	5	0	1
BXTAP	5	0	7
NMTAP	5	96	2
NMTAP	5	144	2
NMTAP	5	192	3
NMTAP	5	288	5
NMTAP	5	336	5
NMTAP	6	0	4
NMTAP	6	96	2
NMTAP	6	144	2
NMTAP	6	192	3
NMTAP	6	288	1
NMTAP	6	288	4
NMTAP	7	0	0
NMTAP	7	0	7
NMTAP	7	96	6
NMTAP	7	144	6
NMTAP	7	192	4
NMTAP	7	288	1
NMTAP	7	336	1
NMTAP	8	0	3
NMTAP	8	96	6
NMTAP	8	144	6
NMTAP	8	192	4
NMTAP	8	288	3
NMTAP	8	288	5
NMTAP	9	0	2
NMTAP	9	0	4
NMTAP	9	96	1
NMTAP	9	144	1
NMTAP	9	192	0
NMTAP	9	288	6
NMTAP	9	336	6
NMTAP	10	0	7
NMTAP	10	96	1
NMTAP	10	144	1
NMTAP	10	192	0
NMTAP	10	288	2
NMTAP	10	288	7
NMTAP	11	0	3
NMTAP	11	0	5
NMTAP	11	96	6
NMTAP	11	144	6
NMTAP	11	192	7
NMTAP	11	288	1
NMTAP	11	336	1
NMTAP	12	0	0
NMSTR	12	96	2
NMSI_	12	96	2	96	96	5
NMSTR	12	96	7
NMSI_	12	96	7	96	96	4
NMHLD	13	0	4	96
NMHLD	13	0	5	96
NMHLD	13	144	5	96
NMHLD	13	144	6	96
NMTAP	13	288	6
NMTAP	13	288	7
NMHLD	14	0	0	96
NMTAP	14	96	2
NMHLD	14	144	2	96
NMTAP	14	240	3
NMTAP	14	288	3
NMHLD	15	0	2	96
NMHLD	15	0	3	96
NMHLD	15	144	1	96
NMHLD	15	144	2	96
NMTAP	15	288	0
NMTAP	15	288	1
NMHLD	16	0	7	96
NMTAP	16	96	5
NMHLD	16	144	5	96
EXTAP	16	240	4
EXTAP	16	288	3
EXTAP	16	336	2
NMHLD	17	0	2	96
NMHLD	17	0	3	96
NMHLD	17	144	4	96
NMHLD	17	144	5	96
NMTAP	17	288	6
NMTAP	17	288	7
NMHLD	18	0	0	96
NMTAP	18	96	2
NMHLD	18	144	2	96
NMTAP	18	240	3
NMTAP	18	288	3
NMHLD	19	0	4	96
NMHLD	19	0	5	96
NMHLD	19	144	2	96
NMHLD	19	144	3	96
NMTAP	19	288	0
NMTAP	19	288	1
NMHLD	20	0	7	96
NMTAP	20	96	5
NMHLD	20	144	5	96
NMTAP	20	240	4
NMTAP	20	288	4
NMTAP	20	288	5
NMTAP	21	0	2
NMTAP	21	48	2
NMTAP	21	96	3
NMHLD	21	144	1	96
NMTAP	21	240	0
NMTAP	21	288	0
NMTAP	22	0	6
NMTAP	22	0	7
NMTAP	22	96	4
NMTAP	22	96	6
NMTAP	22	144	4
NMTAP	22	144	6
NMTAP	22	240	1
NMTAP	22	240	3
NMTAP	22	288	1
NMTAP	22	288	3
NMTAP	23	0	5
NMTAP	23	48	5
NMTAP	23	96	4
NMHLD	23	144	6	96
NMTAP	23	240	7
NMTAP	23	288	7
NMTAP	24	0	0
NMTAP	24	0	1
NMTAP	24	96	1
NMTAP	24	96	3
NMTAP	24	144	1
NMTAP	24	144	3
NMTAP	24	240	4
NMTAP	24	240	6
NMTAP	24	288	4
NMTAP	24	288	6
NMTAP	25	0	4
NMTAP	25	0	5
NMTAP	25	96	1
NMTAP	25	144	1
NMTAP	25	192	3
NMTAP	25	288	2
NMTAP	25	288	4
NMHLD	26	0	5	96
NMTAP	26	96	7
NMHLD	26	144	7	96
NMHLD	26	240	0	96
NMTAP	26	336	2
NMTAP	27	0	2
NMTAP	27	96	6
NMTAP	27	144	6
NMTAP	27	192	4
NMTAP	27	288	0
NMTAP	27	288	7
EXTAP	28	0	0
EXTAP	28	0	1
EXTAP	28	72	0
EXTAP	28	72	1
EXTAP	28	144	6
EXTAP	28	144	7
EXTAP	28	216	6
EXTAP	28	216	7
BXTAP	28	288	4
BXTAP	28	288	5
NMSTR	29	0	3
NMSCL	29	0	3	96	96	0
NMSTR	29	192	4
NMSCR	29	192	4	96	96	7
NMHLD	30	0	1	384
NMSTR	31	0	7
NMSCL	31	0	7	96	96	4
NMSTR	31	192	0
NMSCR	31	192	0	96	96	3
NMHLD	32	0	5	192
NMTAP	32	192	4
NMTAP	32	288	3
NMTAP	32	288	6
NMSTR	33	0	7
NMSLL	33	0	7	96	96	3
NMTAP	33	192	1
NMTAP	33	240	1
NMTAP	33	288	3
NMTAP	34	0	2
NMTAP	34	0	3
NMTAP	34	96	2
NMTAP	34	96	3
NMTAP	34	192	0
NMTAP	34	192	1
NMTAP	34	288	6
NMTAP	34	288	7
NMTAP	35	0	4
NMTAP	35	0	5
NMSTR	35	96	4
NMSCL	35	96	4	96	96	1
NMSTR	35	96	5
NMSCR	35	96	5	96	96	0
NMTAP	36	0	2
NMTAP	36	0	3
NMSTR	36	96	2
NMSV_	36	96	2	96	96	7
NMSTR	36	96	3
NMSCR	36	96	3	96	96	6
NMSTR	37	0	0
NMSLR	37	0	0	96	96	4
NMTAP	37	192	6
NMTAP	37	240	6
NMTAP	37	288	4
NMTAP	38	0	4
NMTAP	38	0	5
NMTAP	38	96	4
NMTAP	38	96	5
NMTAP	38	192	6
NMTAP	38	192	7
NMTAP	38	288	0
NMTAP	38	288	1
NMTAP	39	0	2
NMTAP	39	0	3
NMSTR	39	96	2
NMSCL	39	96	2	96	96	7
NMSTR	39	96	3
NMSV_	39	96	3	96	96	6
NMHLD	40	0	4	48
NMHLD	40	0	5	48
NMHLD	40	96	3	48
NMHLD	40	96	4	48
NMHLD	40	192	2	48
NMHLD	40	192	3	48
NMHLD	40	288	1	1152
NMTAP	40	288	4
NMTAP	41	0	3
NMTAP	41	96	3
NMTAP	41	192	3
NMTAP	41	288	3
NMTAP	42	0	2
NMTAP	42	96	2
NMTAP	42	192	2
NMTAP	42	288	2
NMTAP	43	0	0
NMTAP	43	96	0
NMTAP	43	192	0
NMSTR	43	288	0
NMSF_	43	288	0	96	96	4
EXTAP	44	192	3
EXTAP	44	192	5
NMHLD	44	288	6	768
NMTAP	45	0	4
NMTAP	45	96	4
NMTAP	45	192	5
NMTAP	45	288	5
NMTAP	46	0	7
NMTAP	46	96	7
NMTAP	46	192	7
NMTAP	46	288	7
EXTAP	47	0	0
EXTAP	47	0	5
BXTAP	47	72	0
BXTAP	47	72	5
EXTAP	47	192	2
EXTAP	47	192	7
BXTAP	47	264	2
BXTAP	47	264	7
NMSTR	48	0	4
NMSI_	48	0	4	96	96	0
NMSTR	48	0	6
NMSI_	48	0	6	96	96	2
EXTAP	48	288	1
EXTAP	48	288	4
BRTAP	49	0	2
BRTAP	49	0	3
NMTAP	49	96	0
NMTAP	49	96	1
NMTAP	49	144	0
NMTAP	49	144	1
NMTAP	49	240	6
NMTAP	49	240	7
NMTAP	49	288	6
NMTAP	49	288	7
NMTAP	50	0	4
NMTAP	50	0	5
NMTAP	50	96	6
NMTAP	50	96	7
NMTAP	50	144	6
NMTAP	50	144	7
NMTAP	50	240	0
NMTAP	50	240	1
NMTAP	50	288	0
NMTAP	50	288	1
NMHLD	51	0	2	96
NMTAP	51	96	1
NMHLD	51	144	1	96
NMTAP	51	240	0
NMTAP	51	288	0
NMTAP	52	0	0
NMTAP	52	0	7
NMTAP	52	96	4
NMTAP	52	96	6
NMTAP	52	192	1
NMTAP	52	192	3
BRTAP	52	288	0
BRTAP	52	288	4
NMTAP	53	0	6
NMTAP	53	0	7
NMTAP	53	96	4
NMTAP	53	96	5
NMTAP	53	144	4
NMTAP	53	144	5
NMTAP	53	240	2
NMTAP	53	240	3
NMTAP	53	288	2
NMTAP	53	288	3
NMTAP	54	0	0
NMTAP	54	0	1
NMTAP	54	96	2
NMTAP	54	96	3
NMTAP	54	144	2
NMTAP	54	144	3
NMTAP	54	240	4
NMTAP	54	240	5
NMTAP	54	288	4
NMTAP	54	288	5
NMHLD	55	0	5	96
NMHLD	55	96	7	96
NMHLD	55	192	0	96
NMTAP	55	288	2
NMTAP	56	0	2
NMTAP	56	0	3
NMTAP	56	72	3
NMTAP	56	72	4
NMTAP	56	144	4
NMTAP	56	144	5
NMTAP	56	192	4
NMTAP	56	192	5
BRTAP	56	288	2
BRTAP	56	288	6
NMHLD	57	0	2	96
NMTAP	57	0	3
NMTAP	57	96	0
NMTAP	57	144	0
NMTAP	57	240	5
NMTAP	57	240	7
NMTAP	57	288	5
NMTAP	57	288	7
NMTAP	58	0	4
NMHLD	58	0	6	96
NMTAP	58	96	7
NMTAP	58	144	7
NMTAP	58	240	0
NMTAP	58	240	2
NMTAP	58	288	0
NMTAP	58	288	2
NMTAP	59	0	0
NMHLD	59	0	1	96
NMTAP	59	96	3
NMHLD	59	144	3	96
NMTAP	59	240	4
NMHLD	59	288	4	96
NMHLD	60	0	6	96
NMTAP	60	96	7
NMTAP	60	192	0
NMTAP	60	192	6
NMTAP	60	288	1
NMTAP	60	288	7
NMTAP	61	0	0
NMHLD	61	0	2	96
NMTAP	61	96	3
NMTAP	61	144	3
NMTAP	61	240	4
NMTAP	61	240	6
NMTAP	61	288	4
NMTAP	61	288	6
NMHLD	62	0	5	96
NMTAP	62	0	7
NMTAP	62	96	4
NMTAP	62	144	4
NMTAP	62	240	1
NMTAP	62	240	3
NMTAP	62	288	1
NMTAP	62	288	3
EXTAP	63	0	0
EXTAP	63	0	6
EXHLD	63	72	0	72
EXHLD	63	72	6	72
EXTAP	63	192	1
EXTAP	63	192	7
EXHLD	63	264	1	72
EXHLD	63	264	7	72
EXTAP	64	0	0
EXTAP	64	0	6
EXTAP	64	72	0
EXTAP	64	72	6
NMTAP	64	144	1
NMTAP	64	144	5
NMTAP	64	192	1
NMTAP	64	192	5
NMTTP	64	288	2	A	0	M1
NMTTP	64	288	3	A	1	M1
NMTTP	64	288	3	D	0	M1
NMTTP	64	288	4	D	0	M1
NMTAP	65	0	7
NMTAP	65	72	7
NMHLD	65	144	7	528
NMTAP	65	288	5
NMTAP	65	360	5
NMSTR	66	48	5
NMSV_	66	48	5	96	96	4
CNSI_	66	240	4	0	48	2
NMTAP	67	0	1
NMTAP	67	72	1
NMHLD	67	144	1	528
NMTAP	67	288	3
NMTAP	67	360	3
NMSTR	68	48	3
NMSSR	68	48	3	96	144	7
NMTAP	69	0	6
NMTAP	69	0	7
NMTAP	69	96	3
NMTAP	69	144	2
NMTAP	69	192	0
NMTAP	69	192	1
NMTAP	69	288	4
NMTAP	69	336	5
NMTAP	70	0	6
NMTAP	70	0	7
NMTAP	70	96	0
NMTAP	70	96	5
NMTAP	70	192	0
NMTAP	70	192	1
NMTAP	70	288	2
NMTAP	70	288	7
NMTAP	71	0	4
NMTAP	71	0	5
NMTAP	71	96	0
NMTAP	71	144	1
NMTAP	71	192	2
NMTAP	71	192	3
NMTAP	71	288	7
NMTAP	71	336	6
NMSTR	72	0	4
NMSUR	72	0	4	96	96	1
NMSTR	72	0	5
NMSCR	72	0	5	96	96	0
NMTAP	72	288	2
NMTAP	72	288	7
NMSTR	73	0	0
NMSI_	73	0	0	96	48	4
NMSTR	73	0	1
NMSI_	73	0	1	96	48	4
NMSTR	73	192	6
NMSI_	73	192	6	96	48	3
NMSTR	73	192	7
NMSI_	73	192	7	96	48	3
NMSTR	74	0	0
NMSI_	74	0	0	96	48	4
NMSTR	74	0	1
NMSI_	74	0	1	96	48	4
NMTAP	74	192	6
NMTAP	74	192	7
NMTAP	74	288	6
NMTAP	74	288	7
NMHLD	75	0	5	96
NMHLD	75	96	7	96
NMHLD	75	192	0	96
NMHLD	75	288	2	96
NMTAP	76	0	3
NMSTR	76	96	4
NMSCL	76	96	4	96	96	1
NMSTR	76	96	5
NMSCR	76	96	5	96	96	0
NMHLD	77	0	2	192
NMHLD	77	0	7	192
NMTTP	77	288	4	B	0	M1
NMTTP	77	288	5	B	0	M1
NMTTP	77	288	5	E	1	M1
NMSTR	78	0	0
NMSCR	78	0	0	96	96	4
NMTAP	78	192	6
NMTAP	78	240	6
NMTAP	78	288	4
NMTAP	78	336	4
NMTAP	79	0	5
NMTAP	79	48	6
NMTAP	79	96	7
NMTAP	79	144	0
NMTAP	79	192	1
NMTAP	79	240	2
NMTAP	79	288	3
NMTAP	79	288	4
NMTAP	80	0	2
NMTAP	80	24	3
NMTAP	80	48	2
NMTAP	80	96	1
NMTAP	80	96	4
NMTAP	80	192	5
NMTAP	80	216	4
NMTAP	80	240	5
NMTAP	80	288	3
NMTAP	80	288	6
BRHLD	81	0	4	48
BRHLD	81	0	5	48
NMHLD	81	96	6	48
NMHLD	81	96	7	48
NMHLD	81	192	0	48
NMHLD	81	192	1	48
NMHLD	81	288	2	48
NMHLD	81	288	3	48
NMHLD	82	0	2	48
NMHLD	82	0	3	48
NMHLD	82	96	0	48
NMHLD	82	96	1	48
NMHLD	82	192	6	48
NMHLD	82	192	7	48
NMHLD	82	288	4	48
NMHLD	82	288	5	48
NMHLD	83	0	4	48
NMHLD	83	0	5	48
NMHLD	83	96	0	48
NMHLD	83	96	6	48
NMHLD	83	192	2	48
NMHLD	83	192	3	48
NMHLD	83	288	1	48
NMHLD	83	288	7	48
NMHLD	84	0	0	48
NMHLD	84	0	2	48
NMHLD	84	96	5	48
NMHLD	84	96	7	48
NMHLD	84	192	1	48
NMHLD	84	192	3	48
NMSTR	84	288	4
NMSF_	84	288	4	96	48	0
NMTAP	84	288	6

T_REC_TAP	319
T_REC_BRK	6
T_REC_XTP	27
T_REC_BXX	8
T_REC_HLD	91
T_REC_XHO	4
T_REC_BHO	2
T_REC_BXH	0
T_REC_STR	32
T_REC_BST	0
T_REC_XST	0
T_REC_XBS	0
T_REC_TTP	9
T_REC_THO	0
T_REC_SLD	33
T_REC_BSL	0
T_REC_ALL	531
T_NUM_TAP	387
T_NUM_BRK	16
T_NUM_HLD	95
T_NUM_SLD	33
T_NUM_ALL	531
T_JUDGE_TAP	401
T_JUDGE_HLD	229
T_JUDGE_SLD	33
T_JUDGE_ALL	663
TTM_EACHPAIRS	153
TTM_SCR_TAP	193500
TTM_SCR_BRK	41600
TTM_SCR_HLD	95000
TTM_SCR_SLD	49500
TTM_SCR_ALL	379600
TTM_SCR_S	366700
TTM_SCR_SS	378000
TTM_RAT_ACV	10042

