VERSION	0.00.00	1.05.00
FES_MODE	0
BPM_DEF	165.000	165.000	165.000	160.000
MET_DEF	4	4
RESOLUTION	384
CLK_DEF	384
COMPATIBLE_CODE	MA2

BPM	0	0	165.000
BPM	48	0	160.000
BPM	49	0	165.000
MET	0	0	4	4

NMTAP	5	0	7
NMTAP	5	96	7
NMTAP	5	192	7
NMTAP	6	0	6
NMTAP	6	96	6
NMTAP	6	192	6
NMTAP	7	0	5
NMTAP	7	96	5
NMTAP	7	192	5
NMTAP	8	0	3
NMTAP	8	0	4
NMTAP	8	192	3
NMTAP	8	192	4
NMTAP	9	0	3
NMTAP	9	96	3
NMTAP	9	192	3
NMTAP	10	0	2
NMTAP	10	96	2
NMTAP	10	192	2
NMTAP	11	0	1
NMTAP	11	96	1
NMTAP	11	192	1
NMTAP	12	0	0
NMTAP	12	0	7
NMTAP	12	192	0
NMTAP	12	192	7
NMSTR	13	0	1
NMSI_	13	0	1	96	192	4
NMSTR	14	0	6
NMSI_	14	0	6	96	192	2
NMSTR	15	0	0
NMSI_	15	0	0	96	192	4
NMTAP	16	0	5
NMTAP	16	192	4
NMTAP	16	192	5
NMSTR	17	0	6
NMSI_	17	0	6	96	192	3
NMSTR	18	0	2
NMSI_	18	0	2	96	192	7
NMSTR	19	0	6
NMSI_	19	0	6	96	192	3
NMTAP	20	0	2
NMTAP	20	192	3
NMTAP	20	192	4
NMTAP	21	0	5
NMTAP	21	96	5
NMTAP	21	192	5
NMTAP	21	288	5
NMTAP	22	0	6
NMTAP	22	96	6
NMTAP	22	192	6
NMTAP	22	288	6
NMTAP	23	0	7
NMTAP	23	96	7
NMTAP	23	192	7
NMTAP	23	288	7
NMTAP	24	0	0
NMTAP	24	0	1
NMTAP	24	192	0
NMTAP	24	192	1
NMTAP	25	0	2
NMTAP	25	96	2
NMTAP	25	192	2
NMTAP	25	288	2
NMTAP	26	0	1
NMTAP	26	96	1
NMTAP	26	192	1
NMTAP	26	288	1
NMTAP	27	0	0
NMTAP	27	96	0
NMTAP	27	192	0
NMTAP	27	288	0
NMTAP	28	0	6
NMTAP	28	0	7
NMTAP	28	192	6
NMTAP	28	192	7
NMSTR	29	0	6
NMSUL	29	0	6	96	480	3
NMSTR	31	0	1
NMSUR	31	0	1	96	480	4
NMHLD	33	0	5	192
NMHLD	33	192	4	192
NMHLD	34	0	3	192
NMTAP	34	192	2
NMHLD	35	0	2	192
NMHLD	35	192	3	192
NMHLD	36	0	4	192
NMTAP	36	192	5
NMHLD	37	0	6	192
NMHLD	37	192	7	192
NMHLD	38	0	0	192
NMTAP	38	192	1
NMHLD	39	0	1	192
NMHLD	39	192	0	192
NMHLD	40	0	7	192
NMTAP	40	192	6
NMTTP	41	0	6	B	0	L1
NMTTP	41	96	5	B	0	L1
NMTTP	41	192	4	B	0	L1
NMTTP	42	0	1	B	0	L1
NMTTP	42	96	2	B	0	L1
NMTTP	42	192	3	B	0	L1
NMTTP	43	0	6	B	0	L1
NMTTP	43	96	5	B	0	L1
NMTTP	43	192	4	B	0	L1
NMTTP	43	288	3	B	0	L1
NMTTP	44	0	2	B	0	L1
NMTTP	44	96	1	B	0	L1
NMTTP	44	192	0	C	0	L1
NMTTP	45	0	0	B	0	L1
NMTTP	45	96	1	B	0	L1
NMTTP	45	192	2	B	0	L1
NMTTP	45	192	3	B	0	L1
NMTTP	46	0	7	B	0	L1
NMTTP	46	96	6	B	0	L1
NMTTP	46	192	4	B	0	L1
NMTTP	46	192	5	B	0	L1
NMTTP	47	0	1	B	0	L1
NMTTP	47	96	2	B	0	L1
NMTTP	47	192	3	B	0	L1
NMTTP	47	288	4	B	0	L1
NMTTP	48	0	0	C	1	L1
EXTAP	49	0	6
EXTAP	49	96	6
EXTAP	49	192	6
EXTAP	49	192	7
EXTAP	49	288	6
EXTAP	49	288	7
EXTAP	50	0	0
EXTAP	50	96	0
EXTAP	50	192	0
EXTAP	50	192	1
NMTAP	51	0	2
NMTAP	51	96	2
NMTAP	51	192	0
NMTAP	51	192	1
NMTAP	51	288	0
NMTAP	51	288	1
NMTAP	52	0	7
NMTAP	52	96	7
NMTAP	52	192	6
NMTAP	52	192	7
NMTAP	53	0	6
NMTAP	53	96	6
NMTAP	53	192	4
NMTAP	53	192	5
NMTAP	53	288	4
NMTAP	53	288	5
NMTAP	54	0	3
NMTAP	54	96	3
NMTAP	54	192	2
NMTAP	54	192	3
NMTAP	55	0	1
NMTAP	55	96	1
NMTAP	55	192	2
NMTAP	55	192	3
NMTAP	55	288	2
NMTAP	55	288	3
NMTAP	56	0	4
NMTAP	56	96	4
BRTAP	56	192	4
BRTAP	56	192	5
NMTAP	57	0	5
NMTAP	57	48	5
NMTAP	57	96	5
NMTAP	57	192	6
NMTAP	57	192	7
NMTAP	57	288	6
NMTAP	57	288	7
NMTAP	58	0	0
NMTAP	58	48	0
NMTAP	58	96	0
NMTAP	58	192	0
NMTAP	58	192	1
NMTAP	59	0	2
NMTAP	59	48	2
NMTAP	59	96	2
NMTAP	59	192	0
NMTAP	59	192	1
NMTAP	59	288	0
NMTAP	59	288	1
NMTAP	60	0	7
NMTAP	60	48	7
NMTAP	60	96	7
NMTAP	60	192	6
NMTAP	60	192	7
NMTAP	61	0	6
NMTAP	61	48	6
NMTAP	61	96	6
NMTAP	61	192	4
NMTAP	61	192	5
NMTAP	61	288	4
NMTAP	61	288	5
NMTAP	62	0	3
NMTAP	62	48	3
NMTAP	62	96	3
NMTAP	62	192	2
NMTAP	62	192	3
NMTAP	63	0	1
NMTAP	63	48	1
NMTAP	63	96	1
NMTAP	63	192	2
NMTAP	63	192	3
NMTAP	63	288	2
NMTAP	63	288	3
NMTAP	64	0	4
NMTAP	64	48	4
NMTAP	64	96	4
NMTAP	64	192	4
NMTAP	64	192	5
EXTAP	65	0	3
EXTAP	65	0	5
EXTAP	65	72	3
EXTAP	65	72	5
EXTAP	65	144	3
EXTAP	65	144	5
EXTAP	65	288	2
EXTAP	65	288	4
EXTAP	65	360	2
EXTAP	65	360	4
EXHLD	66	48	2	144
EXHLD	66	48	4	144
EXTAP	67	0	3
EXTAP	67	0	5
EXTAP	67	72	3
EXTAP	67	72	5
EXTAP	67	144	3
EXTAP	67	144	5
EXTAP	67	288	2
EXTAP	67	288	4
EXTAP	67	360	2
EXTAP	67	360	4
EXTAP	68	48	2
EXTAP	68	48	4
BXTAP	68	192	3
BXTAP	68	192	4
NMTAP	69	0	2
NMTAP	69	48	2
NMTAP	69	96	2
NMTAP	69	192	1
NMTAP	69	240	1
NMTAP	69	288	1
NMTAP	70	0	0
NMTAP	70	48	0
NMTAP	70	96	0
NMTAP	70	192	6
NMTAP	70	192	7
NMTAP	70	288	6
NMTAP	70	288	7
NMTAP	71	0	5
NMTAP	71	48	5
NMTAP	71	96	5
NMTAP	71	192	6
NMTAP	71	240	6
NMTAP	71	288	6
NMTAP	72	0	7
NMTAP	72	48	7
NMTAP	72	96	7
NMTAP	72	192	0
NMTAP	72	192	1
NMTAP	73	0	1
NMTAP	73	48	1
NMTAP	73	96	1
NMTAP	73	192	2
NMTAP	73	240	2
NMTAP	73	288	2
NMTAP	74	0	3
NMTAP	74	48	3
NMTAP	74	96	3
NMTAP	74	192	4
NMTAP	74	192	5
NMTAP	74	288	4
NMTAP	74	288	5
NMTAP	75	0	6
NMTAP	75	48	6
NMTAP	75	96	6
NMTAP	75	192	5
NMTAP	75	240	5
NMTAP	75	288	5
NMTAP	76	0	4
NMTAP	76	48	4
NMTAP	76	96	4
NMTAP	76	192	3
NMTAP	76	192	4
NMSTR	76	288	3
NMSI_	76	288	3	96	192	0
NMSTR	76	288	4
NMSI_	76	288	4	96	192	7
NMTAP	78	0	6
NMTAP	78	48	6
NMTAP	78	96	6
NMTAP	78	192	5
NMTAP	78	240	5
NMTAP	78	288	5
NMTAP	79	0	4
NMTAP	79	48	4
NMTAP	79	96	4
NMTAP	79	192	3
NMTAP	79	240	3
NMTAP	79	288	3
NMTAP	80	0	2
NMTAP	80	48	2
NMTAP	80	96	2
NMTAP	80	192	1
NMTAP	80	240	1
NMTAP	80	288	1
NMTAP	81	0	0
NMTAP	81	0	1
NMTAP	81	96	0
NMTAP	81	96	1
NMTAP	81	192	2
NMTAP	81	192	7
NMTAP	81	288	2
NMTAP	81	288	7
NMTAP	82	0	3
NMTAP	82	0	6
NMTAP	82	96	3
NMTAP	82	96	6
NMTAP	82	192	4
NMTAP	82	192	5
NMTAP	82	288	4
NMTAP	82	288	5
NMTAP	83	0	2
NMTAP	83	0	3
NMTAP	83	96	2
NMTAP	83	96	3
NMTAP	83	192	1
NMTAP	83	192	4
NMTAP	83	288	1
NMTAP	83	288	4
NMTAP	84	0	0
NMTAP	84	0	5
NMTAP	84	96	0
NMTAP	84	96	5
NMSTR	84	192	6
NMSI_	84	192	6	96	192	3
NMSTR	84	192	7
NMSI_	84	192	7	96	192	2

T_REC_TAP	238
T_REC_BRK	2
T_REC_XTP	32
T_REC_BXX	2
T_REC_HLD	12
T_REC_XHO	2
T_REC_BHO	0
T_REC_BXH	0
T_REC_STR	12
T_REC_BST	0
T_REC_XST	0
T_REC_XBS	0
T_REC_TTP	26
T_REC_THO	0
T_REC_SLD	12
T_REC_BSL	0
T_REC_ALL	338
T_NUM_TAP	308
T_NUM_BRK	4
T_NUM_HLD	14
T_NUM_SLD	12
T_NUM_ALL	338
T_JUDGE_TAP	312
T_JUDGE_HLD	54
T_JUDGE_SLD	12
T_JUDGE_ALL	378
TTM_EACHPAIRS	69
TTM_SCR_TAP	154000
TTM_SCR_BRK	10400
TTM_SCR_HLD	14000
TTM_SCR_SLD	18000
TTM_SCR_ALL	196400
TTM_SCR_S	190150
TTM_SCR_SS	196000
TTM_RAT_ACV	10020

