VERSION	0.00.00	1.05.00
FES_MODE	0
BPM_DEF	165.000	165.000	165.000	160.000
MET_DEF	4	4
RESOLUTION	384
CLK_DEF	384
COMPATIBLE_CODE	MA2

BPM	0	0	165.000
BPM	48	0	160.000
BPM	49	0	165.000
MET	0	0	4	4

NMTAP	5	0	0
NMTAP	5	192	0
NMTAP	6	0	1
NMTAP	6	192	1
NMTAP	7	0	2
NMTAP	7	192	2
NMTAP	8	0	3
NMTAP	8	0	4
NMTAP	8	192	3
NMTAP	8	192	4
NMTAP	9	0	4
NMTAP	9	192	4
NMTAP	10	0	5
NMTAP	10	192	5
NMTAP	11	0	6
NMTAP	11	192	6
NMTAP	12	0	0
NMTAP	12	0	7
NMTAP	13	0	7
NMTAP	13	96	7
NMTAP	13	192	7
NMTAP	14	0	6
NMTAP	14	192	6
NMTAP	15	0	5
NMTAP	15	96	5
NMTAP	15	192	5
NMTAP	16	0	3
NMTAP	16	0	4
NMTAP	16	192	3
NMTAP	16	192	4
NMTAP	17	0	3
NMTAP	17	96	3
NMTAP	17	192	3
NMTAP	18	0	2
NMTAP	18	192	2
NMTAP	19	0	1
NMTAP	19	96	1
NMTAP	19	192	1
BXTAP	20	0	0
BXTAP	20	0	7
NMHLD	21	0	0	192
NMHLD	21	0	1	192
NMTAP	22	0	0
NMTAP	22	0	1
NMHLD	23	0	2	192
NMHLD	23	0	3	192
NMTAP	24	0	2
NMTAP	24	0	3
NMHLD	25	0	4	192
NMHLD	25	0	5	192
NMTAP	26	0	4
NMTAP	26	0	5
NMHLD	27	0	6	192
NMHLD	27	0	7	192
NMTAP	28	0	6
NMTAP	28	0	7
NMSTR	29	0	6
NMSI_	29	0	6	96	288	2
NMSTR	31	0	1
NMSI_	31	0	1	96	288	5
EXTAP	33	0	6
EXTAP	33	0	7
EXTAP	33	96	6
EXTAP	33	96	7
EXTAP	33	192	6
EXTAP	33	192	7
NMTAP	34	0	4
NMTAP	34	0	5
NMTAP	34	96	4
NMTAP	34	96	5
NMTAP	34	192	4
NMTAP	34	192	5
NMTAP	35	0	2
NMTAP	35	0	3
NMTAP	35	96	2
NMTAP	35	96	3
NMTAP	35	192	2
NMTAP	35	192	3
NMTAP	36	0	0
NMTAP	36	0	1
NMTAP	36	96	0
NMTAP	36	96	1
NMTAP	36	192	0
NMTAP	36	192	1
NMTAP	37	0	2
NMTAP	37	0	3
NMTAP	37	96	2
NMTAP	37	96	3
NMTAP	37	192	2
NMTAP	37	192	3
NMTAP	38	0	4
NMTAP	38	0	5
NMTAP	38	96	4
NMTAP	38	96	5
NMTAP	38	192	4
NMTAP	38	192	5
NMTAP	39	0	6
NMTAP	39	0	7
NMTAP	39	96	6
NMTAP	39	96	7
NMTAP	39	192	6
NMTAP	39	192	7
NMTAP	40	0	0
NMTAP	40	96	0
NMTAP	40	192	7
NMTAP	40	288	7
BRTAP	41	0	0
BRTAP	41	0	7
NMTTP	42	0	0	E	0	L1
NMTTP	43	0	0	B	0	L1
NMTTP	43	0	7	B	0	L1
NMTTP	44	0	1	B	0	L1
NMTTP	44	0	6	B	0	L1
NMTTP	45	0	2	B	0	L1
NMTTP	45	0	5	B	0	L1
NMTTP	46	0	3	B	0	L1
NMTTP	46	0	4	B	0	L1
NMTHO	47	0	0	384	C	1	L1
EXTAP	49	0	7
EXTAP	49	96	7
EXTAP	49	192	7
EXTAP	49	288	7
EXTAP	50	0	6
EXTAP	50	96	6
EXTAP	50	192	6
EXTAP	50	192	7
NMTAP	51	0	5
NMTAP	51	96	5
NMTAP	51	192	5
NMTAP	51	288	5
NMTAP	52	0	4
NMTAP	52	96	4
NMTAP	52	192	3
NMTAP	52	192	4
NMTAP	53	0	3
NMTAP	53	96	3
NMTAP	53	192	3
NMTAP	53	288	3
NMTAP	54	0	2
NMTAP	54	96	2
NMTAP	54	192	2
NMTAP	54	192	3
NMTAP	55	0	1
NMTAP	55	96	1
NMTAP	55	192	1
NMTAP	55	288	1
NMTAP	56	0	0
NMTAP	56	96	0
NMTAP	56	192	0
NMTAP	56	192	7
NMTAP	57	0	0
NMTAP	57	96	0
NMTAP	57	192	1
NMTAP	57	288	1
NMTAP	58	0	2
NMTAP	58	96	2
NMTAP	58	192	2
NMTAP	58	192	3
NMTAP	59	0	4
NMTAP	59	96	4
NMTAP	59	192	5
NMTAP	59	288	5
NMTAP	60	0	6
NMTAP	60	96	6
NMTAP	60	192	6
NMTAP	60	192	7
NMTAP	61	0	7
NMTAP	61	96	7
NMTAP	61	192	6
NMTAP	61	288	6
NMTAP	62	0	5
NMTAP	62	96	5
NMTAP	62	192	3
NMTAP	62	192	4
NMTAP	63	0	3
NMTAP	63	96	3
NMTAP	63	192	2
NMTAP	63	288	2
NMTAP	64	0	1
NMTAP	64	96	1
NMTAP	64	192	0
NMTAP	64	192	7
NMSTR	65	0	0
NMSI_	65	0	0	96	288	4
NMSTR	67	0	7
NMSI_	67	0	7	96	288	3
NMHLD	69	0	0	192
NMTAP	70	0	1
NMTAP	70	96	1
NMTAP	70	192	1
NMHLD	71	0	2	192
NMTAP	72	0	3
NMTAP	72	0	4
NMTAP	72	96	3
NMTAP	72	96	4
NMTAP	72	192	3
NMTAP	72	192	4
NMHLD	73	0	4	192
NMTAP	74	0	5
NMTAP	74	96	5
NMTAP	74	192	5
NMHLD	75	0	6	192
NMTAP	76	0	7
NMTAP	76	96	7
NMTAP	76	192	7
BRTAP	77	0	0
BRTAP	77	0	7
NMTAP	77	192	0
NMTAP	77	192	7
NMTAP	78	0	7
NMTAP	78	96	7
NMTAP	78	192	7
NMTAP	78	288	7
NMTAP	79	0	6
NMTAP	79	96	6
NMTAP	79	192	6
NMTAP	79	288	6
NMTAP	80	0	5
NMTAP	80	96	5
NMTAP	80	192	5
NMTAP	80	288	5
NMTAP	81	0	4
NMTAP	81	96	4
NMTAP	81	192	4
NMTAP	81	288	4
NMTAP	82	0	3
NMTAP	82	96	3
NMTAP	82	192	3
NMTAP	82	288	3
NMTAP	83	0	2
NMTAP	83	96	2
NMTAP	83	192	2
NMTAP	83	288	2
NMTAP	84	0	0
NMTAP	84	0	1
NMTAP	84	96	0
NMTAP	84	96	1
NMTAP	84	192	0
NMTAP	84	192	1
EXTAP	84	288	0
EXTAP	84	288	1

T_REC_TAP	189
T_REC_BRK	4
T_REC_XTP	16
T_REC_BXX	2
T_REC_HLD	12
T_REC_XHO	0
T_REC_BHO	0
T_REC_BXH	0
T_REC_STR	4
T_REC_BST	0
T_REC_XST	0
T_REC_XBS	0
T_REC_TTP	9
T_REC_THO	1
T_REC_SLD	4
T_REC_BSL	0
T_REC_ALL	241
T_NUM_TAP	218
T_NUM_BRK	6
T_NUM_HLD	13
T_NUM_SLD	4
T_NUM_ALL	241
T_JUDGE_TAP	224
T_JUDGE_HLD	56
T_JUDGE_SLD	4
T_JUDGE_ALL	284
TTM_EACHPAIRS	53
TTM_SCR_TAP	109000
TTM_SCR_BRK	15600
TTM_SCR_HLD	13000
TTM_SCR_SLD	6000
TTM_SCR_ALL	143600
TTM_SCR_S	138750
TTM_SCR_SS	143000
TTM_RAT_ACV	10041

