VERSION	0.00.00	1.05.00
FES_MODE	0
BPM_DEF	160.000	160.000	160.000	160.000
MET_DEF	4	4
RESOLUTION	384
CLK_DEF	384
COMPATIBLE_CODE	MA2

BPM	0	0	160.000
MET	0	0	4	4

NMHLD	2	0	2	384
NMTAP	2	192	3
NMSTR	3	0	3
NMSUL	3	0	3	96	192	2
NMHLD	4	0	1	96
NMHLD	4	96	2	96
NMHLD	4	192	3	96
NMHLD	4	288	4	96
NMSTR	5	0	5
NMSUL	5	0	5	96	192	4
EXTAP	5	192	4
EXTAP	5	240	5
EXTAP	5	288	6
NMTAP	6	0	4
NMTAP	6	0	5
NMTAP	6	144	5
NMTAP	6	168	4
NMHLD	6	192	6	192
EXTAP	6	288	5
EXHLD	7	0	4	96
NMHLD	7	96	3	96
EXHLD	7	192	1	192
EXSTR	7	288	2
NMSXR	7	288	2	96	576	4
EXTAP	9	288	6
NMTTP	10	0	6	E	0	M1
NMTTP	10	12	5	B	0	M1
NMTTP	10	24	4	B	0	M1
NMTTP	10	36	3	B	0	M1
NMTTP	10	48	3	E	0	M1
NMTAP	11	0	0
NMTAP	11	24	7
NMTAP	11	48	0
NMTAP	11	72	7
NMTAP	11	96	1
NMTAP	11	96	6
NMSTR	11	192	0
NMSI_	11	192	0	96	48	4
NMTAP	11	216	6
NMTAP	11	240	2
NMTAP	11	264	4
BRTAP	11	288	0
NMTAP	12	0	3
NMTAP	12	0	5
NMTAP	12	48	6
NMTAP	12	72	7
NMTAP	12	96	6
NMTAP	12	144	1
NMTAP	12	168	0
NMTAP	12	192	1
NMTAP	12	240	6
NMTAP	12	264	4
NMTAP	12	288	5
NMTAP	12	336	1
NMTAP	12	360	3
NMTAP	13	0	2
NMTAP	13	48	5
NMTAP	13	72	4
NMTAP	13	96	6
NMTAP	13	144	1
NMTAP	13	168	0
NMTAP	13	192	2
NMTAP	13	216	7
NMTAP	13	240	3
NMTAP	13	264	6
BRTAP	13	288	4
NMTAP	13	288	5
NMTAP	14	0	0
NMTAP	14	0	7
NMTAP	14	48	1
NMTAP	14	72	0
NMTAP	14	96	2
NMTAP	14	144	6
NMTAP	14	168	4
NMTAP	14	192	5
NMTAP	14	240	1
NMTAP	14	264	3
NMTAP	14	288	2
NMTAP	14	336	6
NMTAP	14	360	7
NMTAP	15	0	5
NMTAP	15	48	2
NMTAP	15	72	3
EXSTR	15	96	1
NMSI_	15	96	1	96	48	4
EXSTR	15	96	4
NMSI_	15	96	4	96	48	7
NMTAP	15	192	1
NMTAP	15	192	4
BRTAP	15	288	2
BRTAP	15	288	6
NMHLD	16	0	4	48
NMHLD	16	0	5	48
NMHLD	16	96	5	48
NMHLD	16	96	6	48
NMHLD	16	192	6	48
NMHLD	16	192	7	48
NMHLD	16	288	0	48
NMHLD	16	288	7	48
NMHLD	17	0	0	48
NMHLD	17	0	1	48
NMHLD	17	96	1	48
NMHLD	17	96	2	48
NMHLD	17	192	2	48
NMHLD	17	192	3	48
NMHLD	17	288	3	48
NMHLD	17	288	4	48
NMTAP	18	0	5
NMTAP	18	24	5
NMTAP	18	72	4
NMTAP	18	72	6
NMTAP	18	144	2
NMTAP	18	168	2
NMHLD	18	216	1	120
NMTAP	18	216	3
EXTAP	18	264	4
EXTAP	18	288	5
EXTAP	18	312	6
EXTAP	18	336	7
EXTAP	18	360	0
NMTAP	19	0	2
NMTAP	19	24	2
NMTAP	19	48	3
NMTAP	19	72	1
NMTAP	19	144	6
NMTAP	19	168	6
NMTAP	19	192	7
NMTAP	19	216	5
EXHLD	19	288	0	24
EXHLD	19	288	4	24
EXHLD	19	336	0	24
EXHLD	19	336	4	24
BXTAP	20	0	2
BXTAP	20	0	6
NMTAP	20	96	0
NMTAP	20	96	7
NMTAP	20	144	1
NMTAP	20	168	3
NMSTR	20	192	2
NMSI_	20	192	2	96	48	7
NMTAP	20	288	2
NMTAP	20	288	6
NMHLD	21	0	0	96
EXTAP	21	0	6
EXTAP	21	48	4
BRSTR	21	96	2
NMSCR	21	96	2	96	96	7
NMSTR	21	192	0
NMSI_	21	192	0	96	48	4
NMTAP	21	288	0
NMTAP	22	0	3
NMTAP	22	0	6
NMTAP	22	48	6
NMTAP	22	96	4
NMTAP	22	96	5
NMTAP	22	144	2
NMTAP	22	168	3
NMTAP	22	192	1
NMTAP	22	240	7
NMTAP	22	288	0
NMTAP	22	288	6
NMTAP	22	336	5
NMTAP	23	0	4
NMTAP	23	0	6
NMTAP	23	48	2
NMSTR	23	96	1
NMSI_	23	96	1	96	48	4
NMSTR	23	96	3
NMSI_	23	96	3	96	48	6
NMTAP	23	144	0
EXTAP	23	192	1
EXTAP	23	192	3
NMTAP	23	288	3
NMTAP	23	288	7
NMSTR	24	0	1
NMSI_	24	0	1	96	48	4
NMTAP	24	48	0
NMTAP	24	96	1
NMTAP	24	144	6
NMTAP	24	168	6
NMSTR	24	192	4
NMSCL	24	192	4	96	48	1
NMTAP	24	240	5
NMTAP	24	288	4
NMSTR	25	0	6
NMSI_	25	0	6	96	48	2
NMTAP	25	48	0
NMTAP	25	96	6
NMTAP	25	144	1
NMTAP	25	168	1
NMSTR	25	192	3
NMSI_	25	192	3	96	48	7
NMTAP	25	240	2
NMTAP	25	288	3
BRTAP	26	0	0
NMTAP	26	0	6
NMTAP	26	48	1
NMTAP	26	72	4
NMTAP	26	96	2
NMTAP	26	120	3
NMTAP	26	144	2
NMTAP	26	192	1
BRTAP	26	192	7
NMTAP	26	240	6
NMTAP	26	264	3
NMTAP	26	288	5
NMTAP	26	312	4
NMTAP	26	336	5
NMTAP	27	0	0
NMTAP	27	0	7
EXTAP	27	48	1
EXTAP	27	64	2
EXTAP	27	80	3
EXTAP	27	96	4
NMTAP	27	96	7
EXTAP	27	144	6
EXTAP	27	160	5
EXTAP	27	176	4
NMSTR	27	192	0
NMSSL	27	192	0	96	48	4
NMSV_	27	192	0	96	48	2
EXTAP	27	192	3
EXTAP	27	288	0
NMHLD	28	0	1	288
NMSTR	28	0	5
NMSXL	28	0	5	96	192	3
BRTAP	29	0	0
NMHLD	29	0	3	192
BRTAP	29	96	1
BRTAP	29	192	2
EXTAP	29	288	0
EXTAP	29	288	1
NMSTR	30	0	1
NMSCR	30	0	1	96	48	4
NMTAP	30	0	7
NMSTR	30	96	1
NMSXL	30	96	1	96	96	1
NMTAP	30	96	7
NMTTP	30	192	0	E	0	M1
NMTAP	30	192	1
NMTTP	30	192	7	E	0	M1
NMTAP	30	288	0
NMTAP	31	0	0
NMSTR	31	0	6
NMSCL	31	0	6	96	48	3
NMTAP	31	96	0
NMSTR	31	96	6
NMSXR	31	96	6	96	96	6
NMTTP	31	192	0	E	0	M1
NMTTP	31	192	1	E	0	M1
NMTAP	31	192	6
NMTAP	31	288	7
NMSTR	32	0	1
NMSCR	32	0	1	96	48	4
NMTAP	32	0	7
NMSTR	32	96	1
NMSXL	32	96	1	96	96	1
NMTAP	32	96	7
NMTTP	32	192	0	E	0	M1
NMTAP	32	192	1
NMTTP	32	192	7	E	0	M1
NMTAP	32	288	0
NMTAP	33	0	0
NMSTR	33	0	6
NMSCL	33	0	6	96	48	3
NMTAP	33	96	0
NMSTR	33	96	6
NMSXR	33	96	6	96	96	0
NMTTP	33	192	0	C	0	M1
NMTAP	33	192	6
BRTAP	33	288	7
NMSTR	34	0	1
NMSCR	34	0	1	96	48	4
NMSTR	34	0	5
NMSI_	34	0	5	96	48	7
NMSTR	34	96	1
NMSXL	34	96	1	96	96	1
EXTAP	34	96	5
NMSTR	34	192	5
NMSI_	34	192	5	96	48	7
EXTAP	34	288	5
NMSTR	35	0	4
NMSCL	35	0	4	96	48	1
NMSTR	35	0	5
NMSI_	35	0	5	96	48	7
NMSTR	35	96	4
NMSXR	35	96	4	96	96	4
EXTAP	35	96	5
NMSTR	35	192	5
NMSI_	35	192	5	96	48	7
EXTAP	35	288	5
NMSTR	36	0	2
NMSI_	36	0	2	96	48	0
NMSTR	36	0	6
NMSCL	36	0	6	96	48	3
EXTAP	36	96	2
NMSTR	36	96	6
NMSXR	36	96	6	96	96	6
NMSTR	36	192	2
NMSI_	36	192	2	96	48	0
EXTAP	36	288	2
NMSTR	37	0	2
NMSI_	37	0	2	96	48	0
NMSTR	37	0	3
NMSCR	37	0	3	96	48	6
EXTAP	37	96	2
NMSTR	37	96	3
NMSI_	37	96	3	96	48	7
NMTAP	37	192	0
NMTAP	37	192	3
BXTAP	37	288	2
BXTAP	37	288	6
NMSTR	38	0	0
NMSI_	38	0	0	96	48	5
NMTAP	38	24	7
NMTAP	38	48	1
BRSTR	38	96	0
NMSI_	38	96	0	96	48	2
NMHLD	38	96	3	384
BRSTR	38	192	0
NMSCL	38	192	0	96	48	5
BRSTR	38	288	0
NMSCR	38	288	0	96	48	2
BRSTR	39	0	0
NMSI_	39	0	0	96	48	5
BRTAP	39	96	0
NMTAP	39	192	2
NMTAP	39	192	6
NMTAP	39	240	1
NMTAP	39	264	1
NMSTR	39	288	7
NMSI_	39	288	7	96	48	2
NMTAP	39	312	3
NMHLD	40	0	4	288
BRSTR	40	0	7
NMSI_	40	0	7	96	48	5
BRSTR	40	96	7
NMSCR	40	96	7	96	48	2
BRSTR	40	192	7
NMSCL	40	192	7	96	48	5
BRSTR	40	288	7
NMSF_	40	288	7	96	48	3
BRTAP	41	0	7
BRTAP	41	96	1
BRTAP	41	96	5
NMTAP	41	192	6
BRTAP	41	192	7
BRTAP	41	240	3
NMTAP	41	240	4
BRTAP	41	288	0
NMTAP	41	288	1
NMTAP	42	0	2
NMSTR	42	0	7
NMSCR	42	0	7	96	48	2
NMSTR	42	96	4
NMSLL	42	96	4	96	96	7
NMTAP	42	96	7
NMTAP	42	192	0
NMTAP	42	264	6
NMTAP	42	336	4
NMSTR	43	0	0
NMSCL	43	0	0	96	48	5
NMTAP	43	0	3
NMTAP	43	96	0
NMSTR	43	96	3
NMSLR	43	96	3	96	96	0
NMTAP	43	192	7
NMTAP	43	264	1
NMTAP	43	336	3
NMTAP	44	0	4
NMSTR	44	0	7
NMSCR	44	0	7	96	48	2
NMSTR	44	96	4
NMSI_	44	96	4	96	48	0
NMTAP	44	96	7
NMTAP	44	192	0
NMTAP	44	192	4
NMTAP	44	264	6
NMSTR	44	288	6
NMSI_	44	288	6	96	48	2
NMTAP	44	336	5
NMTAP	44	336	7
NMSTR	45	0	1
NMSI_	45	0	1	96	48	5
NMTTP	45	0	6	A	1	M1
NMTTP	45	96	1	A	1	M1
NMSTR	45	96	7
NMSI_	45	96	7	96	48	3
NMTTP	45	192	0	C	1	M1
NMSTR	45	192	7
NMSCL	45	192	7	96	48	4
NMSCR	45	192	7	96	48	2
NMTTP	45	288	7	A	1	M1
BRTAP	46	0	1
BRTAP	46	0	5
NMHLD	47	0	1	384
NMHLD	48	0	3	384
NMSTR	49	0	4
NMSCL	49	0	4	96	288	7
NMHLD	50	0	5	384
NMTAP	50	96	6
NMTAP	50	144	6
NMTAP	50	240	4
NMTAP	50	288	4
NMHLD	51	0	2	288
NMTAP	51	96	3
NMTAP	51	144	3
NMTAP	51	240	1
NMSTR	51	288	1
NMSUR	51	288	1	96	576	4
NMSTR	52	0	2
NMSCL	52	0	2	96	480	5
NMTAP	53	288	3
NMTAP	53	288	4
NMTTP	54	0	2	B	0	M1
NMTTP	54	24	4	B	0	M1
NMTTP	54	48	0	B	0	M1
NMTTP	54	72	6	B	0	M1
NMTTP	54	96	3	B	0	M1
NMTTP	54	120	5	B	0	M1
NMTTP	54	144	1	B	0	M1
NMTTP	54	168	7	B	0	M1
NMTTP	54	192	1	D	0	M1
NMTTP	54	204	2	D	0	M1
NMTTP	54	216	3	D	0	M1
NMTTP	54	228	4	D	0	M1
NMTTP	54	240	5	D	0	M1
NMTTP	54	252	6	D	0	M1
NMTTP	54	264	7	D	0	M1
NMTTP	54	276	0	D	0	M1
NMTTP	54	288	1	D	0	M1
NMTTP	54	300	2	D	0	M1
NMTTP	54	312	3	D	0	M1
NMTTP	54	324	4	D	0	M1
NMTTP	54	336	5	D	0	M1
NMTTP	54	348	6	D	0	M1
NMTTP	54	360	7	D	0	M1
NMTTP	54	372	0	D	0	M1
NMTTP	55	0	0	C	0	M1
NMTAP	55	144	0
NMSTR	55	144	1
NMSI_	55	144	1	96	48	5
NMTTP	55	192	3	E	0	M1
NMTAP	55	240	0
NMTAP	55	240	1
NMTAP	55	264	7
NMSTR	55	288	6
BRSCR	55	288	6	96	72	4
NMTTP	55	360	5	E	0	M1
NMTTP	55	360	6	E	1	M1
NMSTR	56	144	6
NMSI_	56	144	6	96	48	2
NMTAP	56	144	7
NMTTP	56	192	5	E	0	M1
NMTAP	56	240	6
NMTAP	56	240	7
NMTAP	56	264	0
NMSTR	56	288	1
BRSCL	56	288	1	96	72	3
NMTTP	56	360	2	E	1	M1
NMTTP	56	360	3	E	0	M1
NMTAP	57	144	0
NMSTR	57	144	1
NMSI_	57	144	1	96	48	4
NMTTP	57	192	2	A	0	M1
EXTAP	57	240	0
EXTAP	57	240	1
EXTAP	57	256	7
EXSTR	57	272	6
BRSCR	57	272	6	96	88	5
EXTAP	57	288	5
BXHLD	57	360	4	96
EXTAP	58	96	6
EXTAP	58	108	7
EXTAP	58	120	0
EXTAP	58	132	1
EXTAP	58	144	2
EXTAP	58	156	3
EXTAP	58	168	4
EXTAP	58	180	5
NMTAP	58	192	2
NMTAP	58	192	6
EXTAP	58	240	1
NMTAP	58	256	7
NMTAP	58	272	1
NMTAP	58	288	7
NMSTR	58	336	2
NMSI_	58	336	2	96	48	7
NMSTR	58	336	6
NMSI_	58	336	6	96	48	3
NMTAP	58	360	2
NMTAP	58	360	6
BRTAP	59	48	2
BRTAP	59	48	6
NMTAP	59	144	1
NMTAP	59	144	5
NMTAP	59	192	2
NMTAP	59	192	3
NMTAP	59	240	0
NMTAP	59	240	1
NMTAP	59	288	6
NMTAP	59	288	7
NMTAP	59	336	4
NMTAP	59	336	5
NMTAP	60	0	6
NMTAP	60	24	7
NMTAP	60	48	5
NMSTR	60	96	1
NMSV_	60	96	1	96	48	4
NMSTR	60	96	4
NMSCR	60	96	4	96	48	7
NMTAP	60	144	2
NMTAP	60	144	3
NMTAP	60	192	1
NMTAP	60	192	4
BXTAP	60	288	3
BXTAP	60	288	7
BRTAP	61	0	2
NMSTR	61	0	6
NMSCR	61	0	6	96	48	1
NMTAP	61	48	0
BRTAP	61	48	4
NMTAP	61	96	2
NMTAP	61	120	3
BXSTR	61	144	4
NMSI_	61	144	4	96	48	0
NMTAP	61	240	4
BRTAP	61	240	7
NMTAP	61	288	6
NMTAP	61	312	6
NMHLD	61	336	7	48
NMTAP	62	0	5
NMTAP	62	24	7
NMTAP	62	48	6
NMTAP	62	72	0
NMTAP	62	96	7
NMTAP	62	120	1
NMTAP	62	144	0
NMTAP	62	168	2
NMTAP	62	192	2
NMTAP	62	216	3
NMTAP	62	240	1
NMSTR	62	288	0
NMSI_	62	288	0	96	48	4
NMSTR	62	288	5
NMSI_	62	288	5	96	48	7
NMSTR	63	0	0
NMSI_	63	0	0	96	48	2
BRSTR	63	0	5
NMSI_	63	0	5	96	48	2
BRSTR	63	96	0
NMSF_	63	96	0	96	48	4
NMTAP	63	96	5
BRTAP	63	192	0
BXSTR	63	288	2
BRSCL	63	288	2	96	96	5
BXTAP	63	288	6
NMTTP	64	0	0	E	0	M1
NMTTP	64	0	7	B	1	M1
NMTTP	64	0	7	E	0	M1
NMHLD	64	96	4	96
NMTAP	64	192	2
NMTAP	64	216	3
NMTAP	64	240	0
NMSTR	64	264	7
BRSCR	64	264	7	96	96	5
NMTAP	64	288	4
NMTAP	64	312	5
NMTAP	64	336	1
BRTAP	64	360	7
NMTAP	65	48	0
NMTAP	65	96	0
NMTAP	65	192	1
NMTAP	65	216	1
NMTAP	65	240	3
NMSTR	65	264	0
NMSCR	65	264	0	96	96	6
NMTAP	65	288	6
NMTAP	65	312	7
NMTAP	65	336	5
BRTAP	65	360	0
EXHLD	66	48	7	96
EXTAP	66	96	0
EXTAP	66	120	1
EXTAP	66	144	2
EXTAP	66	168	3
EXTAP	66	192	4
NMSTR	66	192	7
NMSI_	66	192	7	96	48	3
NMTAP	66	240	6
NMTAP	66	264	0
NMTAP	66	288	7
NMTAP	66	336	1
BRTAP	67	0	2
BRTAP	67	0	4
BRTAP	67	72	5
BRTAP	67	72	7
BRSTR	67	144	1
BRSCL	67	144	1	96	48	6
NMTAP	67	168	0
NMTAP	67	192	2
NMTAP	67	240	1
NMTTP	67	240	5	A	0	M1
NMTTP	67	248	5	D	0	M1
NMTTP	67	256	4	A	0	M1
NMTTP	67	264	4	D	0	M1
NMTTP	67	272	3	A	0	M1
NMTTP	67	280	3	D	0	M1
NMTTP	67	288	2	A	1	M1
EXTAP	68	0	7
NMTAP	68	24	3
NMTAP	68	48	7
NMTAP	68	72	3
EXTAP	68	96	0
NMTAP	68	120	4
NMTAP	68	144	0
NMTAP	68	168	4
EXTAP	68	192	1
NMTAP	68	216	3
NMTAP	68	240	1
NMTAP	68	264	3
EXTAP	68	288	0
NMTAP	68	312	7
NMTAP	68	336	4
NMTAP	68	360	5
EXTAP	69	0	2
NMTAP	69	24	3
NMTAP	69	48	2
NMTAP	69	72	3
EXTAP	69	96	1
NMTAP	69	120	4
NMTAP	69	144	1
NMTAP	69	168	4
EXTAP	69	192	0
NMTAP	69	216	5
NMTAP	69	240	7
NMTAP	69	264	6
EXTAP	69	288	1
NMTAP	69	312	4
EXTAP	69	336	2
NMTAP	69	360	3
NMTAP	70	0	1
NMTAP	70	24	4
NMTAP	70	48	1
NMTAP	70	72	4
NMTAP	70	96	0
NMTAP	70	120	3
NMTAP	70	144	0
NMTAP	70	168	3
NMTAP	70	192	0
NMTAP	70	204	7
NMTAP	70	216	6
NMTAP	70	228	5
NMTAP	70	240	4
NMTAP	70	252	3
NMTAP	70	264	2
NMTAP	70	276	1
NMTAP	70	288	0
NMTAP	70	300	7
NMTAP	70	312	6
NMTAP	70	324	5
NMTAP	70	336	4
NMTAP	70	348	3
NMTAP	70	360	2
NMTAP	70	372	1
NMHLD	71	0	0	96
NMHLD	71	0	3	96
NMTAP	71	144	1
NMTAP	71	144	4
NMTAP	71	168	2
NMTAP	71	168	5
NMSTR	71	192	3
BRSI_	71	192	3	96	48	0
NMSTR	71	192	6
BRSI_	71	192	6	96	48	3
BRSTR	71	288	3
NMSCL	71	288	3	96	576	4
NMSCR	71	288	3	96	576	2
BRTAP	71	288	6
NMTTP	72	0	3	E	0	M1
NMTTP	72	0	3	A	1	M1
NMTTP	72	0	4	E	0	M1
NMTAP	73	288	4
NMTAP	73	288	5
NMTAP	74	0	3
NMTAP	74	0	6
NMTAP	74	48	5
NMTAP	74	72	4
NMTAP	74	96	5
NMTAP	74	144	2
NMTAP	74	168	3
NMTAP	74	192	2
NMTAP	74	240	7
NMTAP	74	264	4
NMTAP	74	288	5
NMTAP	74	336	1
NMTAP	74	360	3
NMTAP	75	0	2
NMTAP	75	48	7
NMTAP	75	72	5
NMTAP	75	96	6
NMTAP	75	144	3
NMTAP	75	144	4
NMTAP	75	192	2
NMTAP	75	216	3
NMTAP	75	240	1
BRTAP	75	288	0
BRSTR	75	288	4
NMSCR	75	288	4	96	48	7
NMSTR	76	0	1
NMSI_	76	0	1	96	48	5
NMTAP	76	0	4
NMSTR	76	96	0
NMSI_	76	96	0	96	48	4
NMTAP	76	96	1
NMTAP	76	192	0
NMSTR	76	192	7
NMSI_	76	192	7	96	48	3
NMSTR	76	288	6
NMSI_	76	288	6	96	48	2
NMTAP	76	288	7
NMTAP	77	0	6
NMSTR	77	0	7
NMSCR	77	0	7	96	48	1
NMSTR	77	96	3
NMSF_	77	96	3	96	48	7
NMTAP	77	96	7
NMTAP	77	192	3
NMTAP	77	288	1
NMTAP	77	288	5
NMTAP	78	0	6
NMTAP	78	0	7
NMTAP	78	24	6
NMTAP	78	24	7
NMTAP	78	72	0
NMTAP	78	72	5
NMTAP	78	144	2
NMTAP	78	144	3
NMTAP	78	168	2
NMTAP	78	168	3
NMHLD	78	216	1	120
NMTAP	78	216	4
EXTAP	78	264	4
EXTAP	78	288	5
EXTAP	78	312	6
EXTAP	78	336	7
EXTAP	78	360	0
NMTAP	79	0	2
NMTAP	79	24	2
NMTAP	79	48	3
NMTAP	79	72	1
NMTAP	79	72	4
NMTAP	79	144	5
NMTAP	79	168	5
NMTAP	79	192	4
NMTAP	79	216	3
NMTAP	79	216	6
NMTAP	79	288	1
NMTAP	79	288	4
NMTAP	79	336	0
NMTAP	79	336	6
NMTAP	79	360	0
NMTAP	79	360	6
NMTAP	80	0	0
NMTAP	80	0	6
BRTAP	80	96	1
BRTAP	80	96	5
NMTTP	80	192	3	B	0	M1
NMTTP	80	192	3	E	0	M1
NMTTP	80	192	4	B	0	M1
NMTTP	80	192	5	E	0	M1
NMTAP	80	288	0
NMTAP	80	288	7
NMHLD	81	0	1	72
NMHLD	81	72	3	72
NMTAP	81	144	4
NMSTR	81	192	4
NMSUL	81	192	4	96	48	0
NMTTP	81	192	5	B	0	M1
NMTTP	81	192	5	A	0	M1
NMSTR	82	0	5
NMSCR	82	0	5	96	96	3
NMSTR	82	192	4
NMSLR	82	192	4	96	48	0
CNSI_	82	336	0	0	48	2
NMHLD	83	0	3	72
NMHLD	83	72	4	72
NMTAP	83	144	5
NMTTP	83	192	4	E	0	M1
NMTTP	83	192	4	D	0	M1
NMSTR	83	192	5
NMSSR	83	192	5	96	48	1
BRTAP	84	96	0
BRTAP	84	96	7
NMTAP	84	144	1
NMTAP	84	168	4
NMTAP	84	192	3
NMHLD	84	216	6	72
NMTAP	84	288	4
NMTAP	84	312	7
NMTAP	84	336	1
NMTAP	84	360	3
NMTAP	85	0	0
NMTAP	85	24	6
NMTAP	85	48	4
NMHLD	85	72	7	72
NMTAP	85	144	4
NMTAP	85	168	6
NMTAP	85	192	1
NMHLD	85	216	3	72
NMTAP	85	288	7
NMTAP	85	312	3
NMTAP	85	336	7
NMTAP	85	360	3
NMTAP	86	0	0
NMTAP	86	24	0
NMTAP	86	48	4
NMTAP	86	72	4
NMTAP	86	96	2
NMTAP	86	120	2
NMTAP	86	144	6
NMTAP	86	168	6
NMTAP	86	192	3
NMTAP	86	216	7
NMTAP	86	240	2
NMTAP	86	264	6
NMTAP	86	288	1
NMTAP	86	312	5
NMTAP	86	336	0
NMTAP	86	360	4
NMTAP	87	0	1
NMTAP	87	24	3
NMTAP	87	48	1
NMTAP	87	72	3
NMTAP	87	96	2
NMTAP	87	120	4
NMTAP	87	144	2
NMTAP	87	168	4
NMTAP	87	192	2
NMTAP	87	208	3
NMTAP	87	224	4
NMTAP	87	240	5
NMTAP	87	256	6
NMTAP	87	272	7
NMTAP	87	288	0
NMTAP	87	288	4
NMTAP	87	304	3
NMTAP	87	320	2
NMTAP	87	336	1
NMTAP	87	352	0
NMTAP	87	368	7
NMTAP	88	0	4
EXHLD	88	0	6	72
NMTAP	88	24	4
NMTAP	88	72	7
NMTAP	88	144	1
NMTAP	88	144	3
NMTAP	88	168	1
NMTAP	88	168	3
NMTAP	88	216	0
EXTAP	88	264	1
EXTAP	88	264	5
NMTAP	88	288	2
NMTAP	88	288	6
NMTAP	88	312	3
NMTAP	88	312	7
NMTAP	88	336	0
NMTAP	88	336	4
NMTAP	88	360	1
NMTAP	88	360	5
BRSTR	89	0	2
NMSUL	89	0	2	96	48	4
BRSTR	89	0	6
NMSUL	89	0	6	96	48	0
NMTTP	89	120	0	B	0	M1
NMTTP	89	120	0	C	1	M1
NMTTP	89	120	4	B	0	M1

T_REC_TAP	435
T_REC_BRK	37
T_REC_XTP	66
T_REC_BXX	7
T_REC_HLD	45
T_REC_XHO	8
T_REC_BHO	0
T_REC_BXH	1
T_REC_STR	79
T_REC_BST	16
T_REC_XST	4
T_REC_XBS	2
T_REC_TTP	72
T_REC_THO	0
T_REC_SLD	96
T_REC_BSL	8
T_REC_ALL	876
T_NUM_TAP	656
T_NUM_BRK	71
T_NUM_HLD	53
T_NUM_SLD	96
T_NUM_ALL	876
T_JUDGE_TAP	718
T_JUDGE_HLD	137
T_JUDGE_SLD	104
T_JUDGE_ALL	959
TTM_EACHPAIRS	144
TTM_SCR_TAP	328000
TTM_SCR_BRK	184600
TTM_SCR_HLD	53000
TTM_SCR_SLD	144000
TTM_SCR_ALL	709600
TTM_SCR_S	681450
TTM_SCR_SS	702500
TTM_RAT_ACV	10101

