VERSION	0.00.00	1.05.00
FES_MODE	0
BPM_DEF	160.000	160.000	160.000	160.000
MET_DEF	4	4
RESOLUTION	384
CLK_DEF	384
COMPATIBLE_CODE	MA2

BPM	0	0	160.000
MET	0	0	4	4

BXSTR	2	0	0
NMSCR	2	0	0	96	288	3
NMSTR	3	0	7
NMSCL	3	0	7	96	288	4
NMHLD	4	0	2	384
NMTTP	4	192	3	E	0	M1
NMHLD	5	0	5	384
NMTTP	5	192	5	E	0	M1
NMSTR	6	0	3
NMSUL	6	0	3	96	288	7
NMSTR	7	0	6
NMSUL	7	0	6	96	288	2
BXSTR	8	0	0
NMSUR	8	0	0	96	288	1
CNSCR	9	0	1	0	384	6
NMTHO	10	0	0	384	C	0	M1
NMTAP	11	192	0
NMTAP	11	192	7
NMTAP	11	288	1
NMTAP	11	288	6
BRTAP	12	0	2
BRTAP	12	0	5
NMTAP	12	96	2
NMTAP	12	96	4
NMTAP	12	192	2
NMTAP	12	192	3
NMTAP	12	240	3
NMTAP	12	288	2
NMTAP	12	288	3
NMTAP	13	0	2
NMTAP	13	0	6
NMTAP	13	96	2
NMTAP	13	96	5
NMTAP	13	192	2
NMTAP	13	192	4
NMTAP	13	240	4
NMTAP	13	288	2
NMTAP	13	288	4
NMTAP	14	0	2
NMTAP	14	0	3
NMTAP	14	96	2
NMTAP	14	96	3
NMTAP	14	192	1
NMTAP	14	192	2
NMTAP	14	288	0
NMTAP	14	288	2
NMTAP	15	0	1
NMTAP	15	0	2
NMTAP	15	96	2
NMTAP	15	96	3
NMTAP	15	192	2
NMTAP	15	192	3
NMTAP	15	240	3
NMTAP	15	288	2
NMTAP	15	288	3
NMTAP	16	0	4
BRTAP	16	0	5
NMTAP	16	96	4
NMTAP	16	96	5
NMTAP	16	192	3
NMTAP	16	192	5
NMTAP	16	240	3
NMTAP	16	288	3
NMTAP	16	288	5
NMTAP	17	0	5
NMTAP	17	0	6
NMTAP	17	96	5
NMTAP	17	96	6
NMTAP	17	192	5
NMTAP	17	192	7
NMTAP	17	240	7
NMTAP	17	288	5
NMTAP	17	288	7
NMHLD	18	0	6	72
NMHLD	18	0	7	72
EXTAP	18	144	0
NMTAP	18	192	0
EXSTR	18	288	1
NMSUR	18	288	1	96	192	4
EXTAP	18	288	7
NMHLD	19	288	5	96
BRTAP	20	0	4
NMTAP	20	96	2
NMTAP	20	144	2
NMTAP	20	192	1
NMTAP	20	192	3
NMTAP	20	288	0
NMTAP	20	288	7
NMTAP	21	0	7
NMTAP	21	48	6
NMHLD	21	96	5	96
EXTAP	21	192	4
NMTAP	21	288	3
NMSTR	21	288	6
NMSCR	21	288	6	96	96	1
NMSTR	22	96	2
NMSCR	22	96	2	96	96	5
NMTAP	22	288	6
NMTAP	23	0	7
NMTAP	23	48	7
NMTAP	23	96	1
NMTAP	23	144	1
NMTAP	23	192	0
NMTAP	23	192	1
NMTAP	23	288	2
NMTAP	23	288	3
BRTAP	24	0	1
BRTAP	24	0	4
NMTAP	24	96	7
NMTAP	24	144	6
NMHLD	24	192	5	96
NMTAP	24	288	4
NMTAP	25	0	3
NMTAP	25	0	6
NMTAP	25	96	0
NMTAP	25	144	1
NMHLD	25	192	2	96
NMTAP	25	288	3
NMTAP	26	0	1
NMTAP	26	48	1
NMTAP	26	96	7
NMTAP	26	144	7
NMTAP	26	192	0
NMTAP	26	240	0
NMTAP	26	288	6
NMTAP	26	336	6
NMTAP	27	0	0
NMTAP	27	24	7
NMTAP	27	48	0
NMTAP	27	72	7
NMTAP	27	96	0
NMTAP	27	120	7
NMTAP	27	144	0
NMTAP	27	168	7
NMTAP	27	192	0
NMTAP	27	216	7
NMTAP	27	240	0
NMTAP	27	264	7
EXSTR	27	288	0
NMSI_	27	288	0	96	48	4
BXHLD	28	0	6	576
NMTAP	29	0	0
NMTAP	29	96	1
NMTAP	29	192	2
BRHLD	29	288	3	96
BRSTR	29	288	4
BRSCR	29	288	4	96	48	7
NMSTR	30	96	0
NMSI_	30	96	0	96	48	5
NMSTR	30	96	1
NMSI_	30	96	1	96	48	4
NMSTR	30	288	1
NMSI_	30	288	1	96	48	3
NMSTR	30	288	7
NMSI_	30	288	7	96	48	4
NMSTR	31	96	0
NMSI_	31	96	0	96	48	4
NMSTR	31	96	1
NMSI_	31	96	1	96	48	4
NMTAP	31	288	3
NMTAP	31	288	5
BRTAP	32	0	2
BRTAP	32	0	6
NMTAP	32	96	1
NMTAP	32	144	1
NMTAP	32	192	0
NMTAP	32	240	0
NMHLD	32	288	2	96
BRTAP	33	0	3
NMTAP	33	96	4
NMTAP	33	96	5
NMTAP	33	144	4
NMTAP	33	144	5
NMTAP	33	192	4
NMTAP	33	192	5
BRSTR	33	288	3
BRSCL	33	288	3	96	48	0
BRHLD	33	288	4	96
NMSTR	34	96	6
NMSI_	34	96	6	96	48	3
NMSTR	34	96	7
NMSI_	34	96	7	96	48	2
NMSTR	34	288	0
NMSI_	34	288	0	96	48	3
NMSTR	34	288	6
NMSI_	34	288	6	96	48	4
NMSTR	35	96	6
NMSI_	35	96	6	96	48	3
NMSTR	35	96	7
NMSI_	35	96	7	96	48	3
NMTAP	35	288	2
NMTAP	35	288	4
BRTAP	36	0	1
BRTAP	36	0	5
NMTAP	36	96	6
NMTAP	36	144	6
NMTAP	36	192	7
NMTAP	36	240	7
NMSTR	36	288	5
NMSCR	36	288	5	96	192	2
EXTAP	37	288	2
EXTAP	37	288	5
NMTAP	38	0	3
NMTAP	38	24	4
NMTAP	38	48	3
NMTAP	38	72	4
EXTAP	38	96	3
NMTAP	38	192	0
EXTAP	38	192	1
NMTAP	38	288	3
EXTAP	38	288	5
EXTAP	39	0	6
NMTAP	39	0	7
EXTAP	39	96	2
NMTAP	39	96	4
EXTAP	39	192	1
EXHLD	39	240	1	72
BXTAP	39	312	0
EXTAP	40	0	2
EXTAP	40	0	7
NMTAP	40	96	4
EXTAP	40	96	5
EXTAP	40	192	6
NMTAP	40	192	7
NMTAP	40	288	2
EXTAP	40	288	3
NMTAP	41	0	0
EXTAP	41	0	1
EXTAP	41	96	4
NMTAP	41	96	5
EXTAP	41	192	5
EXTAP	41	192	7
EXTAP	41	240	5
EXTAP	41	240	7
EXTAP	41	288	5
EXTAP	41	288	7
NMHLD	42	0	1	48
NMHLD	42	0	3	48
NMHLD	42	96	1	48
NMHLD	42	96	3	48
NMTAP	42	192	1
NMTAP	42	192	3
NMTAP	42	264	2
NMTAP	42	264	4
NMTAP	42	336	3
NMTAP	42	336	5
NMHLD	43	0	3	48
NMHLD	43	0	5	48
NMHLD	43	96	3	48
NMHLD	43	96	5	48
NMTAP	43	192	4
NMTAP	43	192	6
NMTAP	43	264	3
NMTAP	43	264	5
NMTAP	43	336	2
NMTAP	43	336	4
NMTAP	44	0	1
NMTAP	44	48	1
NMTAP	44	96	3
NMTAP	44	144	3
NMTAP	44	192	4
NMTAP	44	240	4
NMSTR	44	288	6
NMSI_	44	288	6	96	96	4
CNSI_	45	96	4	0	96	2
CNSI_	45	192	2	0	96	0
BXHLD	46	0	1	576
BXTAP	46	0	7
NMHLD	47	0	0	576
NMHLD	48	0	2	576
NMTTP	49	0	0	C	0	M1
BXTAP	50	0	2
BXHLD	50	0	3	384
NMTTP	50	192	3	B	0	M1
NMHLD	51	0	4	384
NMTTP	51	192	4	B	0	M1
NMHLD	52	0	5	480
NMTTP	52	192	5	B	0	M1
NMHLD	53	0	4	96
NMHLD	53	192	2	96
NMHLD	53	192	3	96
NMTAP	54	0	2
NMTAP	54	48	2
NMTAP	54	96	5
NMTAP	54	144	5
NMTAP	54	192	3
NMTAP	54	216	4
NMTAP	54	240	3
NMTAP	54	264	4
NMSTR	54	288	3
NMSCL	54	288	3	96	192	7
NMTAP	54	312	4
NMTAP	54	336	3
NMTAP	54	360	4
EXSTR	55	288	6
NMSI_	55	288	6	96	48	3
EXTAP	55	288	7
BRTAP	56	0	0
NMTAP	56	96	2
NMTAP	56	144	3
NMSTR	56	192	4
NMSCR	56	192	4	96	48	7
NMSTR	56	288	1
NMSCR	56	288	1	96	48	4
EXTAP	57	0	0
NMTAP	57	96	6
NMTAP	57	96	7
NMTAP	57	144	0
NMTAP	57	144	5
NMSTR	57	192	1
NMSI_	57	192	1	96	48	7
NMSTR	57	192	4
NMSI_	57	192	4	96	48	2
NMTAP	58	0	1
NMTAP	58	0	4
NMTAP	58	48	2
NMTAP	58	72	3
NMTAP	58	96	2
NMTAP	58	144	5
NMTAP	58	168	4
NMTAP	58	192	5
NMTAP	58	240	2
NMTAP	58	264	3
NMTAP	58	288	1
EXTAP	58	336	7
EXSTR	59	0	7
NMSI_	59	0	7	96	48	2
EXSTR	59	96	1
NMSI_	59	96	1	96	48	4
EXSTR	59	192	5
NMSI_	59	192	5	96	48	0
EXTAP	59	288	3
NMTAP	60	0	2
NMTAP	60	48	2
NMTAP	60	96	0
NMTAP	60	144	0
NMTAP	60	192	7
NMTAP	60	240	7
BRTAP	60	288	0
BRTAP	60	288	6
BXTAP	61	0	3
BXTAP	61	0	5
BXTAP	61	48	3
BXTAP	61	48	5
BXTAP	61	96	2
BXTAP	61	96	4
BXTAP	61	144	2
BXTAP	61	144	4
BXTAP	61	240	0
BXTAP	61	240	7
BXTAP	61	288	1
BXTAP	61	288	6
BXTAP	61	336	2
BXTAP	61	336	5
NMTAP	62	0	3
NMTAP	62	0	4
NMTAP	62	48	2
NMTAP	62	72	3
NMTAP	62	96	1
NMTAP	62	144	5
NMTAP	62	168	4
NMTAP	62	192	6
NMTAP	62	240	1
NMTAP	62	264	0
NMTAP	62	288	1
NMTAP	62	336	6
NMTAP	62	360	7
BRSTR	63	0	6
NMSI_	63	0	6	96	48	3
BRSTR	63	96	1
NMSI_	63	96	1	96	48	5
BRSTR	63	192	7
NMSF_	63	192	7	96	48	3
BRTAP	64	0	1
BRTAP	64	0	5
NMTAP	64	96	0
NMTAP	64	144	7
NMSTR	64	192	4
NMSCL	64	192	4	96	48	1
NMSTR	64	192	6
NMSCR	64	192	6	96	48	1
EXTAP	65	0	0
EXTAP	65	0	1
NMTAP	65	96	7
NMTAP	65	144	0
NMSTR	65	192	1
NMSCL	65	192	1	96	48	6
NMSTR	65	192	3
NMSCR	65	192	3	96	48	6
BXTAP	66	0	6
BXTAP	66	0	7
NMTAP	66	96	0
NMTAP	66	120	7
NMTAP	66	144	0
NMTAP	66	168	7
NMTAP	66	192	1
NMTAP	66	216	6
NMTAP	66	240	1
NMTAP	66	264	6
NMHLD	66	288	2	96
BRTAP	67	0	3
BRTAP	67	72	3
BRTAP	67	72	5
BRTAP	67	144	2
BRTAP	67	144	6
BRHLD	67	192	2	96
BRSTR	67	192	6
BRSCR	67	192	6	96	48	1
NMTAP	68	0	2
NMTAP	68	48	2
NMTAP	68	96	0
NMTAP	68	96	1
NMTAP	68	144	0
NMTAP	68	144	1
NMTAP	68	192	7
NMTAP	68	240	6
BRTAP	68	288	0
BRTAP	68	288	5
NMTAP	69	0	5
NMTAP	69	48	5
NMTAP	69	96	6
NMTAP	69	96	7
NMTAP	69	144	6
NMTAP	69	144	7
NMTAP	69	192	0
NMTAP	69	240	1
BRTAP	69	288	2
BRTAP	69	288	7
NMTAP	70	0	0
NMTAP	70	0	1
NMTAP	70	48	0
NMTAP	70	48	1
NMTAP	70	96	2
NMTAP	70	96	7
NMTAP	70	192	6
NMTAP	70	192	7
NMTAP	70	240	6
NMTAP	70	240	7
NMTAP	70	288	0
NMTAP	70	288	5
BXTAP	71	0	2
BXHLD	71	0	3	288
NMTHO	71	192	0	96	C	1	M1
BRTAP	72	0	0
BRTAP	72	0	7
NMTAP	72	96	6
NMTAP	72	144	6
NMTAP	72	192	4
NMTAP	72	240	3
NMTAP	72	288	5
NMTAP	72	336	6
BRTAP	73	0	0
BRTAP	73	0	7
NMTAP	73	96	1
NMTAP	73	144	1
NMTAP	73	192	3
NMTAP	73	240	4
NMTAP	73	288	2
NMTAP	73	336	1
NMSTR	74	0	0
NMSI_	74	0	0	96	48	4
NMSTR	74	96	6
NMSI_	74	96	6	96	48	3
NMTAP	74	192	7
NMTAP	74	288	1
NMTAP	74	288	4
NMTAP	75	0	2
NMTAP	75	0	3
NMTAP	75	48	2
NMTAP	75	48	3
NMSTR	75	96	2
NMSCL	75	96	2	96	96	7
NMSTR	75	96	3
NMSUL	75	96	3	96	96	6
NMHLD	76	0	6	48
NMHLD	76	0	7	48
NMHLD	76	96	6	48
NMHLD	76	96	7	48
NMHLD	76	192	0	48
NMHLD	76	192	7	48
NMHLD	76	288	0	48
NMHLD	76	288	7	48
NMHLD	77	0	0	48
NMHLD	77	0	1	48
NMHLD	77	96	0	48
NMHLD	77	96	1	48
NMHLD	77	192	2	48
NMHLD	77	192	7	48
NMHLD	77	288	3	48
NMHLD	77	288	6	48
EXTAP	78	0	5
EXTAP	78	24	4
EXTAP	78	72	3
EXTAP	78	72	6
EXTAP	78	144	2
EXTAP	78	168	4
EXTAP	78	192	2
EXTAP	78	216	4
EXTAP	78	240	2
EXTAP	78	288	1
EXTAP	78	288	5
BXTAP	79	0	6
BXTAP	79	24	7
BXTAP	79	48	6
BXTAP	79	72	7
BXTAP	79	144	1
BXTAP	79	168	0
BXTAP	79	192	1
BXTAP	79	216	0
BXSTR	79	288	2
NMSI_	79	288	2	96	48	0
BXSTR	79	288	3
NMSI_	79	288	3	96	48	7
NMSTR	80	96	4
NMSI_	80	96	4	96	48	0
NMSTR	80	96	5
NMSI_	80	96	5	96	48	7
NMSTR	80	288	2
NMSI_	80	288	2	96	48	0
NMSTR	80	288	3
NMSI_	80	288	3	96	48	7
NMSTR	81	96	4
NMSI_	81	96	4	96	48	1
NMSTR	81	96	5
NMSI_	81	96	5	96	48	0
NMTAP	81	288	2
NMTAP	81	288	7
NMSTR	82	0	3
NMSCL	82	0	3	96	96	0
NMSTR	82	0	6
NMSCL	82	0	6	96	96	3
BRTAP	82	288	0
BRTAP	82	288	3
NMSTR	83	0	1
NMSCR	83	0	1	96	96	4
NMSTR	83	0	4
NMSCR	83	0	4	96	96	7
BRTAP	83	288	4
BRSTR	83	288	7
NMSI_	83	288	7	96	48	3
BRTAP	84	96	2
BRTAP	84	96	4
NMTAP	84	192	4
NMTAP	84	192	5
NMTAP	84	240	6
NMTAP	84	288	1
NMTAP	84	288	7
NMTAP	85	0	2
NMTAP	85	0	3
NMTAP	85	48	1
NMTAP	85	96	0
NMTAP	85	96	6
NMTAP	85	192	4
NMTAP	85	192	5
NMTAP	85	288	2
NMTAP	85	288	3
BRTAP	86	0	1
NMTAP	86	24	0
NMTAP	86	48	1
NMTAP	86	72	0
NMTAP	86	96	1
NMTAP	86	120	0
NMTAP	86	144	1
NMTAP	86	192	6
NMTAP	86	216	7
NMTAP	86	240	6
NMTAP	86	264	7
NMTAP	86	288	6
NMTAP	86	312	7
NMTAP	86	336	6
BRTAP	87	0	0
NMTAP	87	24	7
NMTAP	87	48	0
NMTAP	87	72	7
NMTAP	87	96	0
NMTAP	87	120	7
NMTAP	87	144	0
NMTAP	87	168	7
NMTAP	87	192	0
NMTAP	87	216	1
NMTAP	87	240	2
NMTAP	87	264	3
NMTAP	87	288	4
NMTAP	87	312	5
NMTAP	87	336	6
NMTAP	87	360	7
EXHLD	88	0	0	72
BXTAP	88	144	1
BXTAP	88	144	7
NMTTP	88	216	7	E	0	M1
NMTTP	88	240	6	E	0	M1
NMTTP	88	264	5	E	0	M1
NMTTP	88	288	4	E	0	M1
NMTTP	88	312	3	E	0	M1
NMTTP	88	336	2	E	0	M1
NMTHO	88	360	0	120	C	1	M1
NMTTP	89	96	1	B	0	M1
NMTTP	89	96	2	B	0	M1
NMTTP	89	96	5	B	0	M1
NMTTP	89	96	6	B	0	M1

T_REC_TAP	303
T_REC_BRK	36
T_REC_XTP	41
T_REC_BXX	30
T_REC_HLD	41
T_REC_XHO	2
T_REC_BHO	3
T_REC_BXH	4
T_REC_STR	42
T_REC_BST	7
T_REC_XST	6
T_REC_XBS	4
T_REC_TTP	16
T_REC_THO	3
T_REC_SLD	56
T_REC_BSL	3
T_REC_ALL	597
T_NUM_TAP	408
T_NUM_BRK	87
T_NUM_HLD	46
T_NUM_SLD	56
T_NUM_ALL	597
T_JUDGE_TAP	485
T_JUDGE_HLD	165
T_JUDGE_SLD	59
T_JUDGE_ALL	709
TTM_EACHPAIRS	145
TTM_SCR_TAP	204000
TTM_SCR_BRK	226200
TTM_SCR_HLD	46000
TTM_SCR_SLD	84000
TTM_SCR_ALL	560200
TTM_SCR_S	535000
TTM_SCR_SS	551500
TTM_RAT_ACV	10157

