VERSION	0.00.00	1.05.00
FES_MODE	0
BPM_DEF	160.000	160.000	160.000	160.000
MET_DEF	4	4
RESOLUTION	384
CLK_DEF	384
COMPATIBLE_CODE	MA2

BPM	0	0	160.000
MET	0	0	4	4

NMHLD	2	0	2	192
NMHLD	2	192	3	192
NMHLD	3	0	4	192
NMTAP	3	192	5
NMHLD	4	0	5	192
NMHLD	4	192	4	192
NMHLD	5	0	3	192
NMTAP	5	192	2
NMHLD	6	0	1	192
NMHLD	6	192	2	192
NMHLD	7	0	3	192
NMTAP	7	192	4
NMHLD	8	0	6	192
NMHLD	8	192	5	192
NMHLD	9	0	4	192
NMTAP	9	192	3
EXHLD	10	0	3	384
EXHLD	10	0	4	384
NMTAP	12	0	4
NMTAP	12	96	4
NMTAP	12	192	5
NMTAP	13	0	6
NMTAP	13	96	6
NMTAP	13	192	7
NMTAP	14	0	0
NMTAP	14	96	0
NMTAP	14	192	1
NMTAP	15	0	2
NMTAP	15	96	2
NMTAP	15	192	2
NMTAP	15	192	3
NMTAP	16	0	3
NMTAP	16	96	3
NMTAP	16	192	2
NMTAP	17	0	1
NMTAP	17	96	1
NMTAP	17	192	0
NMTAP	18	0	7
NMTAP	18	96	7
NMTAP	18	192	6
NMTAP	19	0	4
NMTAP	19	0	5
NMTAP	19	192	4
NMTAP	19	192	5
NMTAP	20	0	5
NMTAP	20	96	5
NMTAP	20	192	4
NMTAP	20	192	5
NMTAP	21	0	6
NMTAP	21	96	6
NMTAP	21	192	6
NMTAP	21	192	7
NMTAP	22	0	0
NMTAP	22	96	0
NMTAP	22	192	0
NMTAP	22	192	1
NMTAP	23	0	2
NMTAP	23	0	3
NMTAP	23	96	2
NMTAP	23	96	3
NMTAP	23	192	2
NMTAP	23	192	3
NMTAP	24	0	2
NMTAP	24	96	2
NMTAP	24	192	2
NMTAP	24	192	3
NMTAP	25	0	1
NMTAP	25	96	1
NMTAP	25	192	0
NMTAP	25	192	1
NMTAP	26	0	7
NMTAP	26	96	7
NMTAP	26	192	6
NMTAP	26	192	7
NMTAP	27	0	4
NMTAP	27	0	5
NMTAP	27	96	4
NMTAP	27	96	5
NMTAP	27	192	4
NMTAP	27	192	5
NMTAP	28	0	3
NMTAP	28	96	3
NMTAP	28	192	3
EXTAP	29	0	4
EXTAP	29	96	4
BXTAP	29	192	3
BXTAP	29	192	4
NMTTP	30	0	3	B	0	L1
NMTTP	30	96	2	B	0	L1
NMTTP	30	192	1	B	0	L1
NMTTP	31	0	4	B	0	L1
NMTTP	31	96	5	B	0	L1
NMTTP	31	192	6	B	0	L1
NMTTP	32	0	2	B	0	L1
NMTTP	32	96	1	B	0	L1
NMTTP	32	192	0	B	0	L1
NMTTP	32	288	7	B	0	L1
NMTTP	33	0	6	B	0	L1
NMTTP	33	96	5	B	0	L1
NMTTP	33	192	0	C	0	L1
NMTTP	34	0	5	E	0	L1
NMTTP	34	96	6	E	0	L1
NMTTP	34	192	7	E	0	L1
NMTTP	35	0	3	E	0	L1
NMTTP	35	96	2	E	0	L1
NMTTP	35	192	1	E	0	L1
NMTTP	36	0	6	E	0	L1
NMTTP	36	96	7	E	0	L1
NMTTP	36	192	0	E	0	L1
NMTTP	36	288	1	E	0	L1
NMTTP	37	0	2	E	0	L1
NMTTP	37	96	3	E	0	L1
NMTTP	37	192	4	E	0	L1
NMTTP	37	192	5	E	0	L1
EXTAP	38	0	2
EXTAP	38	96	2
EXTAP	38	192	2
EXTAP	38	288	2
NMTAP	39	0	1
NMTAP	39	96	1
NMTAP	39	192	1
NMTAP	39	288	1
NMTAP	40	0	0
NMTAP	40	96	0
NMTAP	40	192	0
NMTAP	40	288	0
NMTAP	41	0	6
NMTAP	41	0	7
NMTAP	41	96	6
NMTAP	41	96	7
NMTAP	41	192	6
NMTAP	41	192	7
NMTAP	42	0	5
NMTAP	42	96	5
NMTAP	42	192	5
NMTAP	42	288	5
NMTAP	43	0	6
NMTAP	43	96	6
NMTAP	43	192	6
NMTAP	43	288	6
NMTAP	44	0	7
NMTAP	44	96	7
NMTAP	44	192	7
NMTAP	44	288	7
NMTAP	45	0	0
NMTAP	45	0	1
NMTAP	45	96	0
NMTAP	45	96	1
NMTAP	45	192	0
NMTAP	45	192	1
NMSTR	46	0	2
NMSI_	46	0	2	96	192	5
NMSTR	47	0	6
NMSI_	47	0	6	96	192	3
NMSTR	48	0	1
NMSI_	48	0	1	96	192	4
NMTAP	49	0	5
NMTAP	49	192	4
NMTAP	49	192	5
NMSTR	50	0	6
NMSI_	50	0	6	96	192	2
NMSTR	51	0	0
NMSI_	51	0	0	96	192	4
NMSTR	52	0	5
NMSI_	52	0	5	96	192	2
NMSTR	53	0	1
NMSUR	53	0	1	96	480	4
EXTAP	55	0	4
EXTAP	55	0	5
NMTAP	56	0	5
NMTAP	56	96	5
NMTAP	56	192	6
NMTAP	56	288	6
NMTAP	57	0	7
NMTAP	57	96	7
NMTAP	57	192	0
NMTAP	57	192	1
NMTAP	58	0	2
NMTAP	58	96	2
NMTAP	58	192	1
NMTAP	58	288	1
NMTAP	59	0	0
NMTAP	59	96	0
NMTAP	59	192	6
NMTAP	59	192	7
NMTAP	60	0	6
NMTAP	60	96	6
NMTAP	60	192	5
NMTAP	60	288	5
EXTAP	61	0	4
EXTAP	61	96	4
EXTAP	61	192	2
EXTAP	61	192	3
NMTAP	62	0	1
NMTAP	62	96	1
NMTAP	62	192	2
NMTAP	62	288	2
EXTAP	63	0	3
EXTAP	63	96	3
BRTAP	63	192	4
BRTAP	63	192	5
NMTAP	64	0	5
NMTAP	64	96	5
NMTAP	64	192	6
NMTAP	64	192	7
NMTAP	64	288	6
NMTAP	64	288	7
NMTAP	65	0	0
NMTAP	65	96	0
NMTAP	65	192	0
NMTAP	65	192	1
NMTAP	66	0	2
NMTAP	66	96	2
NMTAP	66	192	0
NMTAP	66	192	1
NMTAP	66	288	0
NMTAP	66	288	1
NMTAP	67	0	7
NMTAP	67	96	7
NMTAP	67	192	6
NMTAP	67	192	7
NMTAP	68	0	6
NMTAP	68	96	6
NMTAP	68	192	4
NMTAP	68	192	5
NMTAP	68	288	4
NMTAP	68	288	5
NMTAP	69	0	3
NMTAP	69	96	3
NMTAP	69	192	2
NMTAP	69	192	3
NMTAP	70	0	1
NMTAP	70	96	1
NMTAP	70	192	2
NMTAP	70	192	3
NMTAP	70	288	2
NMTAP	70	288	3
BXTAP	71	0	1
BXTAP	71	0	4
NMTAP	71	192	2
NMTAP	71	192	3
NMTAP	72	0	1
NMTAP	72	96	1
NMTAP	72	192	1
NMTAP	72	288	0
NMTAP	72	288	1
NMTAP	73	0	2
NMTAP	73	96	2
NMTAP	73	192	2
NMTAP	73	288	2
NMTAP	73	288	3
NMTAP	74	0	4
NMTAP	74	96	4
NMTAP	74	192	4
NMTAP	74	288	4
NMTAP	74	288	5
NMTAP	75	0	6
NMTAP	75	0	7
NMTAP	75	96	6
NMTAP	75	96	7
NMTAP	75	192	6
NMTAP	75	192	7
NMTAP	76	0	6
NMTAP	76	96	6
NMTAP	76	192	6
NMTAP	76	288	6
NMTAP	76	288	7
NMTAP	77	0	5
NMTAP	77	96	5
NMTAP	77	192	5
NMTAP	77	288	4
NMTAP	77	288	5
NMTAP	78	0	3
NMTAP	78	96	3
NMTAP	78	192	3
NMTAP	78	288	2
NMTAP	78	288	3
NMTAP	79	0	0
NMTAP	79	0	1
NMTAP	79	96	0
NMTAP	79	96	1
NMTAP	79	192	0
NMTAP	79	192	1
NMTAP	80	0	2
NMTAP	80	48	2
NMTAP	80	96	2
NMTAP	80	192	1
NMTAP	80	240	1
NMTAP	80	288	1
NMTAP	81	0	0
NMTAP	81	48	0
NMTAP	81	96	0
NMTAP	81	192	6
NMTAP	81	192	7
NMTAP	82	0	5
NMTAP	82	48	5
NMTAP	82	96	5
NMTAP	82	192	6
NMTAP	82	240	6
NMTAP	82	288	6
NMTAP	83	0	7
NMTAP	83	48	7
NMTAP	83	96	7
NMTAP	83	192	0
NMTAP	83	192	1
NMTAP	84	0	1
NMTAP	84	48	1
NMTAP	84	96	1
NMTAP	84	192	2
NMTAP	84	240	2
NMTAP	84	288	2
NMTAP	85	0	3
NMTAP	85	48	3
NMTAP	85	96	3
NMTAP	85	192	4
NMTAP	85	192	5
NMTAP	86	0	6
NMTAP	86	48	6
NMTAP	86	96	6
NMTAP	86	192	5
NMTAP	86	240	5
NMTAP	86	288	5
NMTAP	87	0	4
NMTAP	87	48	4
NMTAP	87	96	4
NMTAP	87	192	2
NMTAP	87	192	3
NMSTR	88	0	3
NMSCL	88	0	3	96	384	0
NMSTR	88	0	4
NMSCR	88	0	4	96	384	7

T_REC_TAP	252
T_REC_BRK	2
T_REC_XTP	14
T_REC_BXX	4
T_REC_HLD	12
T_REC_XHO	2
T_REC_BHO	0
T_REC_BXH	0
T_REC_STR	9
T_REC_BST	0
T_REC_XST	0
T_REC_XBS	0
T_REC_TTP	27
T_REC_THO	0
T_REC_SLD	9
T_REC_BSL	0
T_REC_ALL	331
T_NUM_TAP	302
T_NUM_BRK	6
T_NUM_HLD	14
T_NUM_SLD	9
T_NUM_ALL	331
T_JUDGE_TAP	308
T_JUDGE_HLD	64
T_JUDGE_SLD	9
T_JUDGE_ALL	381
TTM_EACHPAIRS	59
TTM_SCR_TAP	151000
TTM_SCR_BRK	15600
TTM_SCR_HLD	14000
TTM_SCR_SLD	13500
TTM_SCR_ALL	194100
TTM_SCR_S	187700
TTM_SCR_SS	193500
TTM_RAT_ACV	10031

