VERSION	0.00.00	1.05.00
FES_MODE	0
BPM_DEF	160.000	160.000	160.000	160.000
MET_DEF	4	4
RESOLUTION	384
CLK_DEF	384
COMPATIBLE_CODE	MA2

BPM	0	0	160.000
MET	0	0	4	4

EXTAP	2	0	0
NMTAP	2	192	0
NMTAP	3	0	0
NMTAP	4	0	0
NMTAP	4	0	7
NMTAP	5	0	0
NMTAP	5	0	7
NMTAP	6	0	7
NMTAP	6	192	7
NMTAP	7	0	7
NMTAP	8	0	0
NMTAP	8	0	7
NMTAP	9	0	0
NMTAP	9	0	7
NMHLD	10	0	0	384
NMHLD	10	0	7	384
NMTAP	12	0	0
NMTAP	12	192	0
NMTAP	13	0	1
NMTAP	13	192	1
NMTAP	14	0	2
NMTAP	14	192	2
NMTAP	15	0	3
NMTAP	15	0	4
NMTAP	15	192	3
NMTAP	15	192	4
NMTAP	16	0	4
NMTAP	16	192	4
NMTAP	17	0	5
NMTAP	17	192	5
EXTAP	18	0	6
EXTAP	18	192	6
EXTAP	19	0	0
EXTAP	19	0	7
NMTAP	20	0	7
NMTAP	20	96	7
NMTAP	20	192	7
NMTAP	21	0	6
NMTAP	21	192	6
NMTAP	22	0	5
NMTAP	22	96	5
NMTAP	22	192	5
NMTAP	23	0	3
NMTAP	23	0	4
NMTAP	24	0	3
NMTAP	24	96	3
NMTAP	24	192	3
NMTAP	25	0	2
NMTAP	25	192	2
NMTAP	26	0	1
NMTAP	26	96	1
NMTAP	26	192	1
NMTAP	27	0	0
NMTAP	27	192	0
EXHLD	28	0	0	384
EXHLD	28	0	7	384
NMSTR	30	0	0
NMSI_	30	0	0	96	288	4
NMSTR	32	0	7
NMSI_	32	0	7	96	288	3
NMSTR	34	0	1
NMSI_	34	0	1	96	288	5
NMSTR	36	0	6
NMSI_	36	0	6	96	288	2
NMTAP	38	0	0
NMTAP	38	96	0
NMTAP	38	192	0
NMTAP	39	0	1
NMTAP	39	96	1
NMTAP	39	192	1
NMTAP	40	0	2
NMTAP	40	96	2
NMTAP	40	192	2
NMTAP	41	0	3
NMTAP	41	0	4
NMTAP	41	192	3
NMTAP	41	192	4
NMTAP	42	0	4
NMTAP	42	96	4
NMTAP	42	192	4
NMTAP	43	0	5
NMTAP	43	96	5
NMTAP	43	192	5
NMTAP	44	0	6
NMTAP	44	96	6
NMTAP	44	192	6
EXTAP	45	0	0
EXTAP	45	0	7
NMTTP	46	0	0	E	0	L1
NMTTP	47	0	0	B	0	L1
NMTTP	47	0	7	B	0	L1
NMTTP	48	0	1	B	0	L1
NMTTP	48	0	6	B	0	L1
NMTTP	49	0	0	C	0	L1
NMTTP	50	0	0	B	0	L1
NMTTP	50	0	1	B	0	L1
NMTTP	51	0	2	B	0	L1
NMTTP	51	0	3	B	0	L1
NMTTP	52	0	4	B	0	L1
NMTTP	52	0	5	B	0	L1
NMTTP	53	0	6	B	0	L1
NMTTP	53	0	7	B	0	L1
NMTHO	54	0	0	384	C	1	L1
BXTAP	56	0	7
EXTAP	56	96	7
EXTAP	56	192	7
NMTAP	57	0	6
NMTAP	57	96	6
NMTAP	57	192	6
NMTAP	57	192	7
NMTAP	58	0	5
NMTAP	58	96	5
NMTAP	58	192	5
NMTAP	59	0	4
NMTAP	59	96	4
NMTAP	59	192	3
NMTAP	59	192	4
NMTAP	60	0	3
NMTAP	60	96	3
NMTAP	60	192	3
EXTAP	61	0	2
EXTAP	61	96	2
EXTAP	61	192	2
EXTAP	61	192	3
NMTAP	62	0	1
NMTAP	62	96	1
NMTAP	62	192	1
NMTAP	63	0	0
NMTAP	63	0	7
NMTAP	63	192	0
NMTAP	63	192	7
NMTAP	64	0	0
NMTAP	64	96	0
NMTAP	64	192	0
NMTAP	64	288	0
NMTAP	65	0	1
NMTAP	65	96	1
NMTAP	65	192	0
NMTAP	65	192	1
NMTAP	66	0	2
NMTAP	66	96	2
NMTAP	66	192	2
NMTAP	66	288	2
EXTAP	67	0	3
EXTAP	67	96	3
BXTAP	67	192	3
BXTAP	67	192	4
NMTAP	68	0	4
NMTAP	68	96	4
NMTAP	68	192	4
NMTAP	68	288	4
NMTAP	69	0	5
NMTAP	69	96	5
NMTAP	69	192	4
NMTAP	69	192	5
NMTAP	70	0	6
NMTAP	70	96	6
NMTAP	70	192	6
NMTAP	70	288	6
BRTAP	71	0	0
BRTAP	71	0	7
NMTAP	72	0	7
NMTAP	72	96	7
NMTAP	72	192	7
NMTAP	72	288	7
NMTAP	73	0	6
NMTAP	73	0	7
NMTAP	73	96	6
NMTAP	73	96	7
NMTAP	73	192	6
NMTAP	73	192	7
NMTAP	74	0	5
NMTAP	74	96	5
NMTAP	74	192	5
NMTAP	74	288	5
NMTAP	75	0	3
NMTAP	75	0	4
NMTAP	75	96	3
NMTAP	75	96	4
NMTAP	75	192	3
NMTAP	75	192	4
NMTAP	76	0	3
NMTAP	76	96	3
NMTAP	76	192	3
NMTAP	76	288	3
NMTAP	77	0	2
NMTAP	77	0	3
NMTAP	77	96	2
NMTAP	77	96	3
NMTAP	77	192	2
NMTAP	77	192	3
NMTAP	78	0	1
NMTAP	78	96	1
NMTAP	78	192	1
NMTAP	78	288	1
BXTAP	79	0	0
BXTAP	79	0	7
NMHLD	80	0	0	192
NMHLD	80	0	1	192
NMHLD	81	0	2	192
NMHLD	81	0	3	192
NMHLD	82	0	4	192
NMHLD	82	0	5	192
NMHLD	83	0	6	192
NMHLD	83	0	7	192
NMTAP	84	0	7
NMTAP	84	96	7
NMTAP	84	192	6
NMTAP	84	288	6
NMTAP	85	0	5
NMTAP	85	96	5
NMTAP	85	192	4
NMTAP	85	192	5
NMTAP	86	0	3
NMTAP	86	96	3
NMTAP	86	192	2
NMTAP	86	288	2
NMTAP	87	0	1
NMTAP	87	96	1
NMTAP	87	192	0
NMTAP	87	192	1
NMSTR	88	0	7
NMSI_	88	0	7	96	384	3

T_REC_TAP	164
T_REC_BRK	2
T_REC_XTP	15
T_REC_BXX	5
T_REC_HLD	10
T_REC_XHO	2
T_REC_BHO	0
T_REC_BXH	0
T_REC_STR	5
T_REC_BST	0
T_REC_XST	0
T_REC_XBS	0
T_REC_TTP	14
T_REC_THO	1
T_REC_SLD	5
T_REC_BSL	0
T_REC_ALL	223
T_NUM_TAP	198
T_NUM_BRK	7
T_NUM_HLD	13
T_NUM_SLD	5
T_NUM_ALL	223
T_JUDGE_TAP	205
T_JUDGE_HLD	72
T_JUDGE_SLD	5
T_JUDGE_ALL	282
TTM_EACHPAIRS	38
TTM_SCR_TAP	99000
TTM_SCR_BRK	18200
TTM_SCR_HLD	13000
TTM_SCR_SLD	7500
TTM_SCR_ALL	137700
TTM_SCR_S	132900
TTM_SCR_SS	137000
TTM_RAT_ACV	10051

