VERSION	0.00.00	1.05.00
FES_MODE	0
BPM_DEF	174.000	174.000	174.000	174.000
MET_DEF	4	4
RESOLUTION	384
CLK_DEF	384
COMPATIBLE_CODE	MA2

BPM	0	0	174.000
MET	0	0	4	4

NMHLD	2	0	2	192
NMHLD	2	0	6	576
NMHLD	3	0	4	576
NMHLD	4	0	3	576
NMHLD	5	0	1	576
NMHLD	6	0	7	576
NMHLD	7	0	5	576
NMHLD	8	0	3	720
EXHLD	9	144	4	384
NMTAP	10	144	3
NMTAP	10	216	4
NMTAP	10	288	3
NMTAP	10	360	4
NMTAP	11	48	3
EXTAP	11	144	3
EXTAP	11	144	4
NMTAP	11	288	4
NMSTR	11	288	5
NMSI_	11	288	5	96	48	1
NMTAP	12	0	3
NMTAP	12	96	2
NMTAP	12	144	2
NMTAP	12	240	1
NMSTR	12	288	1
NMSCR	12	288	1	96	48	2
NMTAP	12	288	3
CNSI_	13	48	2	0	48	4
NMHLD	13	48	5	144
NMTAP	13	192	4
NMTAP	13	288	4
NMTAP	13	288	5
NMTAP	14	0	2
NMHLD	14	0	3	96
NMTAP	14	96	1
NMTAP	14	144	1
NMTAP	14	240	2
NMTAP	14	240	4
NMTAP	14	288	2
NMSTR	14	288	4
NMSCR	14	288	4	96	96	7
NMTAP	15	0	3
NMTAP	15	48	3
NMTAP	15	144	4
NMHLD	15	192	4	96
NMTAP	15	192	7
NMTAP	15	288	6
NMTAP	16	0	4
NMTAP	16	0	6
NMTAP	16	96	3
NMTAP	16	96	4
NMTAP	16	144	3
NMTAP	16	144	4
NMTAP	16	240	1
NMHLD	16	288	1	96
NMSTR	17	0	3
NMSI_	17	0	3	96	48	5
NMSTR	17	96	1
NMSI_	17	96	1	96	48	3
NMHLD	17	192	6	96
NMTAP	17	288	4
NMTAP	18	0	4
NMTAP	18	0	5
NMTAP	18	96	1
NMTAP	18	96	3
NMTAP	18	144	1
NMTAP	18	144	3
NMTAP	18	240	2
NMTAP	18	264	3
NMTAP	18	288	2
NMTAP	18	336	3
NMTAP	18	336	4
NMTAP	19	0	4
NMTAP	19	0	5
NMTAP	19	48	6
NMTAP	19	72	7
NMTAP	19	96	6
NMHLD	19	144	0	144
NMTTP	19	288	4	E	0	M1
NMTTP	19	288	4	A	0	M1
NMTTP	19	288	5	E	0	M1
NMTAP	20	0	1
NMTAP	20	0	3
NMTAP	20	96	1
NMTAP	20	144	0
NMTAP	20	144	7
NMTAP	20	240	6
NMTAP	20	264	7
NMTAP	20	288	6
NMHLD	20	336	5	96
NMTAP	21	48	6
NMTAP	21	96	7
NMTAP	21	144	0
NMTAP	21	144	7
NMTAP	21	192	1
NMTAP	21	216	0
NMTAP	21	240	1
NMHLD	21	288	2	96
NMTAP	22	0	1
NMTAP	22	48	0
NMTAP	22	96	7
NMTAP	22	144	0
NMTAP	22	144	6
NMSTR	22	240	1
NMSI_	22	240	1	96	48	5
NMTAP	22	336	1
NMTAP	22	336	7
NMTAP	23	48	6
NMTAP	23	72	7
NMTAP	23	96	6
NMTAP	23	144	1
NMTAP	23	168	0
NMTAP	23	192	1
NMTAP	23	240	2
NMTAP	23	240	3
EXTAP	23	288	1
EXTAP	23	288	4
NMTAP	23	336	2
NMTAP	24	0	2
NMTAP	24	0	3
NMTAP	24	48	6
NMTAP	24	72	7
EXTAP	24	96	6
NMTAP	24	144	5
NMTAP	24	192	4
NMTAP	24	192	5
NMTAP	24	240	1
NMTAP	24	264	0
EXTAP	24	288	1
NMTAP	24	336	2
NMTAP	25	0	2
NMTAP	25	0	3
EXTAP	25	48	6
NMTAP	25	72	7
NMTAP	25	96	6
EXTAP	25	144	3
NMTAP	25	168	4
NMTAP	25	192	3
EXTAP	25	240	2
EXTAP	25	240	5
EXTAP	25	288	1
EXTAP	25	288	6
EXTAP	25	336	0
EXTAP	25	336	7
EXTAP	26	48	6
EXTAP	26	48	7
EXTAP	26	96	0
EXTAP	26	96	1
EXTAP	26	144	2
EXTAP	26	144	3
EXTAP	26	192	4
EXTAP	26	192	5
EXTAP	26	240	6
EXTAP	26	240	7
EXTAP	26	288	0
EXTAP	26	288	1
EXTAP	26	336	2
EXTAP	26	336	3
BXTAP	27	0	4
BXTAP	27	0	5
NMTAP	27	144	2
NMTAP	27	144	6
NMHLD	27	192	2	96
EXTAP	27	240	0
EXTAP	27	288	0
NMTAP	28	0	2
NMTAP	28	0	3
NMTAP	28	48	2
NMTAP	28	48	3
NMTAP	28	144	0
NMTAP	28	144	1
NMTAP	28	192	2
NMTAP	28	240	3
NMTAP	28	240	4
NMTAP	28	288	5
NMTAP	28	336	0
NMSTR	28	336	7
NMSI_	28	336	7	96	48	3
NMTAP	29	48	2
NMTAP	29	96	2
BRTAP	29	192	0
BRTAP	29	192	6
NMTAP	30	0	2
NMTAP	30	0	4
NMHLD	30	96	5	72
NMTAP	30	168	4
NMTAP	30	216	5
NMTAP	30	240	4
NMHLD	30	288	6	72
NMTAP	30	360	4
NMTAP	31	24	6
NMTAP	31	48	4
NMHLD	31	96	5	72
NMTAP	31	168	4
NMTAP	31	216	5
NMTAP	31	240	4
NMTAP	31	288	3
NMTAP	31	288	6
NMTAP	32	0	2
NMTAP	32	0	4
NMHLD	32	96	2	72
NMTAP	32	168	3
NMTAP	32	216	2
NMTAP	32	240	3
NMTAP	32	288	1
NMTAP	33	0	1
NMTAP	33	0	3
NMTAP	33	48	1
NMTAP	33	48	3
NMTAP	33	96	2
NMSTR	33	144	2
NMSI_	33	144	2	96	48	6
NMTAP	33	240	4
NMTAP	33	288	4
NMTAP	34	0	4
NMTAP	34	0	5
NMHLD	34	96	6	72
NMTAP	34	168	7
NMTAP	34	216	6
NMTAP	34	240	7
NMHLD	34	288	5	72
NMTAP	34	360	7
NMTAP	35	24	5
NMTAP	35	48	7
NMHLD	35	96	4	72
NMTAP	35	168	7
NMTAP	35	216	4
NMTAP	35	240	7
NMTAP	35	288	3
NMTAP	35	288	7
NMTAP	36	0	0
NMTAP	36	0	3
NMTAP	36	48	1
NMHLD	36	96	1	72
NMTAP	36	168	0
NMTAP	36	216	1
NMTAP	36	240	0
NMTAP	36	288	1
NMTAP	36	336	2
NMTAP	36	336	7
NMTAP	37	0	6
NMSTR	37	48	6
NMSF_	37	48	6	96	48	2
NMTAP	37	144	6
NMTAP	37	240	0
NMTAP	37	240	4
BRTAP	37	288	0
BRTAP	37	288	4
NMSTR	38	0	1
NMSCR	38	0	1	96	192	4
NMSTR	38	192	4
NMSCR	38	192	4	96	192	7
NMSTR	39	0	7
NMSUR	39	0	7	96	192	3
NMSTR	39	192	3
NMSXR	39	192	3	96	384	0
NMSTR	40	192	0
NMSLR	40	192	0	96	288	7
NMSTR	41	0	3
NMSI_	41	0	3	96	96	6
NMTAP	41	288	6
NMTAP	41	288	7
NMSTR	42	0	4
NMSI_	42	0	4	96	48	1
NMTAP	42	0	5
NMTAP	42	48	4
NMTAP	42	48	5
NMSTR	42	192	3
NMSI_	42	192	3	96	48	6
NMTAP	42	240	2
NMTAP	42	240	3
NMSTR	43	0	4
NMSI_	43	0	4	96	48	1
NMTAP	43	48	4
NMTAP	43	48	5
NMSTR	43	192	3
NMSI_	43	192	3	96	48	6
NMTAP	43	240	2
NMTAP	43	240	3
EXTAP	43	288	1
EXTAP	43	320	1
EXTAP	43	352	1
NMSTR	44	0	7
NMSI_	44	0	7	96	24	5
NMSTR	44	96	1
NMSI_	44	96	1	96	48	3
NMTAP	44	96	7
NMSTR	44	192	0
NMSI_	44	192	0	96	48	4
NMTAP	44	192	1
NMTAP	44	288	0
EXSTR	44	288	3
NMSCR	44	288	3	96	192	2
NMTTP	45	0	0	C	1	M1
NMHLD	45	192	7	288
NMHLD	46	0	5	96
NMHLD	46	144	4	96
NMHLD	46	144	6	96
NMHLD	46	288	3	96
NMHLD	46	288	5	96
NMHLD	47	48	4	96
NMHLD	47	48	6	96
NMSTR	47	192	5
NMSCL	47	192	5	96	48	2
NMSTR	47	192	7
NMSUL	47	192	7	96	48	3
EXTAP	48	0	2
EXTAP	48	0	3
NMTAP	48	96	0
NMTAP	48	96	4
NMTAP	48	144	1
NMTAP	48	144	5
NMTAP	48	192	2
NMTAP	48	192	6
NMTAP	48	240	3
NMTAP	48	240	7
NMTAP	48	288	0
NMTAP	48	288	4
NMTAP	48	336	3
NMTAP	48	336	7
BXTAP	49	0	2
BXTAP	49	0	6
BRTAP	49	96	0
BRTAP	49	96	7
NMTTP	49	192	0	C	1	M1
NMTTP	49	192	2	B	0	M1
NMTTP	49	192	3	B	0	M1
NMTTP	49	192	4	B	0	M1
NMTTP	49	192	5	B	0	M1
NMHLD	50	0	2	960
NMTTP	50	192	4	E	0	M1
NMTTP	50	192	4	D	0	M1
NMTTP	51	0	3	E	0	M1
NMTTP	51	0	3	D	0	M1
NMTTP	51	192	2	E	0	M1
NMTTP	51	192	2	D	0	M1
NMTTP	52	0	1	E	0	M1
NMTTP	52	0	1	D	0	M1
NMTTP	52	192	2	E	0	M1
NMTTP	52	192	2	D	0	M1
NMTTP	53	0	1	E	0	M1
NMTTP	53	0	1	D	0	M1
NMTTP	53	0	3	E	0	M1
NMTTP	53	0	3	D	0	M1
NMTTP	53	192	0	E	0	M1
NMTTP	53	192	0	D	0	M1
NMTTP	53	192	4	E	0	M1
NMTTP	53	192	4	D	0	M1
NMHLD	54	0	5	960
NMTTP	54	0	7	E	0	M1
NMTTP	54	0	7	D	0	M1
NMTTP	54	192	6	E	0	M1
NMTTP	54	192	6	D	0	M1
NMTTP	55	0	5	E	0	M1
NMTTP	55	0	5	D	0	M1
NMTTP	55	192	4	E	0	M1
NMTTP	55	192	4	D	0	M1
NMTTP	56	0	3	E	0	M1
NMTTP	56	0	3	D	0	M1
NMSTR	56	192	1
NMSCL	56	192	1	96	192	5
NMSTR	57	0	5
NMSCL	57	0	5	96	192	1
NMTAP	57	192	7
NMTAP	58	0	2
NMTAP	58	0	6
NMTAP	58	96	4
NMTAP	58	96	6
NMTAP	58	192	5
NMHLD	58	192	6	96
NMTAP	58	288	7
NMTAP	58	336	7
NMSTR	59	0	7
NMSUR	59	0	7	96	96	5
NMTAP	59	96	5
NMTAP	59	192	6
NMTAP	59	288	6
NMTAP	59	288	7
NMTAP	60	0	0
NMTAP	60	0	7
NMTAP	60	96	0
NMTAP	60	96	1
NMTAP	60	192	2
NMSTR	60	192	3
NMSCR	60	192	3	96	96	6
NMTAP	60	288	0
NMHLD	61	0	7	72
NMHLD	61	72	6	72
NMTAP	61	144	4
NMTAP	61	192	4
EXTAP	61	288	2
EXTAP	61	288	6
NMTAP	62	0	2
NMHLD	62	0	4	96
EXTAP	62	96	7
NMHLD	62	192	3	96
NMTAP	62	192	5
EXTAP	62	288	0
NMHLD	63	0	4	96
EXTAP	63	48	7
NMHLD	63	96	3	96
EXTAP	63	144	0
NMHLD	63	192	4	96
EXTAP	63	240	7
EXTAP	63	288	0
EXSTR	63	336	0
NMSCR	63	336	0	96	144	6
EXTAP	64	48	5
EXTAP	64	96	6
EXTAP	64	144	7
EXTAP	64	192	0
EXHLD	64	240	0	96
EXTAP	64	288	7
BXTAP	64	336	7
NMTAP	65	48	0
NMTAP	65	48	1
NMSTR	65	96	0
NMSI_	65	96	0	96	48	4
NMSTR	65	96	1
NMSI_	65	96	1	96	48	5
NMTAP	65	192	0
NMTAP	65	192	1
BRTAP	65	288	3
BRTAP	65	288	6
NMSTR	66	0	5
NMSI_	66	0	5	96	48	1
NMSTR	66	48	4
NMSI_	66	48	4	96	48	2
NMSTR	66	96	5
NMSI_	66	96	5	96	48	7
NMSTR	66	144	4
NMSI_	66	144	4	96	48	0
NMTAP	66	192	5
NMTAP	66	240	4
NMTAP	66	288	6
NMTAP	66	336	1
NMTAP	66	360	2
NMTAP	67	0	3
NMTAP	67	48	6
NMTAP	67	72	5
NMTAP	67	96	4
NMTAP	67	144	2
NMTAP	67	168	3
NMSTR	67	192	4
NMSI_	67	192	4	96	48	0
NMTAP	67	192	6
NMTAP	67	288	0
NMTAP	68	0	7
NMTAP	68	48	7
NMHLD	68	96	1	192
NMTAP	68	144	2
NMTAP	68	192	3
NMTAP	68	240	4
NMHLD	68	288	5	192
NMTAP	68	336	6
EXTAP	69	0	7
NMTTP	69	48	0	D	0	M1
NMTTP	69	60	0	A	0	M1
NMTTP	69	72	1	D	0	M1
NMTTP	69	84	1	A	0	M1
NMTTP	69	96	2	D	0	M1
NMTTP	69	144	5	D	0	M1
NMTTP	69	156	4	A	0	M1
NMTTP	69	168	4	D	0	M1
NMTTP	69	180	3	A	0	M1
NMTTP	69	192	3	D	0	M1
EXTAP	69	240	0
EXTAP	69	288	0
NMTAP	70	0	2
NMTAP	70	0	6
NMTAP	70	48	2
NMTAP	70	48	6
NMTAP	70	96	5
NMTAP	70	120	3
NMTAP	70	144	4
NMTAP	70	168	2
NMHLD	70	192	3	72
NMTAP	70	264	2
NMTAP	70	288	2
NMTAP	70	336	1
NMTAP	70	336	3
NMSTR	71	0	0
NMSI_	71	0	0	96	48	4
NMTAP	71	24	3
EXTAP	71	48	0
NMTAP	71	96	5
EXTAP	71	144	6
NMSTR	71	192	7
NMSI_	71	192	7	96	48	3
NMTAP	71	216	4
NMTAP	71	240	7
NMTAP	71	288	3
EXTAP	72	0	2
EXTAP	72	0	3
NMTAP	72	48	1
NMTAP	72	72	0
EXTAP	72	96	1
EXTAP	72	144	6
NMTAP	72	168	7
EXTAP	72	192	6
EXTAP	72	240	1
NMTAP	72	264	0
EXTAP	72	288	2
NMTAP	72	336	1
NMTAP	72	336	7
NMTAP	73	0	0
NMTAP	73	16	7
NMTAP	73	32	6
NMTAP	73	48	5
NMTAP	73	64	4
NMTAP	73	80	3
NMTAP	73	96	2
NMTAP	73	192	1
NMTAP	73	192	6
EXTAP	73	240	7
EXTAP	73	264	0
EXTAP	73	288	7
NMSTR	74	0	2
NMSI_	74	0	2	96	48	6
NMSTR	74	48	3
NMSI_	74	48	3	96	48	5
NMSTR	74	96	2
NMSI_	74	96	2	96	48	0
NMSTR	74	144	3
NMSI_	74	144	3	96	48	7
NMTAP	74	192	2
NMTAP	74	240	3
NMTAP	74	288	1
NMTAP	74	336	6
NMTAP	74	360	5
NMTAP	75	0	4
NMTAP	75	48	1
NMTAP	75	72	2
NMTAP	75	96	3
NMTAP	75	144	5
NMTAP	75	168	4
NMTAP	75	192	1
NMHLD	75	192	3	96
EXTAP	75	240	7
EXTAP	75	288	7
NMTAP	76	0	1
NMTAP	76	0	3
NMTAP	76	48	2
NMTAP	76	96	3
NMTAP	76	96	5
NMTAP	76	144	4
NMSTR	76	192	5
NMSCL	76	192	5	96	48	2
NMTAP	76	240	3
NMTAP	76	288	1
NMTAP	76	304	0
NMTAP	76	320	7
NMTAP	76	336	6
BXTAP	77	0	2
BXTAP	77	0	6
NMTTP	77	48	3	A	0	M1
NMTTP	77	48	7	A	0	M1
NMTTP	77	60	0	D	0	M1
NMTTP	77	60	4	D	0	M1
NMTTP	77	72	0	A	0	M1
NMTTP	77	72	4	A	0	M1
NMTTP	77	84	1	D	0	M1
NMTTP	77	84	5	D	0	M1
NMTTP	77	96	1	A	0	M1
NMTTP	77	96	5	A	0	M1
NMHLD	77	192	6	96
BXTAP	77	240	7
BXTAP	77	288	7
NMTAP	78	0	4
NMTAP	78	0	5
NMTAP	78	48	2
NMTAP	78	48	3
NMTAP	78	96	1
NMTAP	78	120	7
NMTAP	78	144	0
NMTAP	78	168	6
NMTAP	78	192	7
NMTAP	78	240	6
NMTAP	78	240	7
NMTAP	78	288	0
NMTAP	78	288	5
NMTAP	78	336	1
NMTAP	78	336	4
NMTAP	79	0	2
NMTAP	79	24	3
NMTAP	79	48	1
NMTAP	79	72	3
NMTAP	79	96	0
NMTAP	79	144	5
NMTAP	79	168	4
NMTAP	79	192	6
NMTAP	79	216	4
NMTAP	79	240	7
NMSTR	79	288	1
NMSI_	79	288	1	96	48	4
NMTAP	79	312	0
NMTAP	79	336	2
NMTAP	79	360	7
EXTAP	80	0	1
EXTAP	80	96	5
NMTAP	80	120	4
EXTAP	80	144	5
NMTAP	80	168	4
EXTAP	80	192	6
NMTAP	80	216	4
EXTAP	80	240	7
NMTAP	80	264	4
EXTAP	80	288	0
NMTAP	80	312	4
EXTAP	80	336	1
NMTAP	81	0	1
NMTAP	81	16	0
NMTAP	81	32	7
NMTAP	81	48	6
NMTAP	81	64	5
NMTAP	81	80	4
NMTAP	81	96	3
EXTAP	81	144	3
EXTAP	81	144	7
EXSTR	81	192	3
BRSI_	81	192	3	96	48	6
EXSTR	81	192	7
BRSI_	81	192	7	96	48	2
EXTAP	81	288	3
EXTAP	81	288	7
NMSTR	82	0	1
NMSI_	82	0	1	96	48	3
NMTAP	82	48	4
NMSTR	82	96	1
NMSI_	82	96	1	96	48	7
NMTAP	82	144	5
NMSTR	82	192	1
NMSV_	82	192	1	96	48	4
NMTAP	82	240	6
NMSTR	82	288	1
NMSCL	82	288	1	96	192	2
NMTAP	82	336	7
EXTAP	83	0	1
NMTTP	83	96	6	E	0	M1
NMTTP	83	192	4	E	0	M1
NMTAP	83	288	1
NMTAP	83	288	3
NMSTR	84	0	0
NMSI_	84	0	0	96	48	6
NMTAP	84	48	0
NMSTR	84	96	5
NMSI_	84	96	5	96	48	1
NMTAP	84	144	5
NMSTR	84	192	2
NMSI_	84	192	2	96	48	4
NMTAP	84	240	2
NMSTR	84	288	7
NMSI_	84	288	7	96	48	1
NMTAP	84	336	7
NMTTP	85	0	3	E	0	M1
CNSI_	85	48	1	0	48	5
CNSI_	85	96	5	0	96	3
NMTTP	85	96	6	B	0	M1
NMTTP	85	192	0	E	0	M1
NMTTP	85	192	0	A	0	M1
NMTTP	85	192	1	E	0	M1
EXTAP	85	288	1
EXTAP	85	288	5
NMSTR	86	0	6
NMSI_	86	0	6	96	48	2
NMTAP	86	48	2
NMTAP	86	72	2
NMSTR	86	96	6
NMSCR	86	96	6	96	48	1
NMTAP	86	144	1
NMTAP	86	168	1
NMSTR	86	192	6
NMSCL	86	192	6	96	48	3
NMTAP	86	240	3
NMTAP	86	264	3
NMTAP	86	288	6
NMTAP	87	0	2
EXTAP	87	48	2
EXTAP	87	48	3
EXTAP	87	144	0
EXTAP	87	144	4
EXSTR	87	192	0
NMSI_	87	192	0	96	48	2
EXSTR	87	192	4
NMSI_	87	192	4	96	48	6
NMTAP	87	288	0
NMTAP	87	288	4
NMTAP	88	0	3
NMTAP	88	0	7
NMTAP	88	48	2
NMTAP	88	48	6
EXTAP	88	96	1
EXTAP	88	96	5
EXTAP	88	144	0
EXSTR	88	144	4
NMSI_	88	144	4	96	48	0
NMSTR	88	240	2
NMSI_	88	240	2	96	48	6
EXTAP	88	240	4
EXTAP	88	336	2
NMHLD	89	48	0	96
NMTAP	89	144	7
NMTTP	89	192	0	B	0	M1
NMTTP	89	192	0	E	1	M1
NMTTP	89	192	1	B	0	M1
NMTTP	89	192	1	E	0	M1
NMTTP	89	192	1	A	0	M1
NMTTP	89	192	6	B	0	M1
NMTTP	89	192	6	A	0	M1
NMTTP	89	192	7	B	0	M1
NMTTP	89	192	7	E	0	M1
EXHLD	90	0	0	576
EXSTR	90	0	6
NMSCL	90	0	6	96	192	2
NMSTR	91	0	1
NMSUR	91	0	1	96	192	2
EXHLD	91	288	1	192
NMTAP	92	0	2
NMSTR	92	96	2
NMSI_	92	96	2	96	48	5
NMTAP	92	192	0
NMTAP	92	192	2
NMHLD	93	0	6	96
NMSTR	93	96	5
NMSI_	93	96	5	96	48	2
NMTAP	93	192	5
NMTAP	93	192	7
EXTAP	93	240	6
EXTAP	93	264	6
EXTAP	93	288	6
NMTAP	94	0	1
NMTAP	94	0	5
NMTAP	94	48	0
NMTAP	94	96	6
NMTAP	94	144	0
NMTAP	94	144	7
NMSTR	94	192	1
NMSI_	94	192	1	96	48	4
NMSTR	94	240	0
NMSI_	94	240	0	96	48	5
NMTAP	94	288	1
NMTAP	94	336	0
NMTAP	95	0	2
NMTAP	95	48	2
NMTAP	95	96	6
NMTAP	95	144	6
NMTAP	95	192	0
NMTAP	95	240	0
NMTAP	95	288	1
NMTAP	95	288	4
NMTAP	95	336	1
NMTAP	95	360	3
EXTAP	96	0	2
NMTAP	96	48	6
NMTAP	96	72	4
EXTAP	96	96	5
EXTAP	96	144	3
EXTAP	96	144	4
EXTAP	96	192	2
EXTAP	96	192	3
EXTAP	96	240	1
EXTAP	96	240	2
EXTAP	96	288	0
EXTAP	96	288	1
BXSTR	96	336	0
BRSSL	96	336	0	96	48	4
BXSTR	96	336	7
BRSSR	96	336	7	96	48	3
BRTAP	97	48	0
BRTAP	97	48	7
BRTAP	97	144	2
BRTAP	97	144	5
BRHLD	97	192	2	96
BRHLD	97	192	5	96
NMHLD	98	0	3	192
NMHLD	98	192	2	192
NMHLD	99	0	1	192
NMHLD	99	192	0	912
NMSTR	100	0	2
NMSUL	100	0	2	96	192	5
EXHLD	101	0	7	336

T_REC_TAP	379
T_REC_BRK	12
T_REC_XTP	101
T_REC_BXX	9
T_REC_HLD	54
T_REC_XHO	5
T_REC_BHO	2
T_REC_BXH	0
T_REC_STR	61
T_REC_BST	0
T_REC_XST	8
T_REC_XBS	2
T_REC_TTP	73
T_REC_THO	0
T_REC_SLD	67
T_REC_BSL	4
T_REC_ALL	777
T_NUM_TAP	622
T_NUM_BRK	29
T_NUM_HLD	59
T_NUM_SLD	67
T_NUM_ALL	777
T_JUDGE_TAP	645
T_JUDGE_HLD	289
T_JUDGE_SLD	71
T_JUDGE_ALL	1005
TTM_EACHPAIRS	136
TTM_SCR_TAP	311000
TTM_SCR_BRK	75400
TTM_SCR_HLD	59000
TTM_SCR_SLD	100500
TTM_SCR_ALL	545900
TTM_SCR_S	526750
TTM_SCR_SS	543000
TTM_RAT_ACV	10053

