VERSION	0.00.00	1.05.00
FES_MODE	0
BPM_DEF	174.000	174.000	174.000	174.000
MET_DEF	4	4
RESOLUTION	384
CLK_DEF	384
COMPATIBLE_CODE	MA2

BPM	0	0	174.000
MET	0	0	4	4

NMTAP	2	0	4
NMTAP	2	192	3
NMHLD	3	0	2	768
NMTAP	4	0	4
NMTAP	4	192	5
NMHLD	5	0	6	768
NMTAP	6	0	2
NMTAP	6	192	1
NMHLD	7	0	0	1728
NMSTR	8	0	3
NMSUR	8	0	3	96	672	4
NMTAP	11	288	1
NMTAP	11	288	7
NMTAP	12	0	1
NMTAP	12	0	7
NMTAP	12	96	6
NMTAP	12	144	6
NMSTR	12	192	4
NMSI_	12	192	4	96	96	0
NMTAP	13	48	7
NMHLD	13	96	7	96
NMHLD	13	192	5	96
NMTAP	13	288	4
NMTAP	14	0	2
NMTAP	14	96	1
NMTAP	14	144	1
NMSTR	14	192	3
NMSI_	14	192	3	96	96	7
NMTAP	15	48	0
NMHLD	15	96	0	96
NMTAP	15	192	6
NMTAP	15	240	6
NMTAP	15	288	4
NMTAP	16	0	6
NMTAP	16	0	7
NMTAP	16	96	4
NMTAP	16	96	5
NMTAP	16	192	2
NMTAP	16	192	3
NMTAP	16	288	0
NMTAP	16	288	1
NMTAP	17	0	0
NMTAP	17	0	1
NMTAP	17	96	2
NMTAP	17	96	3
NMTAP	17	192	4
NMTAP	17	192	5
NMTAP	17	288	6
NMTAP	17	288	7
NMHLD	18	0	5	96
NMTAP	18	96	7
NMHLD	18	144	7	96
NMHLD	18	240	0	96
NMTAP	18	336	2
NMTAP	19	0	2
NMTAP	19	96	3
NMTAP	19	96	4
NMTAP	19	144	3
NMTAP	19	144	4
NMTTP	19	288	4	E	0	M1
NMSTR	20	0	2
NMSCR	20	0	2	96	96	5
NMTAP	20	288	7
NMSTR	20	336	7
NMSCL	20	336	7	96	96	4
NMTAP	21	288	1
NMSTR	22	0	0
NMSCR	22	0	0	96	96	3
NMTAP	22	288	5
NMSTR	22	336	5
NMSCL	22	336	5	96	96	2
NMTTP	23	288	3	E	0	M1
NMHLD	24	0	1	192
NMTAP	24	96	3
NMHLD	24	192	5	192
NMTAP	24	288	3
NMTAP	25	0	2
NMHLD	25	48	2	96
NMHLD	25	144	3	96
NMTAP	25	240	1
NMTAP	25	288	1
NMTAP	26	0	0
NMTAP	26	0	1
NMTAP	26	96	7
NMTAP	26	144	6
NMTAP	26	192	5
NMTAP	26	240	4
NMTAP	26	288	3
NMTAP	26	336	2
NMHLD	27	0	1	144
NMTAP	27	144	7
NMTAP	27	192	7
BRTAP	27	288	2
BRTAP	27	288	6
NMTAP	28	0	7
NMHLD	28	48	7	96
NMTAP	28	144	4
NMTAP	28	192	4
NMTAP	28	240	6
NMTAP	28	288	2
NMSTR	28	336	4
NMSXL	28	336	4	96	192	3
BRTAP	29	288	2
NMHLD	30	0	1	48
NMHLD	30	0	3	48
NMHLD	30	144	2	48
NMHLD	30	144	4	48
NMHLD	30	288	3	48
NMHLD	30	288	5	48
NMTAP	31	48	4
NMTAP	31	48	6
NMTAP	31	144	7
NMHLD	31	192	7	96
NMTAP	31	288	5
NMHLD	32	0	4	48
NMHLD	32	0	6	48
NMHLD	32	144	3	48
NMHLD	32	144	5	48
NMHLD	32	288	2	48
NMHLD	32	288	4	48
NMTAP	33	48	1
NMTAP	33	48	3
NMTAP	33	144	0
NMSTR	33	192	0
NMSI_	33	192	0	96	48	3
NMHLD	34	0	4	48
NMHLD	34	0	6	48
NMHLD	34	144	5	48
NMHLD	34	144	7	48
NMHLD	34	288	0	48
NMHLD	34	288	6	48
NMTAP	35	48	1
NMTAP	35	48	7
NMTAP	35	144	2
NMHLD	35	192	2	96
NMTAP	35	288	0
NMHLD	36	0	1	48
NMHLD	36	0	7	48
NMHLD	36	144	0	48
NMHLD	36	144	6	48
NMHLD	36	288	5	48
NMHLD	36	288	7	48
NMTAP	37	48	4
NMTAP	37	48	6
NMTAP	37	144	3
NMTAP	37	192	3
NMSTR	37	288	2
NMSI_	37	288	2	96	192	5
NMTAP	37	288	4
CNSI_	38	192	5	0	192	1
CNSCL	39	0	1	0	192	6
NMSTR	40	0	6
NMSI_	40	0	6	96	192	1
CNSI_	40	288	1	0	192	5
CNSCL	41	96	5	0	192	2
NMTTP	42	0	1	E	0	M1
NMTTP	42	96	2	E	0	M1
NMTTP	42	192	3	E	0	M1
NMTTP	42	288	5	E	0	M1
NMTTP	43	0	6	E	0	M1
NMTTP	43	96	7	E	0	M1
NMTTP	43	192	3	E	0	M1
NMTTP	43	288	2	E	0	M1
NMTTP	44	0	1	E	0	M1
NMTTP	44	96	7	E	0	M1
NMTTP	44	192	6	E	0	M1
NMTTP	44	288	5	E	0	M1
NMTTP	45	0	0	C	1	M1
NMHLD	46	0	1	96
NMTAP	46	96	3
NMHLD	46	144	3	96
NMTAP	46	240	4
NMHLD	46	288	4	96
NMTAP	47	0	6
NMHLD	47	48	6	96
NMTAP	47	144	7
NMTAP	47	192	7
NMTAP	47	288	4
NMTAP	47	288	5
NMTAP	48	0	1
NMTAP	48	48	1
NMTAP	48	96	3
NMTAP	48	144	2
NMTAP	48	192	6
NMTAP	48	240	6
NMTAP	48	288	4
NMTAP	48	336	5
NMTAP	49	0	2
NMTAP	49	48	2
NMTAP	49	96	3
NMTAP	49	144	1
BRTAP	49	192	7
NMHLD	50	0	6	384
NMTAP	50	288	4
NMHLD	51	0	4	384
NMTAP	51	288	3
NMHLD	52	0	3	384
NMTAP	52	288	1
NMHLD	53	0	1	192
EXTAP	53	192	3
NMHLD	54	0	1	384
NMTAP	54	288	3
NMHLD	55	0	3	384
NMTAP	55	288	4
NMHLD	56	0	4	384
NMTAP	56	288	6
NMHLD	57	0	6	192
EXTAP	57	192	4
NMSTR	58	0	0
NMSCR	58	0	0	96	96	3
NMTAP	58	192	6
NMTAP	58	288	7
NMSTR	59	0	7
NMSCL	59	0	7	96	96	4
NMTAP	59	192	1
NMTAP	59	288	0
NMSTR	60	0	0
NMSCR	60	0	0	96	96	3
NMSTR	60	192	4
NMSCR	60	192	4	96	96	7
NMSTR	61	0	0
NMSI_	61	0	0	96	96	4
NMTAP	61	192	6
NMTAP	61	288	3
NMTAP	61	288	5
NMHLD	62	0	1	192
NMTAP	62	96	3
NMHLD	62	192	6	192
NMTAP	62	288	4
NMTAP	63	0	2
NMTAP	63	48	2
NMTAP	63	96	4
NMTAP	63	144	4
NMTAP	63	192	1
NMTAP	63	240	1
NMTAP	63	288	3
NMTAP	63	336	3
BRTAP	64	0	2
NMTAP	64	96	0
NMTAP	64	96	1
NMTAP	64	144	0
NMTAP	64	144	1
NMTAP	64	192	2
NMTAP	64	192	7
NMTAP	64	240	2
NMTAP	64	240	7
NMTAP	64	288	3
NMTAP	64	288	6
NMTAP	64	336	3
NMTAP	64	336	6
NMTAP	65	48	1
NMHLD	65	96	1	96
NMTAP	65	192	3
BRTAP	65	288	7
NMSTR	66	0	3
NMSI_	66	0	3	96	48	1
NMSTR	66	0	6
NMSI_	66	0	6	96	48	4
NMSTR	66	192	1
NMSCR	66	192	1	96	48	3
NMSTR	66	192	4
NMSCR	66	192	4	96	48	6
EXTAP	67	0	4
EXTAP	67	0	6
NMTAP	67	96	6
NMTAP	67	96	7
NMTAP	67	192	0
NMTAP	67	192	1
NMTAP	67	288	2
NMTAP	67	288	3
NMSTR	68	0	1
NMSI_	68	0	1	96	48	3
NMSTR	68	0	4
NMSI_	68	0	4	96	48	6
NMSTR	68	192	3
NMSCL	68	192	3	96	48	1
NMSTR	68	192	6
NMSCL	68	192	6	96	48	4
EXTAP	69	0	1
EXTAP	69	0	3
NMTAP	69	96	0
NMTAP	69	96	1
NMTAP	69	192	6
NMTAP	69	192	7
EXTAP	69	288	6
EXTAP	69	288	7
NMSTR	70	0	0
NMSI_	70	0	0	96	48	2
NMSTR	70	0	5
NMSI_	70	0	5	96	48	7
NMSTR	70	192	2
NMSCL	70	192	2	96	48	0
NMSTR	70	192	7
NMSCL	70	192	7	96	48	5
EXTAP	71	0	5
EXTAP	71	0	7
NMTAP	71	96	4
NMTAP	71	96	5
NMTAP	71	192	2
NMTAP	71	192	3
NMTAP	71	288	0
NMTAP	71	288	1
NMSTR	72	0	2
NMSI_	72	0	2	96	48	0
NMSTR	72	0	7
NMSI_	72	0	7	96	48	5
NMSTR	72	192	0
NMSCR	72	192	0	96	48	2
NMSTR	72	192	5
NMSCR	72	192	5	96	48	7
EXTAP	73	0	0
EXTAP	73	0	2
NMTAP	73	96	2
NMTAP	73	96	3
NMTAP	73	192	2
NMTAP	73	192	3
EXTAP	73	288	1
EXTAP	73	288	4
NMTAP	74	0	5
NMTAP	74	48	5
NMTAP	74	96	4
NMTAP	74	144	6
NMTAP	74	192	2
NMTAP	74	240	2
NMTAP	74	288	3
NMTAP	74	336	1
NMHLD	75	0	5	96
NMHLD	75	96	7	96
NMHLD	75	192	0	96
NMTAP	75	288	2
NMTAP	76	0	1
NMTAP	76	48	1
NMTAP	76	96	3
NMTAP	76	144	2
NMTAP	76	192	6
NMTAP	76	240	6
NMTAP	76	288	4
NMTAP	76	336	5
NMHLD	77	0	2	96
NMHLD	77	96	0	96
NMHLD	77	192	7	96
NMTAP	77	288	5
NMTAP	78	0	6
NMTAP	78	48	6
NMTAP	78	96	7
NMTAP	78	144	5
NMTAP	78	192	1
NMTAP	78	240	1
NMTAP	78	288	0
NMTAP	78	336	2
NMHLD	79	0	6	96
NMHLD	79	96	4	96
NMHLD	79	192	3	96
NMTAP	79	288	1
NMTAP	80	0	2
NMTAP	80	48	2
NMTAP	80	96	0
NMTAP	80	144	1
NMTAP	80	192	6
NMTAP	80	240	6
NMTAP	80	288	7
BXHLD	81	0	0	96
BXHLD	81	0	5	96
BRTAP	81	144	2
BRTAP	81	144	7
BRTAP	81	192	2
BRTAP	81	192	7
BRTAP	81	288	0
BRTAP	81	288	5
NMSTR	82	0	6
NMSI_	82	0	6	96	48	4
NMSTR	82	96	0
NMSI_	82	96	0	96	48	2
NMSTR	82	192	7
NMSI_	82	192	7	96	48	3
NMTAP	82	288	0
NMSTR	83	0	1
NMSI_	83	0	1	96	48	3
NMSTR	83	96	7
NMSI_	83	96	7	96	48	5
NMSTR	83	192	0
NMSI_	83	192	0	96	48	4
NMTAP	83	288	7
NMTAP	84	0	7
NMSTR	84	96	4
NMSUR	84	96	4	96	96	1
NMSTR	84	96	6
NMSCR	84	96	6	96	96	1
NMTAP	85	0	0
NMSTR	85	96	1
NMSUR	85	96	1	96	96	6
NMSTR	85	96	3
NMSCR	85	96	3	96	96	6
NMSTR	86	0	0
NMSI_	86	0	0	96	48	4
NMSTR	86	96	7
NMSI_	86	96	7	96	48	5
NMSTR	86	192	1
NMSI_	86	192	1	96	48	3
NMTAP	86	288	7
NMSTR	87	0	7
NMSI_	87	0	7	96	48	3
NMSTR	87	96	0
NMSI_	87	96	0	96	48	2
NMSTR	87	192	6
NMSI_	87	192	6	96	48	4
NMTAP	87	288	0
NMHLD	88	0	1	96
NMTAP	88	96	3
NMTAP	88	144	3
NMTAP	88	240	4
NMTAP	88	240	6
NMTAP	88	336	0
NMTAP	88	336	7
NMHLD	89	48	6	96
NMTAP	89	144	4
NMSTR	89	192	4
NMSI_	89	192	4	96	48	0
NMHLD	90	0	7	384
NMTTP	90	192	4	B	0	M1
NMTTP	90	192	5	B	0	M1
NMTTP	90	192	5	E	0	M1
NMHLD	91	0	0	384
NMTTP	91	192	2	B	0	M1
NMTTP	91	192	3	B	0	M1
NMTTP	91	192	3	E	0	M1
NMHLD	92	0	7	384
NMTTP	92	192	4	B	0	M1
NMTTP	92	192	5	B	0	M1
NMTTP	92	192	5	E	0	M1
NMTAP	93	0	1
NMTAP	93	96	1
NMTAP	93	192	2
NMTAP	93	192	3
BRTAP	93	288	7
NMSTR	94	0	7
NMSCL	94	0	7	96	96	4
NMSTR	94	192	0
NMSCR	94	192	0	96	96	3
NMHLD	95	0	5	96
NMHLD	95	96	7	96
NMHLD	95	192	0	96
NMTAP	95	288	2
NMTAP	96	0	0
NMTAP	96	48	7
NMTAP	96	96	6
NMTAP	96	144	5
NMTAP	96	192	4
NMTAP	96	240	3
NMTAP	96	288	2
NMHLD	96	336	1	96
NMTAP	97	48	0
NMTAP	97	144	2
NMTAP	97	144	7
NMTAP	97	192	2
NMTAP	97	192	7
NMTTP	97	288	0	C	0	M1
NMTTP	97	288	4	B	0	M1
NMTTP	97	288	5	B	0	M1
NMTTP	97	288	5	E	1	M1
NMTTP	97	288	6	B	0	M1
NMTTP	97	288	6	E	0	M1
EXSTR	98	0	7
NMSCL	98	0	7	96	480	0
EXSTR	100	0	0
NMSCR	100	0	0	96	480	7
BRHLD	100	0	6	768
NMTTP	102	0	0	C	0	M1

T_REC_TAP	223
T_REC_BRK	13
T_REC_XTP	14
T_REC_BXX	0
T_REC_HLD	74
T_REC_XHO	0
T_REC_BHO	1
T_REC_BXH	2
T_REC_STR	51
T_REC_BST	0
T_REC_XST	2
T_REC_XBS	0
T_REC_TTP	31
T_REC_THO	0
T_REC_SLD	53
T_REC_BSL	0
T_REC_ALL	464
T_NUM_TAP	321
T_NUM_BRK	16
T_NUM_HLD	74
T_NUM_SLD	53
T_NUM_ALL	464
T_JUDGE_TAP	334
T_JUDGE_HLD	273
T_JUDGE_SLD	53
T_JUDGE_ALL	660
TTM_EACHPAIRS	75
TTM_SCR_TAP	160500
TTM_SCR_BRK	41600
TTM_SCR_HLD	74000
TTM_SCR_SLD	79500
TTM_SCR_ALL	355600
TTM_SCR_S	343400
TTM_SCR_SS	354000
TTM_RAT_ACV	10045

