VERSION	0.00.00	1.05.00
FES_MODE	0
BPM_DEF	174.000	174.000	174.000	174.000
MET_DEF	4	4
RESOLUTION	384
CLK_DEF	384
COMPATIBLE_CODE	MA2

BPM	0	0	174.000
MET	0	0	4	4

EXSTR	2	0	1
NMSI_	2	0	1	96	288	4
NMSTR	4	0	6
NMSI_	4	0	6	96	288	3
NMSTR	6	0	1
NMSI_	6	0	1	96	288	5
NMSTR	8	0	7
NMSXR	8	0	7	96	768	3
NMTAP	12	0	3
NMTAP	12	96	3
NMTAP	12	192	2
NMTAP	13	0	1
NMTAP	13	96	1
NMTAP	13	192	0
NMTAP	14	0	7
NMTAP	14	96	7
NMTAP	14	192	6
NMTAP	15	0	5
NMTAP	15	96	5
NMTAP	15	192	4
NMTAP	15	192	5
NMTAP	16	0	4
NMTAP	16	96	4
NMTAP	16	192	5
NMTAP	17	0	6
NMTAP	17	96	6
NMTAP	17	192	7
NMTAP	18	0	0
NMTAP	18	96	0
NMTAP	18	192	1
NMTAP	19	0	2
NMTAP	19	0	3
NMTAP	19	192	2
NMTAP	19	192	3
NMTAP	20	0	2
NMTAP	20	96	2
NMTAP	20	192	2
NMTAP	20	192	3
NMTAP	21	0	1
NMTAP	21	96	1
NMTAP	21	192	0
NMTAP	21	192	1
NMTAP	22	0	7
NMTAP	22	96	7
NMTAP	22	192	6
NMTAP	22	192	7
NMTAP	23	0	4
NMTAP	23	0	5
NMTAP	23	96	4
NMTAP	23	96	5
NMTAP	23	192	4
NMTAP	23	192	5
NMTAP	24	0	5
NMTAP	24	96	5
NMTAP	24	192	4
NMTAP	24	192	5
NMTAP	25	0	6
NMTAP	25	96	6
NMTAP	25	192	6
NMTAP	25	192	7
NMTAP	26	0	0
NMTAP	26	96	0
NMTAP	26	192	0
NMTAP	26	192	1
NMTAP	27	0	2
NMTAP	27	0	3
NMTAP	27	96	2
NMTAP	27	96	3
NMTAP	27	192	2
NMTAP	27	192	3
NMTAP	28	0	4
NMTAP	28	0	5
NMTAP	28	96	4
NMTAP	28	96	5
NMTAP	28	192	4
NMTAP	28	192	5
NMTAP	29	0	2
NMTAP	29	0	3
NMTAP	29	96	2
NMTAP	29	96	3
NMTAP	29	192	2
NMTAP	29	192	3
NMTTP	30	0	1	B	0	L1
NMTTP	30	96	2	B	0	L1
NMTTP	30	192	3	B	0	L1
NMTTP	31	0	6	B	0	L1
NMTTP	31	96	5	B	0	L1
NMTTP	31	192	4	B	0	L1
NMTTP	32	0	1	B	0	L1
NMTTP	32	96	2	B	0	L1
NMTTP	32	192	3	B	0	L1
NMTTP	32	288	4	B	0	L1
NMTTP	33	0	0	C	0	L1
NMTTP	34	0	7	B	0	L1
NMTTP	34	96	6	B	0	L1
NMTTP	34	192	4	B	0	L1
NMTTP	34	192	5	B	0	L1
NMTTP	35	0	0	B	0	L1
NMTTP	35	96	1	B	0	L1
NMTTP	35	192	2	B	0	L1
NMTTP	35	192	3	B	0	L1
NMTTP	36	0	6	B	0	L1
NMTTP	36	96	5	B	0	L1
NMTTP	36	192	4	B	0	L1
NMTTP	36	288	3	B	0	L1
NMTTP	37	0	0	C	1	L1
NMTAP	38	0	7
NMTAP	38	96	7
NMTAP	38	192	7
NMTAP	39	0	6
NMTAP	39	0	7
NMTAP	39	96	6
NMTAP	39	96	7
NMTAP	39	192	6
NMTAP	39	192	7
NMTAP	40	0	5
NMTAP	40	96	5
NMTAP	40	192	5
NMTAP	41	0	4
NMTAP	41	0	5
NMTAP	41	96	4
NMTAP	41	96	5
NMTAP	41	192	4
NMTAP	41	192	5
NMTAP	42	0	3
NMTAP	42	96	3
NMTAP	42	192	3
NMTAP	43	0	2
NMTAP	43	0	3
NMTAP	43	96	2
NMTAP	43	96	3
NMTAP	43	192	2
NMTAP	43	192	3
NMTAP	44	0	1
NMTAP	44	96	1
NMTAP	44	192	1
NMTAP	45	0	0
NMTAP	45	0	1
NMTAP	45	96	0
NMTAP	45	96	1
NMTAP	45	192	0
NMTAP	45	192	1
NMTAP	46	0	0
NMTAP	46	96	0
NMTAP	46	192	1
NMTAP	46	288	1
NMTAP	47	0	2
NMTAP	47	96	2
NMTAP	47	192	3
NMTAP	47	192	4
NMTAP	48	0	4
NMTAP	48	96	4
NMTAP	48	192	5
NMTAP	48	288	5
NMTAP	49	0	6
NMTAP	49	96	6
NMTAP	49	192	0
NMTAP	49	192	7
NMSTR	50	0	1
NMSI_	50	0	1	96	288	4
NMTAP	51	192	5
NMSTR	52	0	6
NMSI_	52	0	6	96	288	2
NMTAP	53	192	1
NMSTR	54	0	0
NMSI_	54	0	0	96	288	4
NMSTR	56	0	6
NMSI_	56	0	6	96	288	3
NMTAP	57	192	2
NMTAP	57	192	3
NMHLD	58	0	2	192
NMHLD	58	192	3	192
NMHLD	59	0	4	192
NMTAP	59	192	5
NMHLD	60	0	5	192
NMHLD	60	192	4	192
NMHLD	61	0	3	192
NMTAP	61	192	2
NMHLD	62	0	1	192
NMHLD	62	192	2	192
NMHLD	63	0	3	192
NMTAP	63	192	4
NMHLD	64	0	6	192
NMHLD	64	192	5	192
NMHLD	65	0	4	192
NMTAP	65	192	3
NMTAP	66	0	5
NMTAP	66	96	5
NMTAP	66	192	6
NMTAP	66	192	7
NMTAP	66	288	6
NMTAP	66	288	7
NMTAP	67	0	0
NMTAP	67	96	0
NMTAP	67	192	0
NMTAP	67	192	1
NMTAP	68	0	2
NMTAP	68	96	2
NMTAP	68	192	0
NMTAP	68	192	1
NMTAP	68	288	0
NMTAP	68	288	1
NMTAP	69	0	7
NMTAP	69	96	7
NMTAP	69	192	6
NMTAP	69	192	7
NMTAP	70	0	6
NMTAP	70	96	6
NMTAP	70	192	4
NMTAP	70	192	5
NMTAP	70	288	4
NMTAP	70	288	5
NMTAP	71	0	3
NMTAP	71	96	3
NMTAP	71	192	2
NMTAP	71	192	3
NMTAP	72	0	1
NMTAP	72	96	1
NMTAP	72	192	2
NMTAP	72	192	3
NMTAP	72	288	2
NMTAP	72	288	3
NMTAP	73	0	4
NMTAP	73	96	4
BXTAP	73	192	4
BXTAP	73	192	5
NMTAP	74	0	5
NMTAP	74	48	5
NMTAP	74	96	5
NMTAP	74	192	6
NMTAP	74	192	7
NMTAP	74	288	6
NMTAP	74	288	7
NMTAP	75	0	0
NMTAP	75	48	0
NMTAP	75	96	0
NMTAP	75	192	0
NMTAP	75	192	1
NMTAP	76	0	2
NMTAP	76	48	2
NMTAP	76	96	2
NMTAP	76	192	0
NMTAP	76	192	1
NMTAP	76	288	0
NMTAP	76	288	1
NMTAP	77	0	7
NMTAP	77	48	7
NMTAP	77	96	7
NMTAP	77	192	6
NMTAP	77	192	7
NMTAP	78	0	6
NMTAP	78	48	6
NMTAP	78	96	6
NMTAP	78	192	4
NMTAP	78	192	5
NMTAP	78	288	4
NMTAP	78	288	5
NMTAP	79	0	3
NMTAP	79	48	3
NMTAP	79	96	3
NMTAP	79	192	2
NMTAP	79	192	3
NMTAP	80	0	1
NMTAP	80	48	1
NMTAP	80	96	1
NMTAP	80	192	2
NMTAP	80	192	3
NMTAP	80	288	2
NMTAP	80	288	3
NMTAP	81	0	4
NMTAP	81	48	4
NMTAP	81	96	4
NMTAP	81	192	4
NMTAP	81	192	5
NMTAP	82	0	5
NMTAP	82	48	5
NMTAP	82	96	5
NMTAP	82	192	6
NMTAP	82	192	7
NMTAP	82	288	6
NMTAP	82	288	7
NMTAP	83	0	0
NMTAP	83	0	5
NMTAP	83	96	1
NMTAP	83	96	4
NMTAP	83	192	2
NMTAP	83	192	3
NMTAP	84	0	2
NMTAP	84	48	2
NMTAP	84	96	2
NMTAP	84	192	0
NMTAP	84	192	1
NMTAP	84	288	0
NMTAP	84	288	1
NMTAP	85	0	2
NMTAP	85	0	7
NMTAP	85	96	3
NMTAP	85	96	6
NMTAP	85	192	4
NMTAP	85	192	5
NMTAP	86	0	6
NMTAP	86	48	6
NMTAP	86	96	6
NMTAP	86	192	4
NMTAP	86	192	5
NMTAP	86	288	4
NMTAP	86	288	5
NMTAP	87	0	3
NMTAP	87	0	6
NMTAP	87	96	2
NMTAP	87	96	7
NMTAP	87	192	0
NMTAP	87	192	1
NMTAP	88	0	1
NMTAP	88	48	1
NMTAP	88	96	1
NMTAP	88	192	2
NMTAP	88	192	3
NMTAP	88	288	2
NMTAP	88	288	3
NMTAP	89	0	1
NMTAP	89	0	4
NMTAP	89	96	0
NMTAP	89	96	5
NMTAP	89	192	6
NMTAP	89	192	7
NMHLD	90	0	6	192
NMTAP	90	192	7
NMHLD	91	0	5	192
NMTAP	91	192	4
NMHLD	92	0	2	192
NMTAP	92	192	3
NMHLD	93	0	1	192
NMTAP	93	192	0
NMTAP	94	0	1
NMTAP	94	96	1
NMTAP	94	192	0
NMTAP	94	192	1
NMTAP	94	288	0
NMTAP	94	288	1
NMTAP	95	0	2
NMTAP	95	96	2
NMTAP	95	192	2
NMTAP	95	192	3
NMTAP	95	288	2
NMTAP	95	288	3
NMTAP	96	0	4
NMTAP	96	96	4
NMTAP	96	192	4
NMTAP	96	192	5
NMTAP	96	288	4
NMTAP	96	288	5
NMTAP	97	0	6
NMTAP	97	0	7
NMTAP	97	96	6
NMTAP	97	96	7
BRTAP	97	192	6
BRTAP	97	192	7
NMSTR	98	0	6
NMSI_	98	0	6	96	288	3
NMSTR	98	0	7
NMSI_	98	0	7	96	288	2
NMTAP	99	192	1
NMTAP	100	0	0
NMTAP	100	0	1
NMTAP	100	192	0
NMTAP	100	192	7
NMSTR	101	0	0
NMSI_	101	0	0	96	288	3
NMSTR	101	0	7
NMSI_	101	0	7	96	288	4

T_REC_TAP	303
T_REC_BRK	2
T_REC_XTP	0
T_REC_BXX	2
T_REC_HLD	16
T_REC_XHO	0
T_REC_BHO	0
T_REC_BXH	0
T_REC_STR	11
T_REC_BST	0
T_REC_XST	1
T_REC_XBS	0
T_REC_TTP	24
T_REC_THO	0
T_REC_SLD	12
T_REC_BSL	0
T_REC_ALL	371
T_NUM_TAP	339
T_NUM_BRK	4
T_NUM_HLD	16
T_NUM_SLD	12
T_NUM_ALL	371
T_JUDGE_TAP	343
T_JUDGE_HLD	64
T_JUDGE_SLD	12
T_JUDGE_ALL	419
TTM_EACHPAIRS	93
TTM_SCR_TAP	169500
TTM_SCR_BRK	10400
TTM_SCR_HLD	16000
TTM_SCR_SLD	18000
TTM_SCR_ALL	213900
TTM_SCR_S	207100
TTM_SCR_SS	213500
TTM_RAT_ACV	10018

