VERSION	0.00.00	1.05.00
FES_MODE	0
BPM_DEF	174.000	174.000	174.000	174.000
MET_DEF	4	4
RESOLUTION	384
CLK_DEF	384
COMPATIBLE_CODE	MA2

BPM	0	0	174.000
MET	0	0	4	4

NMTAP	2	0	0
NMTAP	3	0	0
NMTAP	4	0	0
NMTAP	5	0	0
NMTAP	6	0	7
NMTAP	7	0	7
NMTAP	8	0	7
NMHLD	9	0	0	768
NMHLD	9	0	7	768
NMTAP	12	0	0
NMTAP	12	192	0
NMTAP	13	0	1
NMTAP	14	0	2
NMTAP	14	192	2
NMTAP	15	0	3
NMTAP	15	0	4
NMTAP	16	0	4
NMTAP	16	192	4
NMTAP	17	0	5
NMTAP	18	0	6
NMTAP	18	192	6
NMTAP	19	0	0
NMTAP	19	0	7
NMTAP	20	0	7
NMTAP	20	192	7
NMTAP	21	0	6
NMTAP	21	192	6
NMTAP	22	0	5
NMTAP	22	192	5
NMTAP	23	0	3
NMTAP	23	0	4
NMTAP	24	0	3
NMTAP	24	192	3
NMTAP	25	0	2
NMTAP	25	192	2
NMTAP	26	0	1
NMTAP	26	192	1
BXTAP	27	0	0
BXTAP	27	0	7
NMSTR	28	0	7
NMSI_	28	0	7	96	288	3
NMSTR	30	0	0
NMSI_	30	0	0	96	288	4
NMSTR	32	0	6
NMSI_	32	0	6	96	288	2
NMSTR	34	0	1
NMSI_	34	0	1	96	288	5
NMSTR	36	0	7
NMSI_	36	0	7	96	288	3
NMTAP	38	0	0
NMTAP	38	96	0
NMTAP	38	192	0
NMTAP	39	0	1
NMTAP	39	192	1
NMTAP	40	0	2
NMTAP	40	192	2
NMTAP	41	0	3
NMTAP	41	0	4
NMTAP	42	0	4
NMTAP	42	96	4
NMTAP	42	192	4
NMTAP	43	0	5
NMTAP	43	192	5
NMTAP	44	0	6
NMTAP	44	192	6
NMTAP	45	0	0
NMTAP	45	0	7
NMTAP	46	0	7
NMTAP	46	96	7
NMTAP	46	192	7
NMTAP	47	0	0
NMTAP	47	96	0
NMTAP	47	192	0
NMTAP	48	0	0
NMTAP	48	0	7
NMTAP	48	192	0
NMTAP	48	192	7
BRTAP	49	0	0
BRTAP	49	0	7
NMHLD	50	0	6	384
NMHLD	50	0	7	384
NMHLD	52	0	4	384
NMHLD	52	0	5	384
NMHLD	54	0	2	384
NMHLD	54	0	3	384
NMHLD	56	0	0	384
NMHLD	56	0	1	384
NMTTP	58	0	1	E	0	L1
NMTTP	59	0	2	E	0	L1
NMTTP	60	0	3	E	0	L1
NMTTP	61	0	4	E	0	L1
NMTTP	62	0	5	E	0	L1
NMTTP	63	0	6	E	0	L1
NMTTP	64	0	7	E	0	L1
NMTTP	65	0	0	C	1	L1
BRTAP	66	0	7
NMTAP	66	96	7
NMTAP	66	192	7
NMTAP	67	0	6
NMTAP	67	96	6
NMTAP	67	192	6
NMTAP	68	0	5
NMTAP	68	96	5
NMTAP	68	192	5
NMTAP	69	0	4
NMTAP	69	96	4
NMTAP	69	192	3
NMTAP	69	192	4
NMTAP	70	0	3
NMTAP	70	96	3
NMTAP	70	192	3
NMTAP	71	0	2
NMTAP	71	96	2
NMTAP	71	192	2
NMTAP	72	0	1
NMTAP	72	96	1
NMTAP	72	192	1
BXTAP	73	0	0
BXTAP	73	0	7
NMTAP	74	0	0
NMTAP	74	96	0
NMTAP	74	192	0
NMTAP	75	0	0
NMTAP	75	0	1
NMTAP	75	96	0
NMTAP	75	96	1
NMTAP	75	192	0
NMTAP	75	192	1
NMTAP	76	0	2
NMTAP	76	96	2
NMTAP	76	192	2
NMTAP	77	0	3
NMTAP	77	0	4
NMTAP	77	96	3
NMTAP	77	96	4
NMTAP	77	192	3
NMTAP	77	192	4
NMTAP	78	0	4
NMTAP	78	96	4
NMTAP	78	192	4
NMTAP	79	0	4
NMTAP	79	0	5
NMTAP	79	96	4
NMTAP	79	96	5
NMTAP	79	192	4
NMTAP	79	192	5
NMTAP	80	0	6
NMTAP	80	96	6
NMTAP	80	192	6
BRTAP	81	0	0
BRTAP	81	0	7
NMTAP	82	0	7
NMTAP	82	96	7
NMTAP	82	192	7
NMTAP	82	288	7
NMTAP	83	0	6
NMTAP	83	96	6
NMTAP	83	192	6
NMTAP	83	192	7
NMTAP	84	0	5
NMTAP	84	96	5
NMTAP	84	192	5
NMTAP	84	288	5
NMTAP	85	0	4
NMTAP	85	96	4
NMTAP	85	192	3
NMTAP	85	192	4
NMTAP	86	0	3
NMTAP	86	96	3
NMTAP	86	192	3
NMTAP	86	288	3
NMTAP	87	0	2
NMTAP	87	96	2
NMTAP	87	192	2
NMTAP	87	192	3
NMTAP	88	0	1
NMTAP	88	96	1
NMTAP	88	192	1
NMTAP	88	288	1
NMTAP	89	0	0
NMTAP	89	96	0
NMTAP	89	192	0
NMTAP	89	192	7
NMSTR	90	0	0
NMSI_	90	0	0	96	288	4
NMSTR	92	0	7
NMSI_	92	0	7	96	288	3
NMTAP	94	0	0
NMTAP	94	96	0
NMTAP	94	192	1
NMTAP	94	288	1
NMTAP	95	0	2
NMTAP	95	96	2
NMTAP	95	192	3
NMTAP	95	192	4
NMTAP	96	0	4
NMTAP	96	96	4
NMTAP	96	192	5
NMTAP	96	288	5
NMTAP	97	0	6
NMTAP	97	96	6
NMTAP	97	192	0
NMTAP	97	192	7
NMSTR	98	0	0
NMSI_	98	0	0	96	288	3
NMSTR	98	0	7
NMSI_	98	0	7	96	288	4
NMTHO	100	0	0	768	C	0	L1

T_REC_TAP	162
T_REC_BRK	5
T_REC_XTP	0
T_REC_BXX	4
T_REC_HLD	10
T_REC_XHO	0
T_REC_BHO	0
T_REC_BXH	0
T_REC_STR	9
T_REC_BST	0
T_REC_XST	0
T_REC_XBS	0
T_REC_TTP	8
T_REC_THO	1
T_REC_SLD	9
T_REC_BSL	0
T_REC_ALL	208
T_NUM_TAP	179
T_NUM_BRK	9
T_NUM_HLD	11
T_NUM_SLD	9
T_NUM_ALL	208
T_JUDGE_TAP	188
T_JUDGE_HLD	112
T_JUDGE_SLD	9
T_JUDGE_ALL	309
TTM_EACHPAIRS	33
TTM_SCR_TAP	89500
TTM_SCR_BRK	23400
TTM_SCR_HLD	11000
TTM_SCR_SLD	13500
TTM_SCR_ALL	137400
TTM_SCR_S	132450
TTM_SCR_SS	136500
TTM_RAT_ACV	10065

