VERSION	0.00.00	1.05.00
FES_MODE	0
BPM_DEF	205.000	205.000	205.000	205.000
MET_DEF	4	4
RESOLUTION	384
CLK_DEF	384
COMPATIBLE_CODE	MA2

BPM	0	0	205.000
MET	0	0	4	4

NMSTR	1	0	2
NMSCR	1	0	2	96	360	5
NMTTP	2	0	6	E	0	M1
CNSUL	2	72	5	0	600	0
NMTTP	3	0	7	E	0	M1
NMHLD	4	0	7	384
NMTAP	4	192	0
NMTAP	4	288	1
NMSTR	5	0	2
NMSCR	5	0	2	96	288	5
CNSUL	6	0	5	0	576	7
NMTTP	6	0	6	E	0	M1
NMTTP	7	0	0	C	0	M1
NMHLD	7	288	6	288
NMTAP	8	0	7
NMTAP	8	48	7
NMSTR	8	96	7
NMSI_	8	96	7	96	48	3
NMTAP	8	144	7
BRTAP	8	192	7
NMHLD	9	0	2	96
NMTAP	9	0	4
NMTAP	9	96	3
NMHLD	9	144	4	96
NMTAP	9	240	3
NMHLD	9	288	2	144
NMTAP	10	48	3
NMTAP	10	144	1
NMTAP	10	144	3
NMTAP	10	240	0
NMTAP	10	240	4
NMTAP	10	336	6
NMHLD	11	0	6	96
NMTAP	11	96	4
NMHLD	11	144	4	96
NMTAP	11	240	5
NMSTR	11	288	5
NMSUL	11	288	5	96	288	3
NMTAP	12	48	3
NMTAP	12	144	1
NMTAP	12	192	1
NMTAP	12	240	0
NMTAP	12	288	0
NMTAP	13	0	1
NMTAP	13	0	3
NMTTP	13	96	2	B	0	M1
NMTAP	13	192	4
NMTAP	13	192	6
NMTTP	13	288	5	B	0	M1
NMTAP	14	0	2
NMTAP	14	0	3
NMTTP	14	96	0	C	0	M1
NMTAP	14	96	2
NMTAP	14	192	2
NMTTP	14	192	7	B	0	M1
NMTAP	14	288	2
NMTTP	14	288	7	A	0	M1
NMTTP	15	0	0	A	0	M1
NMTAP	15	0	2
NMTTP	15	96	1	A	0	M1
NMTAP	15	96	2
NMTAP	15	192	2
NMTTP	15	192	3	A	0	M1
NMTAP	15	288	2
NMTTP	15	288	4	A	0	M1
NMTHO	16	0	0	192	C	0	M1
NMTAP	16	0	1
NMTAP	16	96	1
NMTAP	16	192	0
NMTAP	16	288	0
EXTAP	17	0	6
NMSTR	17	0	7
NMSUR	17	0	7	96	192	3
NMTAP	17	96	6
EXTAP	17	192	5
NMTAP	17	288	5
NMSTR	18	0	4
NMSXR	18	0	4	96	192	2
EXTAP	18	0	6
NMTAP	18	96	6
EXTAP	18	192	5
NMTAP	18	288	5
NMSTR	19	0	3
NMSI_	19	0	3	96	96	7
EXTAP	19	0	6
NMSTR	19	96	7
NMSCL	19	96	7	96	96	4
NMSTR	19	192	4
NMSI_	19	192	4	96	96	0
NMTAP	19	288	7
NMTAP	20	0	6
NMTAP	20	48	6
NMTAP	20	96	5
NMTAP	20	96	7
NMTAP	20	144	5
NMTAP	20	144	7
NMTAP	20	192	0
NMTAP	20	192	4
BRTAP	20	288	1
BRTAP	20	288	3
NMSTR	21	0	0
NMSSL	21	0	0	96	480	4
NMTAP	22	0	5
NMTAP	22	48	5
NMSTR	22	96	6
NMSI_	22	96	6	96	48	2
NMTAP	22	192	6
BRTAP	22	288	0
NMSTR	23	0	1
NMSI_	23	0	1	96	48	3
NMSTR	23	0	3
NMSI_	23	0	3	96	48	7
EXTAP	23	192	1
EXTAP	23	192	6
NMTAP	23	288	0
NMHLD	23	288	7	24
NMTAP	23	336	1
NMHLD	23	336	7	24
NMTAP	24	0	2
NMHLD	24	0	7	24
NMTAP	24	48	3
NMHLD	24	48	7	24
NMTAP	24	96	4
NMHLD	24	96	7	24
NMTAP	24	144	5
NMHLD	24	144	7	24
NMSTR	24	192	6
NMSUL	24	192	6	96	96	0
NMTAP	24	192	7
NMSTR	24	288	7
NMSI_	24	288	7	96	48	3
NMTAP	25	0	7
EXTAP	25	96	0
EXTAP	25	96	4
NMTAP	25	192	1
NMTAP	25	192	6
NMHLD	25	288	0	24
NMTAP	25	288	7
NMHLD	25	336	0	24
NMTAP	25	336	6
NMHLD	26	0	0	24
NMTAP	26	0	5
NMHLD	26	48	0	24
NMTAP	26	48	4
NMHLD	26	96	0	24
NMTAP	26	96	3
NMHLD	26	144	0	24
NMTAP	26	144	2
NMSTR	26	192	0
NMSI_	26	192	0	96	48	4
NMTAP	26	192	1
NMTAP	26	288	7
NMSTR	27	0	2
NMSI_	27	0	2	96	48	0
NMSTR	27	0	6
NMSI_	27	0	6	96	48	2
EXTAP	27	192	1
EXTAP	27	192	3
NMHLD	27	288	0	24
NMTAP	27	288	4
NMHLD	27	336	0	24
NMTAP	27	336	5
NMHLD	28	0	0	24
NMTAP	28	0	6
NMHLD	28	48	0	24
NMTAP	28	48	7
NMHLD	28	96	0	24
NMTAP	28	96	1
NMHLD	28	144	0	24
NMTAP	28	144	2
NMSTR	28	192	0
NMSI_	28	192	0	96	48	4
NMSTR	28	192	3
NMSI_	28	192	3	96	48	7
NMTAP	29	0	2
NMTAP	29	0	6
NMTAP	29	96	0
NMTAP	29	96	1
NMTAP	29	144	2
NMTAP	29	144	7
NMTAP	29	192	3
NMHLD	29	192	6	72
NMHLD	29	264	4	72
NMTAP	29	336	3
NMSTR	30	0	3
NMSI_	30	0	3	96	48	6
NMSTR	30	96	1
NMSI_	30	96	1	96	48	4
NMSTR	30	192	7
NMSI_	30	192	7	96	48	2
NMSI_	30	192	7	96	48	3
NMTTP	30	288	7	A	1	M1
NMTAP	31	0	1
NMTAP	31	0	4
NMTAP	31	48	2
NMTAP	31	96	3
NMTAP	31	96	4
NMTAP	31	144	5
NMTAP	31	192	2
NMTAP	31	192	6
NMTAP	31	240	1
NMSTR	31	288	0
NMSI_	31	288	0	96	48	4
NMTAP	31	336	0
NMSTR	32	0	5
NMSCR	32	0	5	96	48	0
NMTAP	32	48	5
NMSTR	32	96	1
NMSI_	32	96	1	96	48	5
NMTAP	32	144	1
NMSTR	32	192	7
NMSI_	32	192	7	96	48	3
NMTAP	32	240	7
NMTAP	32	288	0
NMTAP	32	336	0
NMTAP	33	0	1
NMTAP	33	0	4
NMTAP	33	48	2
NMTAP	33	72	3
BRTAP	33	96	2
NMTAP	33	144	3
NMTAP	33	144	6
NMTAP	33	192	5
NMTAP	33	216	4
BRTAP	33	240	5
NMTAP	33	288	0
NMTAP	33	288	4
NMTAP	33	336	1
NMTAP	33	360	3
BRTAP	34	0	2
NMTAP	34	48	3
NMTAP	34	48	7
NMTAP	34	96	6
NMTAP	34	120	4
BRTAP	34	144	5
NMTAP	34	192	2
NMTAP	34	216	3
NMTAP	34	240	1
NMTAP	34	288	0
NMTAP	34	288	4
NMHLD	35	0	5	48
NMHLD	35	0	7	48
NMHLD	35	72	0	48
NMHLD	35	72	6	48
NMHLD	35	144	1	48
NMHLD	35	144	7	48
BXTAP	35	216	0
BXTAP	35	216	2
NMTAP	35	288	3
NMTAP	35	288	7
NMTAP	35	336	3
NMTAP	35	336	7
NMTAP	36	0	7
NMTAP	36	24	6
NMTAP	36	48	5
NMTAP	36	72	4
NMTAP	36	96	3
NMTAP	36	120	2
NMTAP	36	144	1
NMTAP	36	168	0
NMTTP	36	192	0	C	1	M1
NMTAP	36	192	7
NMSTR	37	0	0
NMSI_	37	0	0	96	48	4
NMTAP	37	0	7
NMTAP	37	96	7
NMSTR	37	144	6
NMSI_	37	144	6	96	48	2
NMTAP	37	240	4
NMSTR	37	288	3
NMSXR	37	288	3	96	240	7
NMSTR	38	96	6
NMSI_	38	96	6	96	48	4
NMTAP	38	192	6
NMTAP	38	288	0
NMTAP	38	288	5
NMTAP	39	0	1
NMTAP	39	24	3
NMTAP	39	48	2
NMTAP	39	96	3
NMTAP	39	96	4
NMTAP	39	144	5
NMTAP	39	168	4
NMTAP	39	192	6
NMTAP	39	240	0
NMTAP	39	240	7
NMTAP	39	288	1
NMTAP	39	336	0
NMTAP	39	336	2
NMTAP	40	0	3
NMTAP	40	24	7
NMTAP	40	48	3
NMTAP	40	72	7
NMTAP	40	96	2
NMTAP	40	120	6
NMTAP	40	144	2
NMTAP	40	168	6
NMTAP	40	192	1
NMTAP	40	216	5
NMTAP	40	240	1
NMTAP	40	264	5
NMHLD	40	288	0	96
NMSTR	41	0	3
NMSI_	41	0	3	96	48	7
NMTAP	41	96	0
NMSTR	41	144	1
NMSI_	41	144	1	96	48	5
NMTAP	41	240	7
NMSTR	41	288	0
NMSXR	41	288	0	96	240	4
NMSTR	42	96	3
NMSI_	42	96	3	96	48	1
NMTAP	42	192	3
NMTAP	42	288	0
NMTAP	42	288	5
NMTAP	43	0	6
NMTAP	43	24	7
NMTAP	43	48	6
NMTAP	43	96	4
NMTAP	43	96	5
NMTAP	43	144	2
NMTAP	43	168	3
NMTAP	43	192	2
NMTAP	43	240	1
NMTAP	43	288	0
NMTAP	43	288	4
NMTAP	43	336	0
NMTAP	43	336	4
NMTAP	44	0	1
NMTAP	44	24	3
NMTAP	44	48	2
NMTAP	44	72	4
NMTAP	44	96	3
NMTAP	44	120	5
NMTAP	44	144	4
NMTAP	44	168	6
NMTAP	44	192	7
NMTAP	44	216	5
NMTAP	44	240	0
NMTAP	44	264	6
NMTAP	44	288	1
NMTAP	44	312	7
NMTAP	44	336	2
NMTAP	44	360	0
NMTAP	45	0	3
NMTAP	45	48	3
NMTAP	45	96	2
NMTAP	45	96	4
NMTAP	45	144	2
NMTAP	45	144	4
NMTAP	45	192	1
NMTAP	45	192	5
NMTAP	45	240	1
NMTAP	45	240	5
NMTAP	45	288	0
NMTAP	45	288	6
NMTAP	45	336	0
NMTAP	45	336	6
NMTAP	46	0	1
NMTAP	46	0	7
NMTAP	46	48	1
NMTAP	46	48	7
NMSTR	46	96	2
NMSI_	46	96	2	96	48	5
NMSTR	46	96	6
NMSI_	46	96	6	96	48	1
BRTAP	46	192	2
BRTAP	46	192	6
NMTTP	47	0	2	B	0	M1
NMTTP	47	0	2	A	0	M1
NMTTP	47	0	3	E	0	M1
NMTTP	47	0	6	B	0	M1
NMTTP	47	0	6	E	1	M1
NMTTP	47	0	6	A	0	M1
NMTAP	47	96	1
NMTAP	47	120	7
NMTAP	47	144	1
NMTAP	47	168	7
NMSTR	47	192	0
NMSI_	47	192	0	96	48	4
NMSTR	47	240	4
NMSI_	47	240	4	96	48	0
BRTAP	48	0	7
NMTAP	48	96	0
NMTAP	48	96	6
NMTAP	48	144	1
NMTAP	48	144	5
NMSTR	48	192	2
NMSI_	48	192	2	96	48	5
NMSTR	48	192	4
NMSI_	48	192	4	96	48	7
NMTAP	48	288	2
NMTAP	48	288	4
NMTAP	49	0	4
NMTAP	49	0	6
NMTAP	49	96	1
NMTAP	49	96	7
NMTAP	49	192	0
NMTAP	49	224	0
NMTAP	49	256	6
NMTAP	49	288	1
NMTAP	49	320	1
NMTAP	49	352	7
NMTAP	50	0	2
NMTAP	50	32	2
NMTAP	50	64	0
NMTAP	50	96	3
NMTAP	50	128	3
NMTAP	50	160	1
NMSTR	50	192	4
NMSF_	50	192	4	96	48	0
NMSTR	51	0	2
NMSI_	51	0	2	96	48	6
NMSTR	51	0	6
NMSI_	51	0	6	96	48	2
NMSTR	51	96	2
NMSXR	51	96	2	96	48	0
NMSTR	51	96	6
NMSXR	51	96	6	96	48	4
NMTTP	51	192	0	C	0	M1
NMTAP	51	288	1
NMTAP	51	312	7
NMTAP	51	336	1
NMTAP	51	360	7
BRTAP	52	0	2
BRTAP	52	0	6
NMTAP	52	96	3
NMTAP	52	96	5
NMTAP	52	144	5
NMSTR	52	192	4
NMSI_	52	192	4	96	48	1
NMSTR	52	192	6
NMSI_	52	192	6	96	48	3
NMTAP	52	288	4
NMTAP	52	288	6
NMSTR	53	0	0
NMSLR	53	0	0	96	192	4
NMTAP	53	0	4
NMTAP	53	96	5
NMTAP	53	192	6
CNSSR	53	288	4	0	288	0
NMTAP	53	288	7
NMTAP	54	0	7
NMTAP	54	96	6
BRTAP	54	192	5
EXTAP	54	336	1
EXTAP	54	336	7
BXTAP	55	0	1
BXTAP	55	0	7
NMSTR	55	96	0
NMSI_	55	96	0	96	48	6
NMTAP	55	120	0
NMTAP	55	144	0
NMTAP	55	168	0
NMSTR	55	192	0
NMSI_	55	192	0	96	48	2
CNSI_	55	240	6	0	48	0
CNSI_	55	336	2	0	48	0
BXTAP	56	0	4
NMTAP	56	96	0
NMSTR	56	96	6
NMSI_	56	96	6	96	48	2
NMTAP	56	144	0
NMTAP	56	192	0
NMSTR	56	192	6
NMSCL	56	192	6	96	48	3
NMTAP	56	240	0
NMTAP	56	288	0
NMTAP	56	288	6
EXTAP	57	0	0
EXTAP	57	0	4
NMTAP	57	48	1
NMTAP	57	96	2
NMTAP	57	96	5
NMTAP	57	144	6
NMTAP	57	192	7
NMTAP	57	224	7
NMTAP	57	256	7
NMTAP	57	288	1
NMTAP	57	320	1
NMTAP	57	352	1
NMTAP	58	0	3
NMTAP	58	32	3
NMTAP	58	64	3
NMSTR	58	96	5
NMSI_	58	96	5	96	48	1
NMTAP	58	128	5
NMTAP	58	160	5
BRTAP	58	192	7
NMTAP	58	288	0
NMTAP	58	288	6
BRTAP	59	0	1
BRTAP	59	0	5
NMTAP	59	48	0
EXTAP	59	96	6
NMHLD	59	96	7	192
NMTAP	59	144	6
NMTAP	59	160	5
NMTAP	59	176	4
NMTAP	59	192	3
NMTAP	59	240	3
NMHLD	59	288	3	192
NMTAP	59	336	7
NMTAP	59	352	0
NMTAP	59	368	1
NMTAP	60	0	2
NMTAP	60	48	2
NMHLD	60	96	2	96
NMTAP	60	144	3
NMTAP	60	160	4
NMTAP	60	176	5
NMTAP	60	192	6
NMTAP	60	240	6
NMTAP	60	288	2
NMTAP	60	288	6
NMTAP	61	0	0
NMTAP	61	0	1
NMTAP	61	48	2
NMTAP	61	96	4
NMTAP	61	96	5
NMTAP	61	144	6
NMTAP	61	192	0
NMTAP	61	224	0
NMTAP	61	256	0
NMTAP	61	288	2
NMTAP	61	320	2
NMTAP	61	352	2
NMTAP	62	0	4
NMTAP	62	32	4
NMTAP	62	64	4
NMSTR	62	96	6
NMSF_	62	96	6	96	48	2
NMTAP	62	128	6
NMTAP	62	160	6
NMTTP	62	192	0	C	1	M1
NMSTR	67	0	4
BRSCR	67	0	4	96	1056	3
NMTTP	70	192	3	E	0	M1
NMTTP	70	192	4	E	0	M1
NMTTP	70	192	5	E	0	M1
NMTAP	71	0	2
NMTAP	71	0	3
NMHLD	71	96	1	96
NMTAP	71	192	3
NMTAP	71	288	2
NMTAP	71	336	2
NMTAP	72	0	3
NMTAP	72	48	3
NMTAP	72	96	2
NMTAP	72	192	3
NMTAP	72	192	4
NMTAP	72	288	5
NMTAP	73	0	4
NMTAP	73	0	6
NMHLD	73	96	6	96
NMTAP	73	192	4
NMTAP	73	288	5
NMTAP	73	336	5
NMTAP	74	0	4
NMTAP	74	48	4
NMTAP	74	96	5
NMTAP	74	192	3
NMTAP	74	192	4
NMTAP	74	288	2
NMTAP	75	0	1
NMTAP	75	0	3
NMHLD	75	96	1	96
NMTAP	75	192	3
NMTAP	75	288	1
NMTAP	75	336	1
NMTAP	76	0	3
NMTAP	76	48	3
NMTAP	76	96	0
NMTAP	76	144	0
NMSTR	76	192	3
NMSI_	76	192	3	96	48	7
NMTTP	77	0	0	A	0	M1
NMTTP	77	48	1	A	0	M1
NMTTP	77	96	2	A	0	M1
NMTTP	77	144	3	A	0	M1
NMTTP	77	192	4	A	0	M1
NMTTP	77	240	5	A	0	M1
NMTTP	77	288	6	A	0	M1
NMTTP	77	336	7	A	0	M1
NMTHO	78	0	0	192	C	0	M1
NMTAP	79	0	0
NMTAP	79	48	0
NMTAP	79	96	7
NMTAP	79	144	6
NMTAP	79	192	5
NMTAP	79	288	3
NMTAP	79	312	4
NMTAP	79	336	3
NMTAP	79	360	4
NMTAP	80	0	2
NMTAP	80	48	2
NMHLD	80	96	2	192
NMTTP	80	192	4	E	0	M1
NMTAP	80	288	3
NMTTP	81	0	2	E	0	M1
NMTTP	81	24	2	B	0	M1
NMTTP	81	48	3	B	0	M1
NMTTP	81	72	4	E	0	M1
NMTTP	81	96	4	A	0	M1
NMTTP	81	192	6	E	0	M1
NMTTP	81	216	5	B	0	M1
NMTTP	81	240	4	B	0	M1
NMTTP	81	264	4	E	0	M1
NMTTP	81	288	3	A	0	M1
NMTTP	82	0	1	E	0	M1
NMTTP	82	24	2	E	0	M1
NMTTP	82	48	3	E	0	M1
NMTTP	82	72	4	E	0	M1
NMTTP	82	96	5	E	0	M1
NMTTP	82	192	7	E	0	M1
NMTTP	82	216	6	E	0	M1
NMTTP	82	240	5	E	0	M1
NMTTP	82	264	4	E	0	M1
NMTTP	82	288	3	E	0	M1
NMTAP	83	0	0
NMTAP	83	48	0
NMTAP	83	96	1
NMTAP	83	144	1
NMTAP	83	192	2
NMTAP	83	240	2
NMTAP	83	288	3
NMTAP	83	336	3
NMTAP	84	0	4
NMTAP	84	48	4
NMTAP	84	96	5
NMTAP	84	144	5
NMTAP	84	192	6
NMTAP	84	240	6
NMTAP	84	288	7
NMTAP	84	336	7
NMTAP	85	0	0
NMTAP	85	0	6
NMTAP	85	48	0
NMTAP	85	48	6
NMTAP	85	96	1
NMTAP	85	96	5
NMTAP	85	144	1
NMTAP	85	144	5
NMTAP	85	192	2
NMTAP	85	192	4
NMTAP	85	240	2
NMTAP	85	240	4
NMTAP	85	288	3
EXTAP	86	0	3
EXTAP	86	0	4
NMTAP	86	16	2
NMTAP	86	16	5
NMTAP	86	32	1
NMTAP	86	32	6
BRHLD	86	48	0	144
BRHLD	86	48	7	144
NMSTR	86	288	1
NMSI_	86	288	1	96	48	5
BRTAP	86	288	6
BRTAP	87	0	1
NMSTR	87	0	7
BRSCL	87	0	7	96	48	4
BXTAP	87	96	3
NMSTR	87	96	7
NMSI_	87	96	7	96	48	2
NMTAP	87	112	2
NMTAP	87	128	1
NMTAP	87	144	0
NMSTR	87	192	3
BRSI_	87	192	3	96	48	7
BXTAP	87	192	7
BRTAP	87	288	3
NMTAP	87	288	4
NMTAP	87	336	5
BRSTR	88	0	0
NMSI_	88	0	0	96	48	2
NMSI_	88	0	0	96	48	4
BRTAP	88	0	6
NMTTP	88	96	0	A	1	M1
EXTAP	88	192	5
NMTAP	88	216	3
NMTAP	88	240	5
NMTAP	88	264	3
NMSTR	88	288	6
NMSI_	88	288	6	96	48	2
NMTAP	88	336	7
BRSTR	89	0	0
BRSCR	89	0	0	96	48	3
BRTAP	89	0	6
NMSTR	89	96	0
NMSI_	89	96	0	96	48	5
BXTAP	89	96	4
NMTAP	89	112	5
NMTAP	89	128	6
NMTAP	89	144	7
BXTAP	89	192	0
NMSTR	89	192	4
BRSI_	89	192	4	96	48	0
NMTAP	89	288	3
BRTAP	89	288	4
NMTAP	89	336	2
BRTAP	90	0	1
NMSTR	90	0	7
NMSCL	90	0	7	96	48	4
NMSCR	90	0	7	96	48	2
NMSTR	90	96	7
BRSF_	90	96	7	96	48	3
NMTTP	90	192	0	D	0	M1
NMTTP	90	192	7	A	1	M1
NMTTP	90	192	7	D	0	M1
NMTAP	90	288	1
NMTAP	90	288	5
BRTAP	91	0	0
BRSTR	91	0	7
NMSI_	91	0	7	96	48	3
NMTAP	91	48	6
NMSTR	91	96	2
NMSI_	91	96	2	96	48	0
NMSI_	91	96	2	96	48	5
NMTAP	91	144	1
NMTTP	91	192	2	A	1	M1
NMSTR	91	288	6
BRSI_	91	288	6	96	48	2
NMTAP	91	336	5
NMSTR	92	0	7
NMSI_	92	0	7	96	48	3
NMTAP	92	48	0
NMSTR	92	96	4
NMSI_	92	96	4	96	48	0
NMSI_	92	96	4	96	48	6
NMTTP	92	192	4	A	1	M1
NMTAP	92	288	1
NMTAP	92	288	7
BRTAP	93	0	2
NMTAP	93	0	6
NMTAP	93	48	1
NMTAP	93	72	0
NMTAP	93	96	2
NMTAP	93	144	3
BRTAP	93	144	5
NMTAP	93	192	6
NMTAP	93	216	7
NMTAP	93	240	5
BRTAP	93	288	2
NMTAP	93	288	4
NMTAP	93	336	0
NMTAP	93	336	6
NMTAP	94	0	1
NMTAP	94	24	7
NMTAP	94	48	2
NMTAP	94	72	6
NMTAP	94	96	3
NMTAP	94	120	5
NMTAP	94	144	2
NMTAP	94	168	4
NMTAP	94	192	1
NMTAP	94	204	0
NMTAP	94	216	7
NMTAP	94	228	6
NMTAP	94	240	5
NMTAP	94	252	4
NMTAP	94	264	3
NMTAP	94	276	2
BXTAP	94	288	1
BXTAP	94	288	5
BRHLD	95	0	0	24
BRHLD	95	0	6	24
NMHLD	95	48	2	24
NMHLD	95	48	3	24
NMHLD	95	96	1	24
NMHLD	95	96	7	24
NMHLD	95	144	4	24
NMHLD	95	144	5	24
NMHLD	95	192	0	24
NMHLD	95	192	6	24
NMHLD	95	240	2	24
NMHLD	95	240	3	24
NMTAP	95	288	1
NMTAP	95	312	1
NMTAP	95	336	0
BRHLD	96	0	1	24
BRHLD	96	0	7	24
NMHLD	96	48	4	24
NMHLD	96	48	5	24
NMHLD	96	96	0	24
NMHLD	96	96	6	24
NMHLD	96	144	2	24
NMHLD	96	144	3	24
NMHLD	96	192	1	24
NMHLD	96	192	7	24
NMHLD	96	240	4	24
NMHLD	96	240	5	24
NMTAP	96	288	6
NMTAP	96	312	6
NMTAP	96	336	7
NMTAP	97	0	0
NMTAP	97	0	6
NMTAP	97	48	5
NMTAP	97	96	3
NMTAP	97	96	4
NMSTR	97	144	2
NMSI_	97	144	2	96	48	7
NMTAP	97	192	1
NMSTR	97	192	3
NMSI_	97	192	3	96	48	6
NMTAP	97	240	2
NMTAP	97	288	3
NMTAP	97	336	0
BRTAP	98	0	1
NMTAP	98	0	7
NMTAP	98	48	6
NMTAP	98	72	4
BRTAP	98	96	5
NMTAP	98	144	1
NMTAP	98	168	3
BRTAP	98	192	2
NMTAP	98	240	3
NMTAP	98	240	7
BRTAP	98	288	3
BRTAP	98	288	7
BRHLD	99	0	0	48
NMTAP	99	0	2
NMTAP	99	48	1
NMHLD	99	72	7	48
NMTAP	99	120	0
NMHLD	99	144	6	48
BRHLD	99	192	4	48
NMTAP	99	240	5
NMHLD	99	264	3	48
NMTAP	99	312	4
NMHLD	99	336	2	48
BRHLD	100	0	0	48
NMTAP	100	48	1
NMHLD	100	72	7	48
NMTAP	100	120	0
NMHLD	100	144	6	48
BRTAP	100	192	4
NMTAP	100	240	3
NMTAP	100	240	5
EXTAP	100	288	2
EXTAP	100	288	4
EXTAP	101	0	1
NMTAP	101	24	3
NMTAP	101	48	1
NMTAP	101	72	3
EXTAP	101	96	2
NMTAP	101	120	4
NMTAP	101	144	2
NMTAP	101	168	4
EXTAP	101	192	3
NMTAP	101	216	5
NMTAP	101	240	3
NMTAP	101	264	5
EXSTR	101	288	4
NMSCL	101	288	4	96	48	1
NMTAP	101	312	6
NMTAP	101	336	4
NMTAP	101	360	6
EXSTR	102	0	4
NMSXL	102	0	4	96	192	7
NMHLD	102	96	0	24
NMHLD	102	144	0	24
NMHLD	102	192	0	24
NMHLD	102	240	0	24
BRTAP	102	288	0
EXTAP	103	0	1
NMTAP	103	24	0
NMTAP	103	48	2
NMTAP	103	72	7
NMSTR	103	96	3
NMSI_	103	96	3	96	48	0
NMTAP	103	120	6
NMTAP	103	144	4
BRTAP	103	192	3
NMSTR	103	192	5
BRSI_	103	192	5	96	48	2
NMTAP	103	240	6
BRTAP	103	288	5
NMSTR	103	288	7
NMSCR	103	288	7	96	48	2
BRTAP	104	0	3
EXTAP	104	0	7
NMTAP	104	16	4
NMTAP	104	32	5
NMTAP	104	48	6
NMTAP	104	96	6
NMTAP	104	144	5
NMTAP	104	144	7
BRTAP	104	192	0
BRTAP	104	192	4
NMTAP	104	240	1
NMTAP	104	264	3
NMTAP	104	288	2
NMTAP	104	312	4
BRTAP	104	336	3
EXTAP	105	0	6
NMTAP	105	24	7
NMTAP	105	48	5
NMTAP	105	72	0
NMSTR	105	96	4
NMSI_	105	96	4	96	48	7
NMTAP	105	120	1
NMTAP	105	144	3
NMSTR	105	192	2
BRSI_	105	192	2	96	48	5
BRTAP	105	192	4
NMTAP	105	240	1
NMSTR	105	288	0
NMSCL	105	288	0	96	48	5
BRTAP	105	288	2
EXTAP	106	0	0
BRTAP	106	0	4
NMTAP	106	16	3
NMTAP	106	32	2
NMTAP	106	48	1
NMTAP	106	96	1
NMTAP	106	144	0
NMTAP	106	144	2
BRTAP	106	192	3
BRTAP	106	192	7
NMTAP	106	240	6
NMTAP	106	264	4
NMTAP	106	288	5
NMTAP	106	312	3
BRTAP	106	336	4
NMTAP	107	0	0
NMTAP	107	0	1
BRTAP	107	48	2
NMTAP	107	72	3
NMTAP	107	96	2
NMTAP	107	144	4
NMTAP	107	144	5
BRTAP	107	192	6
NMTAP	107	216	7
NMTAP	107	240	6
NMTAP	107	288	0
NMTAP	107	288	5
NMTAP	107	336	1
NMTAP	107	336	4
BRTAP	108	0	2
NMTAP	108	24	3
NMTAP	108	48	1
NMTAP	108	96	0
NMTAP	108	96	1
BRTAP	108	144	7
NMTAP	108	168	0
NMSTR	108	192	6
BRSI_	108	192	6	96	48	2
NMTAP	108	240	4
NMTAP	108	240	5
NMHLD	108	288	3	96
EXTAP	108	288	6
EXTAP	109	0	1
NMTAP	109	24	3
NMTAP	109	48	1
NMTAP	109	72	3
NMTAP	109	96	0
NMTAP	109	120	2
NMTAP	109	144	0
NMTAP	109	168	2
NMTAP	109	192	7
NMTAP	109	216	1
NMTAP	109	240	7
NMTAP	109	264	1
NMTAP	109	288	6
NMTAP	109	312	0
NMTAP	109	336	6
NMTAP	109	360	0
BXTAP	110	0	6
NMTAP	110	16	7
NMTAP	110	32	0
NMTAP	110	48	1
NMTAP	110	64	2
NMTAP	110	80	3
EXTAP	110	96	4
EXTAP	110	96	6
NMTAP	110	112	7
NMTAP	110	128	0
NMTAP	110	144	1
NMTAP	110	160	2
NMTAP	110	176	3
EXTAP	110	192	4
EXTAP	110	192	6
NMTAP	110	208	7
NMTAP	110	224	0
NMTAP	110	240	1
NMTAP	110	256	2
NMTAP	110	272	3
EXTAP	110	288	4
EXTAP	110	288	6
NMTAP	110	304	7
NMTAP	110	320	0
NMTAP	110	336	1
NMTAP	110	352	2
NMTAP	110	368	3
EXSTR	111	0	4
NMSI_	111	0	4	96	48	0
EXSTR	111	0	6
NMSI_	111	0	6	96	48	3
BRSTR	111	96	4
NMSCL	111	96	4	96	576	5
BRSTR	111	96	6
NMSCR	111	96	6	96	576	5
NMTTP	111	120	0	C	1	M1

T_REC_TAP	574
T_REC_BRK	51
T_REC_XTP	36
T_REC_BXX	12
T_REC_HLD	72
T_REC_XHO	0
T_REC_BHO	9
T_REC_BXH	0
T_REC_STR	79
T_REC_BST	5
T_REC_XST	4
T_REC_XBS	0
T_REC_TTP	62
T_REC_THO	2
T_REC_SLD	83
T_REC_BSL	10
T_REC_ALL	999
T_NUM_TAP	755
T_NUM_BRK	87
T_NUM_HLD	74
T_NUM_SLD	83
T_NUM_ALL	999
T_JUDGE_TAP	823
T_JUDGE_HLD	128
T_JUDGE_SLD	93
T_JUDGE_ALL	1044
TTM_EACHPAIRS	180
TTM_SCR_TAP	377500
TTM_SCR_BRK	226200
TTM_SCR_HLD	74000
TTM_SCR_SLD	124500
TTM_SCR_ALL	802200
TTM_SCR_S	769700
TTM_SCR_SS	793500
TTM_RAT_ACV	10109

