VERSION	0.00.00	1.05.00
FES_MODE	0
BPM_DEF	205.000	205.000	205.000	205.000
MET_DEF	4	4
RESOLUTION	384
CLK_DEF	384
COMPATIBLE_CODE	MA2

BPM	0	0	205.000
MET	0	0	4	4

NMHLD	1	192	5	2304
NMTAP	2	192	4
NMTAP	3	192	4
NMTAP	4	192	4
NMSTR	5	192	4
NMSCR	5	192	4	96	672	3
NMTAP	8	0	2
NMTAP	8	0	4
NMTAP	8	48	2
NMTAP	8	48	4
NMTAP	8	96	2
NMTAP	8	96	4
NMTTP	8	192	5	E	0	M1
NMTTP	8	192	5	A	1	M1
NMTTP	8	192	6	E	0	M1
NMHLD	9	0	2	144
NMTAP	9	240	3
NMTAP	9	288	2
EXTAP	10	48	1
EXTAP	10	48	3
EXTAP	10	144	1
EXTAP	10	144	3
EXTAP	10	240	2
EXTAP	10	240	4
EXHLD	11	0	5	144
NMTAP	11	240	4
NMTAP	11	288	5
NMTAP	12	48	3
NMTAP	12	48	5
NMTAP	12	144	3
NMTAP	12	144	4
NMTAP	12	240	2
NMTAP	12	288	2
EXHLD	13	0	1	1440
EXTAP	13	0	3
NMTAP	13	96	3
NMTAP	13	192	3
NMTAP	13	288	3
NMTAP	14	0	2
NMTAP	14	96	2
NMTAP	14	192	2
NMTAP	14	288	2
NMTAP	15	0	0
NMTAP	15	96	0
NMTAP	15	192	0
NMTAP	15	288	0
NMTAP	16	0	7
NMTAP	16	96	7
NMTAP	16	192	7
NMTAP	16	288	7
NMHLD	17	0	0	672
NMTAP	17	0	1
NMTAP	17	96	1
NMTAP	17	192	2
NMTAP	17	288	2
NMTAP	18	0	3
NMTAP	18	96	3
NMTAP	18	192	4
NMTAP	18	288	4
NMSTR	19	0	0
NMSCL	19	0	0	96	192	5
NMSTR	19	0	4
NMSCL	19	0	4	96	192	1
NMTAP	20	0	3
NMTAP	20	0	7
NMTAP	20	48	3
NMTAP	20	48	7
NMTAP	20	96	3
NMTAP	20	96	7
BRTAP	20	192	1
BRTAP	20	192	5
NMSTR	21	0	2
NMSXR	21	0	2	96	288	4
NMHLD	21	0	3	96
NMTAP	22	96	2
NMTAP	22	192	4
NMTAP	22	240	4
NMTAP	22	288	3
NMHLD	23	0	4	96
EXSTR	23	0	5
NMSI_	23	0	5	96	96	3
NMTAP	23	192	2
NMTAP	23	288	3
NMTAP	24	0	1
NMTAP	24	48	1
NMTAP	24	96	3
NMTAP	24	192	2
NMTAP	24	288	1
NMTAP	24	288	3
NMSTR	25	0	1
NMSI_	25	0	1	96	96	4
NMHLD	25	0	3	96
NMTAP	25	192	5
NMTAP	25	288	4
NMTAP	26	0	6
NMTAP	26	48	6
NMTAP	26	96	4
NMTAP	26	192	5
NMTAP	26	288	6
NMTAP	26	288	7
NMSTR	27	0	6
NMSI_	27	0	6	96	96	3
NMHLD	27	0	7	96
NMTAP	27	192	2
NMTAP	27	288	3
NMTAP	28	0	1
NMTAP	28	48	1
NMTAP	28	96	0
NMTAP	28	192	0
NMTAP	28	192	2
NMTAP	28	288	0
NMTAP	28	288	2
NMSTR	29	0	1
NMSSL	29	0	1	96	96	5
NMHLD	29	0	7	96
NMSTR	29	192	7
NMSCL	29	192	7	96	96	4
NMTAP	30	0	3
NMTAP	30	96	2
NMTAP	30	96	4
NMTAP	30	192	1
NMTAP	30	192	3
NMTAP	30	240	1
NMTAP	30	240	3
BRTAP	30	288	1
BRTAP	30	288	3
NMHLD	31	0	0	96
NMSTR	31	0	1
NMSI_	31	0	1	96	48	4
NMSTR	31	192	6
NMSI_	31	192	6	96	48	3
NMHLD	31	192	7	96
NMHLD	32	0	0	96
NMSTR	32	0	1
NMSI_	32	0	1	96	48	4
NMTAP	32	192	6
NMTAP	32	240	6
NMTAP	32	288	7
NMHLD	33	0	4	96
NMSTR	33	0	5
NMSI_	33	0	5	96	48	0
NMSTR	33	192	2
NMSI_	33	192	2	96	48	7
NMHLD	33	192	3	96
NMHLD	34	0	4	96
NMSTR	34	0	5
NMSI_	34	0	5	96	48	0
NMTAP	34	192	1
NMTAP	34	240	1
NMTAP	34	288	7
NMHLD	35	0	1	72
NMHLD	35	72	0	72
NMHLD	35	144	1	72
NMHLD	35	216	2	72
NMTAP	35	288	3
NMTAP	36	0	5
NMTAP	36	48	5
NMTAP	36	96	3
NMTAP	36	144	3
BRTAP	36	192	5
BXSTR	36	288	2
NMSCL	36	288	2	96	480	5
BXSTR	36	288	4
NMSCR	36	288	4	96	480	1
NMTTP	38	192	4	B	1	M1
NMTTP	38	192	4	E	0	M1
NMTTP	38	192	5	E	0	M1
NMTAP	39	0	1
NMTAP	39	48	0
NMTAP	39	96	2
NMTAP	39	192	6
NMTAP	39	240	7
NMTAP	39	288	5
NMTAP	40	0	0
NMTAP	40	48	3
NMTAP	40	96	2
NMTAP	40	144	2
NMTAP	40	192	0
NMTAP	40	240	0
NMTAP	40	288	1
NMHLD	41	0	1	96
NMHLD	41	0	3	96
NMHLD	41	144	0	96
NMHLD	41	144	2	96
NMHLD	41	288	1	144
NMHLD	41	288	7	144
NMSTR	42	96	0
NMSUR	42	96	0	96	96	5
NMSTR	42	96	1
NMSCR	42	96	1	96	96	5
NMTAP	43	0	6
NMTAP	43	48	7
NMTAP	43	96	5
NMTAP	43	192	1
NMTAP	43	240	0
NMTAP	43	288	2
NMTAP	44	0	7
NMTAP	44	48	3
NMTAP	44	96	6
NMTAP	44	144	6
NMTAP	44	192	4
NMTAP	44	240	4
NMTAP	44	288	5
NMTAP	45	0	4
NMTAP	45	48	4
NMTAP	45	96	3
NMTAP	45	144	3
NMTAP	45	192	2
NMTAP	45	240	2
NMTAP	45	288	1
NMTAP	45	336	1
NMTAP	46	0	0
NMTAP	46	48	0
NMTAP	46	96	0
BRSTR	46	192	6
NMSI_	46	192	6	96	48	3
BRSTR	46	192	7
NMSI_	46	192	7	96	48	3
NMTTP	47	0	2	A	1	M1
NMTAP	48	0	0
NMTAP	48	0	2
NMTAP	48	96	1
NMTAP	48	96	3
NMTAP	48	192	2
NMTAP	48	192	4
NMTAP	48	288	2
NMTAP	48	288	4
NMHLD	49	0	1	96
NMHLD	49	0	3	96
EXTAP	49	192	2
EXTAP	49	224	3
EXTAP	49	256	2
EXTAP	49	288	3
EXTAP	50	0	5
EXTAP	50	32	4
EXTAP	50	64	5
EXTAP	50	96	4
NMTAP	50	192	3
NMTAP	50	192	5
NMTAP	50	288	4
NMTAP	50	288	6
NMTAP	51	0	6
NMHLD	51	0	7	192
NMTAP	51	96	3
NMHLD	51	192	6	192
NMTAP	51	288	5
NMHLD	52	0	7	192
NMTAP	52	96	3
NMHLD	52	192	6	96
BRHLD	52	288	5	864
NMSTR	53	0	6
NMSI_	53	0	6	96	96	1
CNSI_	53	192	1	0	96	6
NMSTR	54	0	6
NMSI_	54	0	6	96	96	3
CNSI_	54	192	3	0	96	6
BRTAP	55	0	6
NMTAP	55	192	6
NMTAP	55	192	7
NMTAP	55	288	4
NMTAP	55	288	6
NMTAP	56	0	5
NMTAP	56	48	5
NMTAP	56	96	4
NMTAP	56	192	2
NMTAP	56	192	4
NMTAP	56	288	0
NMTAP	56	288	1
NMHLD	57	0	0	96
NMHLD	57	0	2	96
NMTAP	57	192	1
NMTAP	57	224	0
NMTAP	57	256	1
NMTAP	57	288	0
NMTAP	58	0	6
NMTAP	58	32	7
NMTAP	58	64	6
NMTAP	58	96	7
NMTAP	58	192	4
NMTAP	58	192	5
NMTAP	58	288	2
NMTAP	58	288	3
NMHLD	59	0	0	192
NMTAP	59	0	1
NMTAP	59	96	4
NMHLD	59	192	1	192
NMTAP	59	288	2
NMHLD	60	0	0	192
NMTAP	60	96	4
NMHLD	60	192	1	96
NMTAP	60	288	2
NMTAP	61	0	0
NMTAP	61	0	3
NMTAP	61	96	1
NMTAP	61	96	4
NMTAP	61	192	2
NMTAP	61	224	3
NMTAP	61	256	2
NMTAP	61	288	3
NMTAP	62	0	5
NMTAP	62	32	4
NMTAP	62	64	5
NMTAP	62	96	4
BRTAP	62	192	3
BRTAP	62	192	5
NMSTR	63	0	6
NMSXR	63	0	6	96	480	3
NMSTR	63	0	7
NMSXL	63	0	7	96	480	2
NMSTR	65	0	2
NMSCL	65	0	2	96	480	5
NMSTR	65	0	3
NMSUL	65	0	3	96	480	4
NMHLD	67	0	3	576
NMSTR	67	0	6
NMSCL	67	0	6	96	192	4
CNSUR	67	288	4	0	288	2
NMHLD	69	0	0	576
NMSTR	69	0	3
NMSCR	69	0	3	96	192	6
CNSLL	69	288	6	0	288	2
NMHLD	71	0	2	288
NMHLD	71	0	3	288
NMHLD	72	0	2	288
NMHLD	72	0	4	288
NMHLD	73	0	3	288
NMHLD	73	0	5	288
NMHLD	74	0	4	288
NMHLD	74	0	6	288
NMHLD	75	0	6	384
NMHLD	76	0	4	384
NMHLD	77	0	3	672
NMHLD	78	0	2	288
NMTAP	79	0	5
NMTAP	79	48	5
NMTAP	79	96	3
NMTAP	79	192	4
NMTAP	79	288	2
NMTAP	79	336	2
NMTAP	80	0	3
NMHLD	80	96	2	768
NMTAP	80	96	4
NMTTP	80	288	3	B	0	M1
NMTTP	81	96	1	B	0	M1
NMTTP	81	288	7	B	0	M1
NMTTP	82	96	5	B	0	M1
NMTTP	82	288	3	B	0	M1
NMTAP	83	0	2
NMTAP	83	48	2
NMTAP	83	96	4
NMTAP	83	192	3
NMTAP	83	288	5
NMTAP	83	336	5
NMTAP	84	0	4
NMTAP	84	96	3
NMHLD	84	96	5	192
NMTAP	84	288	3
NMTAP	85	96	3
NMTAP	85	96	5
NMTAP	85	192	4
NMTAP	85	240	4
NMTAP	85	288	2
NMTTP	86	0	4	B	0	M1
NMTTP	86	0	5	B	0	M1
NMTTP	86	0	5	E	1	M1
BRTAP	86	192	0
BRTAP	86	192	2
BRTAP	86	288	0
BRTAP	86	288	2
NMTAP	87	0	0
NMSTR	87	0	1
NMSI_	87	0	1	96	48	5
NMSTR	87	96	7
NMSI_	87	96	7	96	48	4
NMSTR	87	192	3
NMSI_	87	192	3	96	48	0
NMSTR	87	288	6
NMSI_	87	288	6	96	48	2
NMTAP	88	0	1
NMTAP	88	96	1
NMTAP	88	96	3
NMTAP	88	192	2
NMTAP	88	192	4
NMTAP	88	240	2
NMTAP	88	240	4
BRTAP	88	288	2
BRTAP	88	288	4
NMSTR	89	0	1
NMSI_	89	0	1	96	48	4
NMSTR	89	96	7
NMSI_	89	96	7	96	48	3
NMTAP	89	192	2
NMTAP	89	288	2
NMTAP	89	288	4
NMSTR	90	0	6
NMSI_	90	0	6	96	48	3
NMSTR	90	96	0
NMSI_	90	96	0	96	48	4
NMTAP	90	192	5
NMTAP	90	288	3
NMTAP	90	288	5
NMSTR	91	0	6
NMSI_	91	0	6	96	48	2
NMTAP	91	0	7
NMSTR	91	96	0
NMSI_	91	96	0	96	48	3
NMSTR	91	192	4
NMSI_	91	192	4	96	48	7
NMSTR	91	288	1
NMSI_	91	288	1	96	48	5
NMTAP	92	0	6
NMTAP	92	96	4
NMTAP	92	96	6
NMTAP	92	192	3
NMTAP	92	192	5
NMTAP	92	240	3
NMTAP	92	240	5
BRTAP	92	288	3
BRTAP	92	288	5
NMSTR	93	0	6
NMSI_	93	0	6	96	48	3
NMSTR	93	96	0
NMSI_	93	96	0	96	48	4
NMTAP	93	192	5
NMTAP	93	288	3
NMTAP	93	288	5
NMSTR	94	0	1
NMSI_	94	0	1	96	48	4
NMSTR	94	96	7
NMSI_	94	96	7	96	48	3
NMTAP	94	192	2
NMTAP	94	288	2
NMTAP	94	288	4
NMTAP	95	0	1
NMTAP	95	48	7
NMTAP	95	96	3
NMTAP	95	144	3
BRTAP	95	192	4
BRTAP	95	192	6
BRTAP	95	240	4
BRTAP	95	240	6
BRTAP	95	288	4
BRTAP	95	288	6
NMTAP	96	0	5
NMTAP	96	48	0
NMTAP	96	96	4
NMTAP	96	144	4
BRTAP	96	192	1
BRTAP	96	192	3
BRTAP	96	240	1
BRTAP	96	240	3
BRTAP	96	288	1
BRTAP	96	288	3
NMSTR	97	0	2
NMSI_	97	0	2	96	48	4
NMSTR	97	96	6
NMSI_	97	96	6	96	48	0
NMSTR	97	192	1
NMSI_	97	192	1	96	48	5
NMSTR	97	288	7
NMSCL	97	288	7	96	48	4
NMSTR	98	0	0
NMSCR	98	0	0	96	48	3
NMTAP	98	192	5
NMTAP	98	240	5
BRTAP	98	288	4
NMHLD	99	0	3	72
NMHLD	99	72	2	72
NMHLD	99	144	1	48
BXTAP	99	192	0
BXTAP	99	240	0
BXTAP	99	288	0
NMHLD	100	0	1	72
NMHLD	100	72	3	72
NMHLD	100	144	5	48
BXTAP	100	192	6
BXTAP	100	240	6
BXTAP	100	288	6
NMSTR	101	0	3
NMSI_	101	0	3	96	48	5
NMSTR	101	96	6
NMSI_	101	96	6	96	48	1
NMSTR	101	192	2
NMSCL	101	192	2	96	96	4
NMTAP	101	288	3
NMSTR	102	0	3
NMSF_	102	0	3	96	96	7
BRTAP	102	288	0
BRTAP	102	288	6
EXTAP	103	0	6
EXTAP	103	0	7
NMTAP	103	48	6
NMTAP	103	48	7
BXTAP	103	96	0
BXTAP	103	96	5
NMTAP	103	192	0
NMTAP	103	192	1
NMTAP	103	240	0
NMTAP	103	240	1
BXTAP	103	288	2
BXTAP	103	288	7
NMTAP	104	0	6
NMTAP	104	0	7
EXTAP	104	96	6
EXTAP	104	120	5
EXTAP	104	144	4
EXTAP	104	168	3
EXTAP	104	192	2
EXTAP	104	216	1
EXTAP	104	240	0
EXTAP	104	264	7
BXTAP	104	288	6
NMTAP	105	0	4
NMTAP	105	0	5
NMTAP	105	48	4
NMTAP	105	48	5
BXTAP	105	96	3
BXTAP	105	96	6
NMTAP	105	192	2
NMTAP	105	192	3
NMTAP	105	240	2
NMTAP	105	240	3
BXTAP	105	288	1
BXTAP	105	288	4
NMTAP	106	0	2
NMTAP	106	0	3
EXTAP	106	96	3
EXTAP	106	120	4
EXTAP	106	144	5
EXTAP	106	168	6
EXTAP	106	192	7
EXTAP	106	216	0
EXTAP	106	240	1
EXTAP	106	264	2
BXTAP	106	288	3
NMTAP	107	0	2
NMTAP	107	0	4
NMTAP	107	48	2
NMTAP	107	48	4
EXTAP	107	144	1
NMTAP	107	192	0
NMTAP	107	192	2
NMTAP	107	240	0
NMTAP	107	240	2
EXTAP	107	336	4
NMTAP	108	0	3
NMTAP	108	0	5
NMTAP	108	48	3
NMTAP	108	48	5
EXTAP	108	144	6
NMTAP	108	192	5
NMTAP	108	192	7
NMTAP	108	240	5
NMTAP	108	240	7
BRTAP	108	288	5
BRTAP	108	288	7
NMTAP	109	0	0
NMTAP	109	0	4
NMTAP	109	48	0
NMTAP	109	48	4
NMTAP	109	96	0
NMTAP	109	96	4
NMTAP	109	144	0
NMTAP	109	144	4
NMTAP	109	192	0
NMTAP	109	192	4
NMTAP	109	240	0
NMTAP	109	240	4
NMTAP	109	288	0
NMTAP	109	288	4
NMTAP	109	336	0
NMTAP	109	336	4
BXTAP	110	0	7
NMTAP	110	24	3
NMTAP	110	48	7
NMTAP	110	72	3
NMTAP	110	96	7
NMTAP	110	120	3
NMTAP	110	144	7
NMTAP	110	168	3
NMTAP	110	192	7
NMTAP	110	216	3
NMTAP	110	240	7
NMTAP	110	264	3
NMTAP	110	288	7
NMTAP	110	312	3
NMTAP	110	336	7
NMTAP	110	360	3
NMSTR	111	0	2
NMSI_	111	0	2	96	48	5
NMSTR	111	0	6
NMSI_	111	0	6	96	48	1

T_REC_TAP	314
T_REC_BRK	33
T_REC_XTP	36
T_REC_BXX	17
T_REC_HLD	58
T_REC_XHO	2
T_REC_BHO	1
T_REC_BXH	0
T_REC_STR	51
T_REC_BST	2
T_REC_XST	1
T_REC_XBS	2
T_REC_TTP	15
T_REC_THO	0
T_REC_SLD	56
T_REC_BSL	0
T_REC_ALL	588
T_NUM_TAP	417
T_NUM_BRK	55
T_NUM_HLD	60
T_NUM_SLD	56
T_NUM_ALL	588
T_JUDGE_TAP	471
T_JUDGE_HLD	334
T_JUDGE_SLD	56
T_JUDGE_ALL	861
TTM_EACHPAIRS	125
TTM_SCR_TAP	208500
TTM_SCR_BRK	143000
TTM_SCR_HLD	60000
TTM_SCR_SLD	84000
TTM_SCR_ALL	495500
TTM_SCR_S	475300
TTM_SCR_SS	490000
TTM_RAT_ACV	10112

