VERSION	0.00.00	1.05.00
FES_MODE	0
BPM_DEF	205.000	205.000	205.000	205.000
MET_DEF	4	4
RESOLUTION	384
CLK_DEF	384
COMPATIBLE_CODE	MA2

BPM	0	0	205.000
MET	0	0	4	4

NMTAP	9	0	0
NMTAP	9	96	0
NMTAP	9	192	0
NMTAP	10	0	1
NMTAP	10	96	1
NMTAP	10	192	1
NMTAP	11	0	2
NMTAP	11	96	2
NMTAP	11	192	2
NMTAP	12	0	3
NMTAP	12	0	4
NMTAP	12	192	3
NMTAP	12	192	4
NMTAP	13	0	4
NMTAP	13	96	4
NMTAP	13	192	4
NMTAP	14	0	5
NMTAP	14	96	5
NMTAP	14	192	5
NMTAP	15	0	6
NMTAP	15	96	6
NMTAP	15	192	6
NMTAP	16	0	0
NMTAP	16	0	7
NMTAP	16	192	0
NMTAP	16	192	7
NMHLD	17	0	6	192
NMTAP	17	192	7
NMHLD	18	0	5	192
NMTAP	18	192	4
NMHLD	19	0	2	192
NMTAP	19	192	3
NMHLD	20	0	1	192
NMTAP	20	192	0
NMSTR	21	0	0
NMSI_	21	0	0	96	288	3
NMSTR	21	0	7
NMSI_	21	0	7	96	288	4
NMTAP	23	0	4
NMTAP	23	96	4
NMTAP	23	192	5
NMTAP	24	0	6
NMTAP	24	96	6
NMTAP	24	192	7
NMTAP	25	0	0
NMTAP	25	96	0
NMTAP	25	192	1
NMTAP	26	0	2
NMTAP	26	96	2
NMTAP	26	192	2
NMTAP	26	192	3
NMTAP	27	0	3
NMTAP	27	96	3
NMTAP	27	192	2
NMTAP	28	0	1
NMTAP	28	96	1
NMTAP	28	192	0
NMTAP	29	0	7
NMTAP	29	96	7
NMTAP	29	192	6
NMTAP	30	0	5
NMTAP	30	96	5
NMTAP	30	192	4
NMTAP	30	192	5
NMTAP	31	0	5
NMTAP	31	96	5
NMTAP	31	192	4
NMTAP	31	192	5
NMTAP	32	0	6
NMTAP	32	96	6
NMTAP	32	192	6
NMTAP	32	192	7
NMTAP	33	0	0
NMTAP	33	96	0
NMTAP	33	192	0
NMTAP	33	192	1
NMTAP	34	0	2
NMTAP	34	0	3
NMTAP	34	96	2
NMTAP	34	96	3
NMTAP	34	192	2
NMTAP	34	192	3
NMTAP	35	0	4
NMTAP	35	96	4
NMTAP	35	192	4
NMTAP	35	192	5
NMTAP	36	0	2
NMTAP	36	0	3
NMTTP	37	0	2	B	0	L1
NMTTP	37	0	3	B	0	L1
NMTTP	37	192	0	B	0	L1
NMTTP	37	192	1	B	0	L1
NMTTP	38	0	6	B	0	L1
NMTTP	38	0	7	B	0	L1
NMTTP	38	192	4	B	0	L1
NMTTP	38	192	5	B	0	L1
NMTTP	39	0	1	B	0	L1
NMTTP	39	96	2	B	0	L1
NMTTP	39	192	3	B	0	L1
NMTTP	40	0	6	B	0	L1
NMTTP	40	96	5	B	0	L1
NMTTP	40	192	4	B	0	L1
NMTTP	41	0	2	B	0	L1
NMTTP	41	0	3	E	0	L1
NMTTP	41	192	0	B	0	L1
NMTTP	41	192	1	E	0	L1
NMTTP	42	0	6	B	0	L1
NMTTP	42	0	7	E	0	L1
NMTTP	42	192	4	B	0	L1
NMTTP	42	192	5	E	0	L1
NMTTP	43	0	3	E	0	L1
NMTTP	43	96	2	E	0	L1
NMTTP	43	192	0	B	0	L1
NMTTP	43	192	1	E	0	L1
NMTTP	44	0	5	E	0	L1
NMTTP	44	96	6	E	0	L1
NMTTP	44	192	7	B	0	L1
NMTTP	44	192	7	E	0	L1
NMTHO	45	0	0	384	C	1	L1
EXTAP	47	0	1
EXTAP	47	96	1
EXTAP	47	192	0
EXTAP	47	288	0
EXTAP	48	0	7
EXTAP	48	96	7
EXTAP	48	192	6
EXTAP	48	192	7
NMTAP	49	0	5
NMTAP	49	96	5
NMTAP	49	192	6
NMTAP	49	288	6
NMTAP	50	0	7
NMTAP	50	96	7
NMTAP	50	192	0
NMTAP	50	192	1
NMTAP	51	0	1
NMTAP	51	96	1
NMTAP	51	192	2
NMTAP	51	288	2
NMTAP	52	0	3
NMTAP	52	96	3
NMTAP	52	192	4
NMTAP	52	192	5
NMTAP	53	0	6
NMTAP	53	96	6
NMTAP	53	192	5
NMTAP	53	288	5
NMTAP	54	0	4
NMTAP	54	96	4
NMTAP	54	192	2
NMTAP	54	192	3
NMTAP	55	0	2
NMTAP	55	96	2
NMTAP	55	192	1
NMTAP	55	288	1
NMTAP	56	0	0
NMTAP	56	96	0
NMTAP	56	192	6
NMTAP	56	192	7
NMTAP	56	288	6
NMTAP	56	288	7
NMTAP	57	0	5
NMTAP	57	96	5
NMTAP	57	192	6
NMTAP	57	288	6
NMTAP	58	0	7
NMTAP	58	96	7
NMTAP	58	192	0
NMTAP	58	192	1
NMTAP	59	0	1
NMTAP	59	96	1
NMTAP	59	192	2
NMTAP	59	288	2
NMTAP	60	0	3
NMTAP	60	96	3
NMTAP	60	192	4
NMTAP	60	192	5
NMTAP	60	288	4
NMTAP	60	288	5
NMTAP	61	0	6
NMTAP	61	96	6
NMTAP	61	192	5
NMTAP	61	288	5
NMTAP	62	0	4
NMTAP	62	96	4
BXTAP	62	192	2
BXTAP	62	192	3
NMHLD	63	0	2	384
NMHLD	64	0	3	384
NMHLD	65	0	4	384
NMTAP	66	0	5
NMHLD	67	0	5	384
NMHLD	68	0	4	384
NMHLD	69	0	3	384
NMTAP	70	0	2
NMTAP	71	0	4
NMTAP	71	0	5
NMTAP	71	192	4
NMTAP	71	192	5
NMTAP	72	0	6
NMTAP	72	96	6
NMTAP	72	192	6
NMTAP	73	0	0
NMTAP	73	0	7
NMTAP	73	192	0
NMTAP	73	192	7
NMTAP	74	0	1
NMTAP	74	96	1
NMTAP	74	192	1
NMTAP	75	0	2
NMTAP	75	0	3
NMTAP	75	192	2
NMTAP	75	192	3
NMTAP	76	0	1
NMTAP	76	96	1
NMTAP	76	192	1
NMTAP	77	0	0
NMTAP	77	0	7
NMTAP	77	192	0
NMTAP	77	192	7
NMTAP	78	0	1
NMTAP	78	0	6
NMSTR	79	0	7
NMSI_	79	0	7	96	288	4
NMTAP	80	192	3
NMSTR	81	0	3
NMSI_	81	0	3	96	288	0
NMTAP	82	192	7
NMSTR	83	0	6
NMSI_	83	0	6	96	288	2
NMTAP	84	192	1
NMSTR	85	0	0
NMSI_	85	0	0	96	288	4
NMTAP	86	192	3
NMTAP	86	192	4
NMTAP	87	0	2
NMTAP	87	96	2
NMTAP	87	192	0
NMTAP	87	192	1
NMTAP	87	288	0
NMTAP	87	288	1
NMTAP	88	0	7
NMTAP	88	96	7
NMTAP	88	192	6
NMTAP	88	192	7
NMTAP	89	0	5
NMTAP	89	96	5
NMTAP	89	192	6
NMTAP	89	192	7
NMTAP	89	288	6
NMTAP	89	288	7
NMTAP	90	0	0
NMTAP	90	96	0
NMTAP	90	192	0
NMTAP	90	192	1
NMTAP	91	0	1
NMTAP	91	96	1
NMTAP	91	192	2
NMTAP	91	192	3
NMTAP	91	288	2
NMTAP	91	288	3
NMTAP	92	0	4
NMTAP	92	96	4
NMTAP	92	192	4
NMTAP	92	192	5
NMTAP	93	0	6
NMTAP	93	96	6
NMTAP	93	192	4
NMTAP	93	192	5
NMTAP	93	288	4
NMTAP	93	288	5
NMTAP	94	0	3
NMTAP	94	96	3
NMTAP	94	192	2
NMTAP	94	192	3
NMTAP	95	0	2
NMTAP	95	48	2
NMTAP	95	96	2
NMTAP	95	192	1
NMTAP	95	240	1
NMTAP	95	288	1
NMTAP	96	0	0
NMTAP	96	48	0
NMTAP	96	96	0
NMTAP	96	192	6
NMTAP	96	192	7
NMTAP	97	0	5
NMTAP	97	48	5
NMTAP	97	96	5
NMTAP	97	192	6
NMTAP	97	240	6
NMTAP	97	288	6
NMTAP	98	0	7
NMTAP	98	48	7
NMTAP	98	96	7
NMTAP	98	192	0
NMTAP	98	192	1
NMTAP	99	0	1
NMTAP	99	48	1
NMTAP	99	96	1
NMTAP	99	192	2
NMTAP	99	240	2
NMTAP	99	288	2
NMTAP	100	0	3
NMTAP	100	48	3
NMTAP	100	96	3
NMTAP	100	192	4
NMTAP	100	192	5
NMTAP	101	0	6
NMTAP	101	48	6
NMTAP	101	96	6
NMTAP	101	192	5
NMTAP	101	240	5
NMTAP	101	288	5
NMTAP	102	0	4
NMTAP	102	48	4
NMTAP	102	96	4
BRTAP	102	192	2
BRTAP	102	192	3
NMTAP	103	0	2
NMTAP	103	48	2
NMTAP	103	96	2
NMTAP	103	192	0
NMTAP	103	192	1
NMTAP	103	240	0
NMTAP	103	240	1
NMTAP	103	288	0
NMTAP	103	288	1
NMTAP	104	0	2
NMTAP	104	0	7
NMTAP	104	96	3
NMTAP	104	96	6
NMTAP	104	192	4
NMTAP	104	192	5
NMTAP	105	0	5
NMTAP	105	48	5
NMTAP	105	96	5
NMTAP	105	192	6
NMTAP	105	192	7
NMTAP	105	240	6
NMTAP	105	240	7
NMTAP	105	288	6
NMTAP	105	288	7
NMTAP	106	0	0
NMTAP	106	0	5
NMTAP	106	96	1
NMTAP	106	96	4
NMTAP	106	192	2
NMTAP	106	192	3
NMTAP	107	0	1
NMTAP	107	48	1
NMTAP	107	96	1
NMTAP	107	192	2
NMTAP	107	192	3
NMTAP	107	240	2
NMTAP	107	240	3
NMTAP	107	288	2
NMTAP	107	288	3
NMTAP	108	0	1
NMTAP	108	0	4
NMTAP	108	96	0
NMTAP	108	96	5
NMTAP	108	192	6
NMTAP	108	192	7
NMTAP	109	0	0
NMTAP	109	0	7
NMTAP	109	48	0
NMTAP	109	48	7
NMTAP	109	96	0
NMTAP	109	96	7
NMTAP	109	192	1
NMTAP	109	192	6
NMTAP	109	240	1
NMTAP	109	240	6
NMTAP	109	288	1
NMTAP	109	288	6
NMTAP	110	0	2
NMTAP	110	0	5
NMTAP	110	48	2
NMTAP	110	48	5
NMTAP	110	96	2
NMTAP	110	96	5
NMTAP	110	192	3
NMTAP	110	192	4
NMTAP	110	240	3
NMTAP	110	240	4
NMTAP	110	288	3
NMTAP	110	288	4
NMTAP	111	0	2
NMTAP	111	0	5
BXTAP	111	96	1
BXTAP	111	96	6

T_REC_TAP	325
T_REC_BRK	2
T_REC_XTP	8
T_REC_BXX	4
T_REC_HLD	10
T_REC_XHO	0
T_REC_BHO	0
T_REC_BXH	0
T_REC_STR	6
T_REC_BST	0
T_REC_XST	0
T_REC_XBS	0
T_REC_TTP	30
T_REC_THO	1
T_REC_SLD	6
T_REC_BSL	0
T_REC_ALL	392
T_NUM_TAP	369
T_NUM_BRK	6
T_NUM_HLD	11
T_NUM_SLD	6
T_NUM_ALL	392
T_JUDGE_TAP	375
T_JUDGE_HLD	72
T_JUDGE_SLD	6
T_JUDGE_ALL	453
TTM_EACHPAIRS	83
TTM_SCR_TAP	184500
TTM_SCR_BRK	15600
TTM_SCR_HLD	11000
TTM_SCR_SLD	9000
TTM_SCR_ALL	220100
TTM_SCR_S	212950
TTM_SCR_SS	219500
TTM_RAT_ACV	10027

