VERSION	0.00.00	1.05.00
FES_MODE	0
BPM_DEF	160.000	160.000	160.000	160.000
MET_DEF	4	4
RESOLUTION	384
CLK_DEF	384
COMPATIBLE_CODE	MA2

BPM	0	0	160.000
MET	0	0	4	4

NMSTR	1	0	2
NMSCR	1	0	2	96	480	5
NMHLD	1	0	4	2832
NMSTR	3	0	6
NMSUL	3	0	6	96	480	1
NMSTR	5	0	2
NMSSL	5	0	2	96	480	6
NMSTR	7	0	5
NMSSR	7	0	5	96	480	1
NMTAP	9	0	2
NMTAP	9	0	3
NMHLD	9	96	1	144
NMTAP	9	96	4
NMTAP	9	240	3
NMTAP	9	288	3
NMTAP	10	0	2
NMTAP	10	0	4
NMTAP	10	96	3
NMTAP	10	96	5
NMHLD	10	192	4	96
NMTAP	10	192	6
NMTAP	10	288	5
NMTAP	10	336	4
NMTAP	11	0	4
NMTAP	11	0	5
NMTAP	11	96	3
NMHLD	11	96	6	144
NMTAP	11	240	4
NMTAP	11	288	4
NMTAP	12	0	3
NMTAP	12	0	5
NMTAP	12	96	2
NMTAP	12	96	4
NMTAP	12	192	1
NMTAP	12	192	3
NMTAP	12	240	2
NMTAP	12	288	3
NMTAP	12	336	4
NMHLD	13	0	5	480
NMTAP	13	96	4
NMTAP	13	192	6
NMTAP	13	288	7
NMTAP	14	0	1
NMTAP	14	96	3
NMTAP	14	192	4
NMTAP	14	192	5
NMTAP	14	288	2
NMTAP	14	288	4
NMTAP	15	0	1
NMTAP	15	24	5
NMTAP	15	48	1
NMTAP	15	72	5
NMTAP	15	96	2
NMTAP	15	120	6
NMTAP	15	144	2
NMTAP	15	168	6
NMTAP	15	192	3
NMTAP	15	216	7
NMTAP	15	240	3
NMTAP	15	264	7
NMSTR	15	288	4
NMSI_	15	288	4	96	48	0
NMTAP	15	312	0
NMTAP	15	336	4
NMTAP	15	360	0
BXSTR	16	0	4
NMSI_	16	0	4	96	48	2
NMSI_	16	0	4	96	48	6
BXTAP	16	96	4
BRTAP	16	192	1
BRTAP	16	192	7
BRTAP	16	240	1
BRTAP	16	240	7
NMHLD	17	0	6	96
NMTAP	17	0	7
NMTAP	17	96	4
NMTAP	17	144	4
NMTAP	17	192	5
NMTAP	17	240	4
NMTAP	17	240	6
NMHLD	17	288	4	96
NMTAP	17	288	6
NMTAP	17	336	7
NMTAP	18	0	6
NMTAP	18	48	4
NMTAP	18	48	5
NMTAP	18	144	2
NMTAP	18	144	3
NMTAP	18	192	1
NMTAP	18	240	1
NMSTR	18	288	0
NMSI_	18	288	0	96	48	4
NMTAP	18	288	3
NMTAP	19	0	0
NMTAP	19	0	4
NMTAP	19	96	5
NMTAP	19	144	5
NMTAP	19	240	3
NMTAP	19	240	7
NMTAP	19	288	3
NMTAP	19	288	7
NMTAP	19	336	6
NMTAP	20	0	4
NMTAP	20	0	6
NMTAP	20	48	5
NMTAP	20	96	4
NMTAP	20	96	5
NMSTR	20	144	4
NMSCL	20	144	4	96	48	1
NMTAP	20	144	5
NMTAP	20	192	4
NMTAP	20	192	5
NMTTP	20	240	6	E	0	M1
NMTTP	20	264	7	E	0	M1
NMTTP	20	288	0	E	0	M1
NMTAP	21	0	1
NMTAP	21	24	0
NMTAP	21	48	1
NMTAP	21	96	0
NMTAP	21	96	7
NMTAP	21	144	6
NMTAP	21	144	7
NMTAP	21	192	5
NMTAP	21	240	4
NMTAP	21	240	5
NMTAP	21	288	6
NMTAP	21	336	0
NMTAP	21	336	7
NMTAP	22	0	1
NMTAP	22	24	1
NMTAP	22	72	0
NMSTR	22	96	0
NMSCR	22	96	0	96	48	4
NMSUR	22	96	0	96	48	4
NMTAP	22	144	0
NMTAP	22	144	1
EXTAP	22	288	5
NMTAP	23	0	6
NMTAP	23	24	7
NMTAP	23	48	6
NMSTR	23	96	0
NMSI_	23	96	0	96	48	6
NMTAP	23	96	1
NMTAP	23	144	2
NMHLD	23	192	3	96
NMTAP	23	288	5
NMHLD	23	336	5	144
BXTAP	24	0	6
BRTAP	24	48	6
BRTAP	24	96	0
BRTAP	24	144	1
BRTAP	24	192	2
BRSTR	24	192	7
NMSI_	24	192	7	96	48	3
BXTAP	24	288	3
BXTAP	24	288	7
NMHLD	25	0	1	96
NMTAP	25	96	3
NMTAP	25	144	3
NMTAP	25	192	2
NMTAP	25	240	1
NMTAP	25	240	3
NMTAP	25	288	1
NMHLD	25	288	3	96
NMTAP	25	336	0
NMTAP	26	0	1
NMTAP	26	48	2
NMTAP	26	48	3
NMTAP	26	144	4
NMTAP	26	144	5
NMTAP	26	192	6
NMTAP	26	240	6
NMTAP	26	288	4
NMSTR	26	288	7
NMSI_	26	288	7	96	48	3
NMTAP	27	0	3
NMTAP	27	0	7
NMTAP	27	96	2
NMTAP	27	144	2
NMTAP	27	240	0
NMTAP	27	240	4
NMTAP	27	288	0
NMTAP	27	288	4
NMTAP	27	336	1
NMTAP	28	0	1
NMTAP	28	0	3
NMTAP	28	48	2
NMTAP	28	96	2
NMTAP	28	96	3
NMTAP	28	144	2
NMSTR	28	144	3
NMSCR	28	144	3	96	48	6
NMTAP	28	192	2
NMTAP	28	192	3
NMTTP	28	240	2	E	0	M1
NMTTP	28	264	1	E	0	M1
NMTTP	28	288	0	E	0	M1
NMTAP	29	0	6
NMTAP	29	24	7
NMTAP	29	48	6
NMTAP	29	96	0
NMTAP	29	96	7
NMTAP	29	144	0
NMTAP	29	144	1
NMTAP	29	192	2
NMTAP	29	240	2
NMTAP	29	240	3
NMTAP	29	288	1
NMTAP	29	336	0
NMTAP	29	336	7
NMTAP	30	0	6
NMTAP	30	24	6
NMTAP	30	72	7
NMSTR	30	96	7
NMSCL	30	96	7	96	48	3
NMSUL	30	96	7	96	48	3
NMTAP	30	144	6
NMTAP	30	144	7
EXTAP	30	288	2
NMTAP	31	0	1
NMTAP	31	24	0
NMTAP	31	48	1
NMTAP	31	96	0
NMTAP	31	96	7
NMTAP	31	144	6
NMTAP	31	192	4
NMTAP	31	192	5
NMSTR	31	288	2
NMSI_	31	288	2	96	48	6
NMTAP	31	288	3
NMTAP	31	336	4
BRTAP	32	0	2
BRSTR	32	0	5
NMSI_	32	0	5	96	48	1
BRTAP	32	96	2
BRTAP	32	96	5
BRTAP	32	192	0
BRTAP	32	192	7
BRTAP	32	240	0
BRTAP	32	240	7
NMTAP	33	0	6
NMTAP	33	48	4
NMTAP	33	48	5
NMTAP	33	144	4
NMTAP	33	144	5
NMTAP	33	240	3
NMTAP	33	240	4
NMTAP	33	336	3
NMTAP	33	336	4
NMTAP	34	0	2
NMTAP	34	48	1
NMTAP	34	48	3
NMTAP	34	144	2
NMTAP	34	144	3
NMTAP	34	240	3
NMTAP	34	240	4
NMTAP	34	336	3
NMTAP	34	336	4
NMTAP	35	0	5
NMTAP	35	48	4
NMTAP	35	48	6
NMTAP	35	144	3
NMTAP	35	144	4
NMTAP	35	240	1
NMTAP	35	240	3
NMTAP	35	336	3
NMTAP	35	336	4
NMTAP	36	0	5
NMTAP	36	48	4
NMTAP	36	48	6
NMTAP	36	96	7
NMTAP	36	144	0
NMTAP	36	144	1
EXTAP	36	192	0
EXTAP	36	192	1
NMTAP	36	288	2
NMTAP	36	288	3
NMTAP	36	336	2
NMTAP	36	336	3
NMSTR	37	48	0
NMSI_	37	48	0	96	48	5
EXTAP	37	48	2
NMTAP	37	96	2
NMTAP	37	144	1
EXTAP	37	240	5
NMSTR	37	240	7
NMSI_	37	240	7	96	48	2
NMTAP	37	288	5
NMTAP	37	336	6
NMTAP	38	48	0
EXTAP	38	48	2
NMTAP	38	96	2
NMTAP	38	144	1
NMTAP	38	144	7
NMTAP	38	192	1
NMTAP	38	192	7
NMTAP	38	288	3
NMTAP	38	288	5
NMTAP	38	336	3
NMTAP	38	336	5
NMSTR	39	48	4
NMSCL	39	48	4	96	48	1
EXTAP	39	48	6
NMTAP	39	96	6
NMTAP	39	144	5
EXTAP	39	240	1
NMSTR	39	240	3
NMSCR	39	240	3	96	48	6
NMTAP	39	288	1
NMTAP	39	336	0
EXHLD	40	0	7	96
EXTAP	40	96	6
NMSTR	40	144	7
NMSI_	40	144	7	96	48	3
NMSTR	40	192	0
NMSI_	40	192	0	96	48	2
NMTAP	40	240	7
NMTAP	40	288	0
NMTAP	40	336	4
NMTAP	41	48	1
NMTAP	41	96	0
NMTAP	41	144	7
NMTAP	41	192	0
NMTAP	41	192	6
NMTAP	41	288	1
NMTAP	41	288	7
NMTAP	42	0	0
NMTAP	42	0	5
NMTAP	42	48	6
NMTAP	42	96	7
NMTAP	42	144	0
NMTAP	42	192	2
NMTAP	42	192	7
NMTAP	42	288	0
NMTAP	42	288	5
NMTAP	43	0	0
NMHLD	43	0	4	384
NMTTP	43	96	7	B	0	M1
NMTTP	43	96	7	A	0	M1
NMTTP	43	192	5	B	0	M1
NMTTP	43	192	5	A	0	M1
NMTTP	43	288	3	B	0	M1
NMTTP	43	288	3	A	0	M1
NMTTP	44	0	1	B	0	M1
NMTTP	44	0	1	A	0	M1
NMTAP	44	96	5
NMTAP	44	144	0
NMTAP	44	144	6
NMTAP	44	240	1
NMTAP	44	240	7
NMTAP	44	336	4
NMTAP	44	336	5
EXTAP	45	48	5
NMSTR	45	48	7
NMSCR	45	48	7	96	48	2
NMTAP	45	96	5
NMTAP	45	144	6
NMSTR	45	240	0
NMSCL	45	240	0	96	48	5
EXTAP	45	240	2
NMTAP	45	288	2
NMTAP	45	336	1
EXTAP	46	48	5
NMTAP	46	48	7
NMTAP	46	96	5
NMTAP	46	96	7
NMTAP	46	144	4
NMSTR	46	192	0
NMSI_	46	192	0	96	48	3
NMSTR	46	240	4
NMSI_	46	240	4	96	48	7
NMTAP	46	288	0
NMTAP	46	336	4
NMSTR	47	48	2
NMSUR	47	48	2	96	48	6
NMSTR	47	144	6
NMSCR	47	144	6	96	48	1
EXHLD	47	240	7	96
NMTTP	48	0	2	E	0	M1
NMTTP	48	24	2	B	0	M1
NMTTP	48	48	3	B	0	M1
NMTTP	48	72	4	E	0	M1
NMTTP	48	96	0	E	0	M1
NMTTP	48	120	7	B	0	M1
NMTTP	48	144	6	B	0	M1
NMTTP	48	168	6	E	0	M1
NMTTP	48	192	0	C	1	M1
NMTAP	49	0	1
NMTAP	49	24	1
NMTAP	49	48	1
NMTAP	49	96	3
NMTAP	49	120	3
NMTAP	49	144	3
NMHLD	49	192	2	48
NMTAP	49	240	3
NMTAP	49	264	3
NMTAP	49	288	3
NMTAP	49	336	1
NMTAP	49	336	4
NMTAP	50	0	0
NMTAP	50	0	5
NMTAP	50	48	6
NMSTR	50	48	7
NMSI_	50	48	7	96	48	4
NMTAP	50	96	5
NMTAP	50	144	4
NMTAP	50	288	6
NMTAP	50	312	6
NMTAP	50	336	6
NMTAP	51	0	4
NMTAP	51	96	3
NMTAP	51	96	5
NMTAP	51	120	3
NMTAP	51	120	5
NMTAP	51	144	3
NMTAP	51	144	5
NMTAP	51	192	2
NMTAP	51	192	4
NMSTR	51	240	0
NMSCR	51	240	0	96	144	6
NMSTR	51	240	6
NMSCL	51	240	6	96	144	0
NMTAP	51	288	7
BXTAP	51	336	0
BXTAP	51	336	6
NMTAP	52	192	1
NMTAP	52	192	5
NMTAP	52	288	2
NMTAP	52	288	6
NMHLD	53	0	0	96
NMHLD	53	0	7	96
NMTAP	53	144	2
NMTAP	53	144	5
BRTAP	53	192	3
BRTAP	53	192	4
NMTTP	53	288	2	E	0	M1
NMTTP	53	288	2	A	0	M1
NMTTP	53	288	5	A	0	M1
NMTTP	53	288	6	E	0	M1
EXSTR	54	0	0
NMSCR	54	0	0	96	48	3
NMSV_	54	0	0	96	48	3
NMTAP	54	24	1
NMTAP	54	24	7
NMTAP	54	48	2
NMTAP	54	48	6
BXSTR	54	96	0
NMSCL	54	96	0	96	48	5
NMSV_	54	96	0	96	48	5
BXTAP	54	192	0
EXTAP	54	288	2
EXTAP	54	288	4
NMTAP	54	336	2
NMTAP	54	336	4
NMSTR	55	48	1
NMSI_	55	48	1	96	48	4
NMSTR	55	48	5
NMSI_	55	48	5	96	48	0
BRTAP	55	144	1
BRTAP	55	144	5
EXTAP	55	240	0
NMTAP	55	264	1
NMTAP	55	288	2
NMTAP	55	312	3
NMTAP	55	336	4
NMTAP	55	360	5
NMSTR	56	0	2
NMSI_	56	0	2	96	48	4
EXTAP	56	0	6
NMTAP	56	96	2
NMSTR	56	96	6
NMSI_	56	96	6	96	48	0
NMTAP	56	144	7
NMTAP	56	192	2
NMTAP	56	192	6
NMTAP	56	288	3
NMTAP	56	288	7
NMTAP	56	336	3
NMTAP	56	336	7
NMTAP	57	48	1
NMTAP	57	48	5
NMSTR	57	96	0
NMSV_	57	96	0	96	48	3
NMSTR	57	96	6
NMSV_	57	96	6	96	48	3
NMTAP	57	192	0
NMTAP	57	192	6
EXTAP	57	288	2
EXTAP	57	288	3
NMTAP	58	0	1
NMTAP	58	24	0
NMTAP	58	48	1
NMSTR	58	96	6
NMSCL	58	96	6	96	48	3
NMSTR	58	96	7
NMSUL	58	96	7	96	48	2
NMTAP	58	192	6
NMTAP	58	192	7
NMTAP	58	288	1
NMSTR	58	336	0
NMSI_	58	336	0	96	48	5
NMSTR	58	336	7
NMSCL	58	336	7	96	48	5
NMSTR	59	48	0
NMSCR	59	48	0	96	48	2
NMSTR	59	48	7
NMSI_	59	48	7	96	48	2
NMTAP	59	144	0
NMTAP	59	144	7
NMTAP	59	240	3
NMTAP	59	240	4
NMSTR	59	288	5
NMSI_	59	288	5	96	48	0
NMTAP	59	336	4
EXTAP	60	0	5
NMSTR	60	48	2
NMSI_	60	48	2	96	48	7
NMTAP	60	96	7
EXTAP	60	144	2
NMTAP	60	240	6
NMTAP	60	288	6
NMTAP	60	288	7
NMTAP	60	336	6
NMTAP	60	336	7
NMTAP	61	0	0
NMTAP	61	0	5
NMTAP	61	96	2
NMTAP	61	96	3
BRSTR	61	144	2
NMSUL	61	144	2	96	96	5
BRTAP	61	144	3
NMTTP	61	240	2	D	0	M1
NMTTP	61	264	1	D	0	M1
NMTTP	61	288	0	D	0	M1
NMTTP	61	312	7	D	0	M1
NMTTP	61	336	6	D	0	M1
EXSTR	62	0	7
NMSCL	62	0	7	96	48	4
NMSCR	62	0	7	96	48	2
NMTAP	62	48	1
NMTAP	62	48	5
BXSTR	62	96	7
NMSF_	62	96	7	96	48	3
BXTAP	62	192	7
EXTAP	62	288	2
NMTAP	62	336	3
NMTAP	62	336	5
NMSTR	63	48	2
NMSI_	63	48	2	96	48	7
NMSTR	63	48	6
NMSI_	63	48	6	96	48	3
BRTAP	63	144	2
BRTAP	63	144	6
EXTAP	63	240	7
NMTAP	63	264	6
NMTAP	63	288	5
NMTAP	63	312	4
NMTAP	63	336	3
NMTAP	63	360	2
EXTAP	64	0	1
NMSTR	64	0	5
NMSI_	64	0	5	96	48	3
NMSTR	64	96	1
NMSI_	64	96	1	96	48	7
NMTAP	64	96	5
NMTAP	64	144	0
NMTAP	64	192	1
NMTAP	64	192	5
NMTAP	64	288	0
NMTAP	64	288	4
NMTAP	64	336	0
NMTAP	64	336	4
NMTAP	65	48	2
NMTAP	65	48	6
NMSTR	65	96	1
NMSV_	65	96	1	96	48	4
NMSTR	65	96	7
NMSV_	65	96	7	96	48	4
NMTAP	65	192	1
NMTAP	65	192	7
EXTAP	65	288	4
EXTAP	65	288	5
NMTAP	66	0	6
NMTAP	66	24	7
NMTAP	66	48	6
NMSTR	66	96	0
NMSI_	66	96	0	96	48	4
NMSTR	66	96	1
NMSI_	66	96	1	96	48	5
NMTAP	66	192	0
NMTAP	66	192	1
EXTAP	66	288	5
NMSTR	66	336	3
NMSCL	66	336	3	96	48	1
NMSTR	66	336	4
NMSI_	66	336	4	96	48	1
NMSTR	67	48	3
NMSI_	67	48	3	96	48	6
NMSTR	67	48	4
NMSCR	67	48	4	96	48	6
NMTAP	67	144	3
NMTAP	67	144	4
NMTAP	67	240	7
NMSTR	67	288	1
NMSCR	67	288	1	96	48	4
NMTAP	67	336	0
NMTAP	68	0	1
NMSTR	68	48	6
NMSCL	68	48	6	96	48	3
NMTAP	68	96	7
NMTAP	68	144	6
NMTAP	68	240	1
NMTAP	68	240	5
BXTAP	68	336	7
EXTAP	68	352	0
EXTAP	68	352	6
EXTAP	68	368	1
EXTAP	68	368	5
EXTAP	69	0	2
EXTAP	69	0	4
NMTAP	69	96	4
NMSTR	69	144	4
BRSF_	69	144	4	96	48	0
NMTTP	69	288	0	E	0	M1
NMTTP	69	288	0	A	1	M1
NMTTP	69	288	1	E	0	M1
NMSTR	70	0	6
NMSI_	70	0	6	96	48	4
NMTAP	70	24	7
NMTAP	70	48	6
NMTAP	70	96	0
NMTAP	70	144	2
NMTAP	70	192	3
NMTAP	70	240	4
NMTAP	70	240	5
NMTAP	70	288	6
NMTAP	70	336	7
NMTAP	71	0	0
NMTAP	71	0	1
NMTAP	71	48	2
NMTAP	71	96	3
NMTAP	71	96	4
NMTAP	71	144	4
NMTAP	71	144	5
NMSTR	71	192	6
NMSCL	71	192	6	96	48	3
NMTAP	71	240	3
NMTAP	71	288	0
NMTAP	71	288	6
NMSTR	72	0	1
NMSI_	72	0	1	96	48	3
NMTAP	72	24	0
NMTAP	72	48	1
NMTAP	72	96	7
NMTAP	72	144	6
NMTAP	72	192	5
NMTAP	72	240	4
NMTAP	72	240	5
NMTAP	72	288	6
NMTAP	72	288	7
NMTAP	72	336	0
NMTAP	72	336	1
NMTAP	73	0	2
NMTAP	73	48	1
NMTAP	73	48	4
NMTAP	73	96	0
NMTAP	73	96	5
NMTAP	73	144	6
NMSTR	73	144	7
NMSI_	73	144	7	96	48	2
NMTAP	73	192	0
NMTAP	73	192	5
EXTAP	73	240	6
EXTAP	73	240	7
NMTTP	73	256	5	B	0	M1
NMTTP	73	272	4	B	0	M1
NMTTP	73	288	4	E	0	M1
NMTAP	74	0	1
NMTAP	74	24	1
NMTAP	74	48	0
NMTAP	74	96	6
NMTAP	74	96	7
NMTAP	74	144	5
NMTAP	74	192	4
NMTAP	74	240	2
NMTAP	74	256	3
NMTAP	74	272	2
NMTAP	74	288	3
NMTAP	74	336	0
NMTAP	74	336	1
NMTAP	75	0	6
NMHLD	75	24	6	48
NMTAP	75	72	7
NMSTR	75	96	7
NMSI_	75	96	7	96	48	3
NMTAP	75	144	5
NMTAP	75	192	5
NMTAP	75	192	7
EXTAP	75	288	2
EXTAP	75	288	4
NMTAP	76	0	1
NMTAP	76	24	1
NMTAP	76	48	0
NMTAP	76	96	0
NMTAP	76	96	7
NMTAP	76	144	6
NMTAP	76	144	7
NMSTR	76	192	4
NMSI_	76	192	4	96	48	0
NMSTR	76	192	5
NMSI_	76	192	5	96	48	0
NMTAP	76	288	4
NMTAP	76	288	5
BRHLD	77	0	1	48
BRHLD	77	48	3	48
BRHLD	77	96	5	48
BRHLD	77	144	7	48
BRSTR	77	192	1
NMSI_	77	192	1	96	48	4
NMSI_	77	192	1	96	48	6
BXTAP	77	288	1
NMSTR	78	0	5
NMSI_	78	0	5	96	48	7
NMTAP	78	24	4
NMTAP	78	48	5
NMTAP	78	96	3
NMTAP	78	144	1
NMTAP	78	192	0
NMTAP	78	240	6
NMTAP	78	240	7
NMTAP	78	288	5
NMTAP	78	336	4
NMTAP	79	0	2
NMTAP	79	0	3
NMTAP	79	48	1
NMTAP	79	96	0
NMTAP	79	96	7
NMTAP	79	144	6
NMTAP	79	144	7
NMSTR	79	192	5
NMSCR	79	192	5	96	48	0
NMTAP	79	240	0
NMTAP	79	288	3
NMTAP	79	288	5
NMSTR	80	0	2
NMSI_	80	0	2	96	48	7
NMTAP	80	24	3
NMTAP	80	48	2
NMTAP	80	96	4
NMTAP	80	144	5
NMTAP	80	192	6
NMTAP	80	240	6
NMTAP	80	240	7
NMTAP	80	288	4
NMTAP	80	288	5
NMTAP	80	336	2
NMTAP	80	336	3
NMTAP	81	0	1
NMTAP	81	48	2
NMTAP	81	48	7
NMTAP	81	96	3
NMTAP	81	96	6
NMSTR	81	144	4
NMSI_	81	144	4	96	48	1
NMTAP	81	144	5
NMTAP	81	192	3
NMTAP	81	192	6
EXTAP	81	240	4
EXTAP	81	240	5
NMTTP	81	256	6	B	0	M1
NMTTP	81	272	7	B	0	M1
NMTTP	81	288	0	E	0	M1
NMTAP	82	0	2
NMTAP	82	24	2
NMTAP	82	48	3
NMTAP	82	96	4
NMTAP	82	96	5
NMTAP	82	144	6
NMTAP	82	192	7
NMTAP	82	240	1
NMTAP	82	256	0
NMTAP	82	272	1
NMTAP	82	288	0
NMTAP	82	336	2
NMTAP	82	336	3
NMTAP	83	0	5
NMHLD	83	24	5	48
NMTAP	83	72	4
NMSTR	83	96	4
NMSI_	83	96	4	96	48	1
NMTAP	83	144	6
NMTAP	83	192	4
NMTAP	83	192	6
EXTAP	83	288	1
EXTAP	83	288	7
NMTAP	84	0	2
NMTAP	84	24	2
NMTAP	84	48	3
NMTAP	84	96	4
NMTAP	84	96	5
NMTAP	84	144	6
NMTAP	84	144	7
NMTAP	84	192	0
NMTAP	84	192	1
NMSTR	84	288	3
BRSCL	84	288	3	96	48	1
NMSTR	84	288	4
BRSCR	84	288	4	96	48	6
NMTAP	84	336	2
NMTAP	84	336	5
BXSTR	85	0	3
BRSSR	85	0	3	96	48	7
BXSTR	85	0	4
BRSSL	85	0	4	96	48	0
BXTAP	85	96	3
BXTAP	85	96	4
BRTAP	85	192	1
BRTAP	85	192	6
BRTAP	85	240	1
BRTAP	85	240	6
NMSTR	86	0	2
NMSCR	86	0	2	96	192	5
NMTAP	86	0	5
NMTAP	87	0	1
NMSTR	87	0	6
NMSUL	87	0	6	96	192	1
NMSTR	88	0	2
NMSSL	88	0	2	96	240	6
NMTAP	88	0	5
NMHLD	89	0	2	768
NMHLD	89	0	5	768

T_REC_TAP	509
T_REC_BRK	26
T_REC_XTP	41
T_REC_BXX	12
T_REC_HLD	19
T_REC_XHO	2
T_REC_BHO	4
T_REC_BXH	0
T_REC_STR	74
T_REC_BST	4
T_REC_XST	2
T_REC_XBS	5
T_REC_TTP	41
T_REC_THO	0
T_REC_SLD	87
T_REC_BSL	5
T_REC_ALL	831
T_NUM_TAP	667
T_NUM_BRK	56
T_NUM_HLD	21
T_NUM_SLD	87
T_NUM_ALL	831
T_JUDGE_TAP	714
T_JUDGE_HLD	145
T_JUDGE_SLD	92
T_JUDGE_ALL	951
TTM_EACHPAIRS	212
TTM_SCR_TAP	333500
TTM_SCR_BRK	145600
TTM_SCR_HLD	21000
TTM_SCR_SLD	130500
TTM_SCR_ALL	630600
TTM_SCR_S	606250
TTM_SCR_SS	625000
TTM_RAT_ACV	10089

