VERSION	0.00.00	1.05.00
FES_MODE	0
BPM_DEF	160.000	160.000	160.000	160.000
MET_DEF	4	4
RESOLUTION	384
CLK_DEF	384
COMPATIBLE_CODE	MA2

BPM	0	0	160.000
MET	0	0	4	4

BRSTR	1	0	2
NMSCR	1	0	2	96	288	5
NMSTR	3	0	5
NMSCL	3	0	5	96	288	2
NMHLD	5	0	2	384
NMTTP	5	192	3	E	0	M1
NMHLD	6	0	5	384
NMTTP	6	192	5	E	0	M1
NMSTR	7	0	1
NMSCR	7	0	1	96	288	4
NMTHO	8	0	0	192	C	0	M1
CNSCL	8	0	4	0	288	1
NMTAP	9	0	0
NMHLD	9	96	1	192
NMTAP	9	96	7
NMTAP	9	240	0
NMTAP	9	288	0
NMTAP	10	0	7
NMTAP	10	96	0
NMHLD	10	96	6	192
NMTAP	10	240	7
NMTAP	10	288	7
NMTAP	11	0	5
NMHLD	11	96	2	192
NMTAP	11	96	4
NMTAP	11	240	3
NMTAP	11	288	3
NMTAP	12	0	2
NMTAP	12	96	3
NMHLD	12	96	5	192
NMTAP	12	240	4
NMTAP	12	288	4
NMHLD	13	0	1	96
NMTAP	13	96	3
NMHLD	13	192	5	96
NMTAP	13	288	3
NMHLD	14	0	2	96
NMTAP	14	96	3
NMTAP	14	192	1
NMTAP	14	192	4
NMTAP	14	288	1
NMTAP	14	288	4
NMTAP	15	0	2
NMTAP	15	48	2
NMHLD	15	96	2	96
NMTAP	15	192	3
NMTAP	15	240	3
NMHLD	15	288	3	96
NMTTP	16	0	3	E	1	M1
NMTTP	16	96	4	E	1	M1
NMTTP	16	192	5	E	1	M1
BRTAP	16	288	0
BRTAP	16	288	6
NMHLD	17	0	6	96
NMTAP	17	0	7
NMTAP	17	96	2
NMTAP	17	192	0
NMHLD	17	192	1	96
NMTAP	17	288	5
NMHLD	18	0	6	96
NMTAP	18	0	7
NMTAP	18	96	2
NMTAP	18	192	0
NMHLD	18	192	1	96
NMTAP	18	288	5
NMTAP	19	0	2
NMTAP	19	0	7
NMTAP	19	96	2
NMTAP	19	96	7
NMTAP	19	192	0
NMTAP	19	192	5
NMTAP	19	288	2
NMTAP	19	288	7
NMTAP	20	0	0
NMTAP	20	0	5
NMTAP	20	96	0
NMTAP	20	96	5
NMTAP	20	192	2
NMTAP	20	192	7
NMTAP	20	288	0
NMTAP	20	288	5
NMTAP	21	0	6
NMTAP	21	0	7
NMTAP	21	96	6
NMTAP	21	96	7
NMTAP	21	192	1
NMTAP	21	192	3
NMTAP	21	288	6
NMTAP	21	288	7
NMTAP	22	0	0
NMTAP	22	0	1
NMTAP	22	96	0
NMTAP	22	96	1
NMTAP	22	192	4
NMTAP	22	192	6
NMTAP	22	288	0
NMTAP	22	288	1
NMTAP	23	0	6
NMHLD	23	0	7	96
NMHLD	23	96	0	96
NMTAP	23	192	1
NMTAP	23	288	2
NMTAP	23	288	5
NMHLD	24	0	0	96
NMTAP	24	0	1
NMHLD	24	96	7	96
NMTAP	24	192	6
NMTAP	24	288	2
NMTAP	24	288	5
NMTAP	25	0	0
NMHLD	25	0	1	96
NMTAP	25	96	5
NMHLD	25	192	6	96
NMTAP	25	192	7
NMTAP	25	288	2
NMTAP	26	0	0
NMHLD	26	0	1	96
NMTAP	26	96	5
NMHLD	26	192	6	96
NMTAP	26	192	7
NMTAP	26	288	2
NMTAP	27	0	0
NMTAP	27	0	5
NMTAP	27	96	0
NMTAP	27	96	5
NMTAP	27	192	2
NMTAP	27	192	7
NMTAP	27	288	0
NMTAP	27	288	5
NMTAP	28	0	2
NMTAP	28	0	7
NMTAP	28	96	2
NMTAP	28	96	7
NMTAP	28	192	0
NMTAP	28	192	5
NMTAP	28	288	2
NMTAP	28	288	7
NMTAP	29	0	0
NMTAP	29	0	1
NMTAP	29	96	0
NMTAP	29	96	1
NMTAP	29	192	4
NMTAP	29	192	6
NMTAP	29	288	0
NMTAP	29	288	1
NMTAP	30	0	6
NMTAP	30	0	7
NMTAP	30	96	6
NMTAP	30	96	7
NMTAP	30	192	1
NMTAP	30	192	3
NMTAP	30	288	6
NMTAP	30	288	7
NMTAP	31	0	4
NMTAP	31	0	6
NMTAP	31	96	3
NMTAP	31	96	4
NMTAP	31	192	1
NMTAP	31	192	3
NMTAP	31	288	0
NMTAP	31	288	1
BRTAP	32	0	0
BRTAP	32	0	1
BRTAP	32	96	3
BRTAP	32	96	4
BRTAP	32	192	2
BRTAP	32	192	6
BRTAP	32	240	2
BRTAP	32	240	6
NMSTR	33	0	5
NMSCL	33	0	5	96	96	2
NMTAP	33	192	1
NMTAP	33	288	1
NMSTR	34	0	2
NMSCR	34	0	2	96	96	5
NMTAP	34	192	6
NMTAP	34	288	6
NMSTR	35	0	6
NMSCL	35	0	6	96	96	3
NMSTR	35	192	2
NMSCL	35	192	2	96	96	7
NMTAP	36	0	6
NMTAP	36	96	5
NMTAP	36	192	4
NMTAP	36	192	6
NMTAP	36	288	7
NMTAP	36	336	7
BRTAP	37	0	1
BRTAP	37	0	7
NMTAP	37	96	4
NMTAP	37	96	5
NMTAP	37	144	4
NMHLD	37	144	5	96
NMTAP	37	240	3
NMTAP	37	288	2
NMHLD	37	336	1	96
NMTAP	38	48	7
NMTAP	38	96	7
NMSTR	38	192	0
NMSV_	38	192	0	96	48	5
NMTAP	39	0	4
NMTAP	39	0	6
NMTAP	39	96	3
NMTAP	39	96	4
NMTAP	39	192	1
NMTAP	39	192	3
NMTAP	39	288	1
NMTAP	39	288	3
NMSTR	40	0	0
NMSI_	40	0	0	96	48	4
NMSTR	40	0	7
NMSI_	40	0	7	96	48	5
BXTAP	40	192	3
BXTAP	40	192	6
NMSTR	41	0	6
NMSCL	41	0	6	96	96	3
NMSTR	41	192	2
NMSCL	41	192	2	96	96	7
NMTAP	42	0	6
NMTAP	42	96	5
NMHLD	42	144	5	96
NMTAP	42	240	4
NMTAP	42	336	3
NMTAP	42	336	6
NMTAP	43	0	3
NMSTR	43	0	6
NMSCR	43	0	6	96	96	1
NMSTR	43	192	2
NMSCR	43	192	2	96	96	5
NMTAP	44	0	7
NMTAP	44	96	6
NMHLD	44	144	6	96
NMTAP	44	240	4
NMTAP	44	336	3
NMTAP	44	336	5
BRTAP	45	0	3
BRTAP	45	0	5
NMTAP	45	96	0
NMTAP	45	96	1
NMTAP	45	144	0
NMHLD	45	144	1	96
NMTAP	45	240	7
NMTAP	45	288	6
NMHLD	45	336	5	96
NMTAP	46	48	3
NMTAP	46	96	3
NMTAP	46	192	2
NMSTR	46	192	4
NMSV_	46	192	4	96	48	1
BXTAP	47	0	0
NMTAP	47	96	0
NMTAP	47	96	1
NMTAP	47	144	0
NMTAP	47	144	1
NMTAP	47	240	6
NMTAP	47	240	7
NMTAP	47	336	4
NMTAP	47	336	5
NMSTR	48	0	4
NMSI_	48	0	4	96	48	0
NMSTR	48	0	5
NMSI_	48	0	5	96	48	1
BRTAP	48	192	2
BRTAP	48	192	7
NMTAP	49	0	5
NMTAP	49	48	5
NMTAP	49	96	4
NMTAP	49	144	6
NMTAP	49	192	2
NMTAP	49	240	2
NMTAP	49	288	3
NMTAP	49	336	1
NMHLD	50	0	0	192
NMSTR	50	0	5
NMSCL	50	0	5	96	96	2
NMTAP	50	288	0
NMTAP	50	288	1
NMTAP	51	0	2
NMTAP	51	48	2
NMTAP	51	96	3
NMTAP	51	144	1
NMTAP	51	192	5
NMTAP	51	240	5
NMTAP	51	288	4
NMTAP	51	336	6
NMSTR	52	0	2
NMSCR	52	0	2	96	96	5
NMHLD	52	0	7	192
NMTAP	52	288	6
NMTAP	52	288	7
BRHLD	53	0	0	96
BRHLD	53	0	1	96
BXTAP	53	144	2
BXTAP	53	144	7
BXSTR	53	192	2
BRSI_	53	192	2	96	48	5
BXSTR	53	192	7
BRSI_	53	192	7	96	48	4
EXTAP	54	0	6
EXTAP	54	0	7
NMTAP	54	96	0
NMTAP	54	96	1
NMTAP	54	192	2
NMTAP	54	192	3
NMTAP	54	288	4
NMTAP	54	288	5
NMSTR	54	336	4
NMSCL	54	336	4	96	144	0
NMSTR	54	336	5
NMSUL	54	336	5	96	144	7
EXTAP	55	288	1
EXTAP	55	288	5
NMTAP	56	0	6
NMTAP	56	48	6
NMTAP	56	96	4
NMTAP	56	144	5
NMTAP	56	192	3
NMTAP	56	240	2
NMTAP	56	288	1
NMTAP	56	288	3
NMSTR	56	336	1
NMSI_	56	336	1	96	48	4
NMSTR	56	336	3
NMSI_	56	336	3	96	48	7
EXTAP	57	192	5
EXTAP	57	192	6
NMTAP	57	288	3
NMTAP	57	288	4
NMTAP	58	0	1
NMTAP	58	0	3
NMTAP	58	96	6
NMTAP	58	96	7
NMTAP	58	192	0
NMTAP	58	192	1
NMTAP	58	288	2
NMTAP	58	288	3
NMTAP	58	336	2
NMTAP	58	336	3
NMSTR	59	48	4
NMSI_	59	48	4	96	48	0
NMSTR	59	48	5
NMSI_	59	48	5	96	48	0
EXTAP	59	288	2
EXTAP	59	288	7
NMHLD	60	0	5	96
NMTAP	60	96	4
NMTAP	60	144	4
NMTAP	60	240	2
NMTAP	60	240	3
NMTAP	60	336	0
NMTAP	60	336	1
NMTAP	61	48	6
NMTAP	61	48	7
NMTAP	61	96	6
NMTAP	61	96	7
NMSTR	61	144	6
NMSI_	61	144	6	96	48	2
NMTAP	61	144	7
BRTAP	61	288	0
EXTAP	62	0	0
EXTAP	62	0	1
NMTAP	62	96	6
NMTAP	62	96	7
NMTAP	62	192	4
NMTAP	62	192	5
NMTAP	62	288	2
NMTAP	62	288	3
NMSTR	62	336	2
NMSUR	62	336	2	96	144	1
NMSTR	62	336	3
NMSCR	62	336	3	96	144	0
EXTAP	63	288	2
EXTAP	63	288	7
NMTAP	64	0	1
NMTAP	64	48	1
NMTAP	64	96	0
NMTAP	64	144	2
NMHLD	64	192	7	96
NMTAP	64	288	4
NMSTR	64	336	4
NMSI_	64	336	4	96	48	0
EXTAP	65	192	1
EXTAP	65	192	3
NMTAP	65	288	3
NMTAP	65	288	4
NMTAP	66	0	4
NMTAP	66	0	6
NMTAP	66	96	0
NMTAP	66	96	1
NMTAP	66	192	6
NMTAP	66	192	7
NMTAP	66	288	4
NMTAP	66	288	5
NMTAP	66	336	4
NMTAP	66	336	5
NMSTR	67	48	2
NMSI_	67	48	2	96	48	6
NMSTR	67	48	3
NMSI_	67	48	3	96	48	7
EXTAP	67	288	0
EXTAP	67	288	5
NMHLD	68	0	0	96
NMTAP	68	144	1
NMTAP	68	144	7
NMTAP	68	240	3
NMTAP	68	240	5
NMTAP	68	336	0
NMTAP	68	336	6
NMTAP	69	48	1
NMTAP	69	48	5
NMTTP	69	144	0	C	1	M1
NMTTP	69	144	2	B	0	M1
NMTTP	69	144	2	E	0	M1
NMTTP	69	144	3	B	0	M1
NMTTP	69	144	4	B	0	M1
NMTTP	69	144	5	E	0	M1
BXTAP	69	288	0
BXSTR	69	288	6
NMSI_	69	288	6	96	48	4
NMSTR	70	0	7
NMSI_	70	0	7	96	48	3
NMSTR	70	96	6
NMSI_	70	96	6	96	48	2
NMSTR	70	192	7
NMSI_	70	192	7	96	48	1
NMSTR	70	288	6
NMSI_	70	288	6	96	48	4
NMSTR	71	0	7
NMSI_	71	0	7	96	48	3
NMTAP	71	96	6
NMTAP	71	192	0
NMTAP	71	192	5
NMSTR	71	288	2
NMSI_	71	288	2	96	48	4
NMTAP	71	288	7
NMSTR	72	0	6
NMSI_	72	0	6	96	48	0
NMSTR	72	96	2
NMSCR	72	96	2	96	48	4
NMSTR	72	192	6
NMSCR	72	192	6	96	48	0
NMSTR	72	288	2
NMSI_	72	288	2	96	48	7
NMSTR	73	0	6
NMSI_	73	0	6	96	48	3
NMSTR	73	96	2
NMSCL	73	96	2	96	96	5
BRTAP	73	192	4
NMTAP	74	0	5
NMTAP	74	48	5
NMTAP	74	96	4
NMTAP	74	96	6
NMTAP	74	192	2
NMTAP	74	240	2
NMTAP	74	288	1
NMTAP	74	288	3
BRTAP	75	0	0
BRTAP	75	0	6
NMTAP	75	96	1
NMTAP	75	96	7
NMTAP	75	144	2
NMTAP	75	144	6
NMTAP	75	192	3
NMTAP	75	192	5
NMTAP	75	288	3
NMTAP	75	288	5
NMTAP	76	0	2
NMTAP	76	48	2
NMTAP	76	96	1
NMTAP	76	96	3
NMTAP	76	192	5
NMTAP	76	240	5
NMTAP	76	288	4
NMTAP	76	288	6
NMTAP	77	0	1
NMTAP	77	0	7
NMTAP	77	48	1
NMTAP	77	48	7
NMTAP	77	96	1
NMTAP	77	96	7
NMTAP	77	144	1
NMTAP	77	144	7
BRTAP	77	192	2
BRTAP	77	192	6
BXSTR	77	288	1
NMSI_	77	288	1	96	48	3
NMSTR	78	0	0
NMSI_	78	0	0	96	48	4
NMSTR	78	96	1
NMSI_	78	96	1	96	48	5
NMSTR	78	192	0
NMSI_	78	192	0	96	48	6
NMSTR	78	288	1
NMSI_	78	288	1	96	48	3
NMSTR	79	0	0
NMSI_	79	0	0	96	48	4
NMTAP	79	96	1
NMTAP	79	192	2
NMTAP	79	192	7
NMTAP	79	288	0
NMSTR	79	288	5
NMSI_	79	288	5	96	48	3
NMSTR	80	0	1
NMSI_	80	0	1	96	48	7
NMSTR	80	96	5
NMSCL	80	96	5	96	48	3
NMSTR	80	192	1
NMSCL	80	192	1	96	48	7
NMSTR	80	288	5
NMSI_	80	288	5	96	48	0
NMSTR	81	0	1
NMSI_	81	0	1	96	48	4
NMSTR	81	96	5
NMSCR	81	96	5	96	96	2
BRTAP	81	192	3
NMTAP	82	0	2
NMTAP	82	48	2
NMTAP	82	96	3
NMTAP	82	144	1
NMTAP	82	192	7
NMTAP	82	240	7
NMTAP	82	288	0
NMTAP	82	288	6
NMTAP	83	0	5
NMTAP	83	48	5
NMTAP	83	96	4
NMTAP	83	144	6
NMTAP	83	192	0
NMTAP	83	240	0
NMTAP	83	288	1
NMTAP	83	288	7
NMSTR	84	0	2
NMSI_	84	0	2	96	48	6
NMSTR	84	0	3
NMSI_	84	0	3	96	48	7
NMSTR	84	192	4
NMSI_	84	192	4	96	48	0
NMSTR	84	192	5
NMSI_	84	192	5	96	48	1
BRSTR	85	0	2
BRSI_	85	0	2	96	48	7
BRSTR	85	0	6
BRSI_	85	0	6	96	48	3
BXTAP	85	192	0
BXTAP	85	192	4
BXTAP	85	240	0
BXTAP	85	240	4
BXSTR	85	288	0
BRSCR	85	288	0	96	576	6
BXTAP	85	288	4
NMTHO	86	0	0	384	C	0	M1
NMHLD	88	0	6	384
NMSTR	88	288	7
NMSI_	88	288	7	96	96	3

T_REC_TAP	319
T_REC_BRK	23
T_REC_XTP	16
T_REC_BXX	11
T_REC_HLD	35
T_REC_XHO	0
T_REC_BHO	2
T_REC_BXH	0
T_REC_STR	59
T_REC_BST	3
T_REC_XST	0
T_REC_XBS	5
T_REC_TTP	11
T_REC_THO	2
T_REC_SLD	62
T_REC_BSL	5
T_REC_ALL	553
T_NUM_TAP	405
T_NUM_BRK	49
T_NUM_HLD	37
T_NUM_SLD	62
T_NUM_ALL	553
T_JUDGE_TAP	447
T_JUDGE_HLD	116
T_JUDGE_SLD	67
T_JUDGE_ALL	630
TTM_EACHPAIRS	157
TTM_SCR_TAP	202500
TTM_SCR_BRK	127400
TTM_SCR_HLD	37000
TTM_SCR_SLD	93000
TTM_SCR_ALL	459900
TTM_SCR_S	441350
TTM_SCR_SS	455000
TTM_RAT_ACV	10107

