VERSION	0.00.00	1.05.00
FES_MODE	0
BPM_DEF	180.000	180.000	180.000	180.000
MET_DEF	4	4
RESOLUTION	384
CLK_DEF	384
COMPATIBLE_CODE	MA2

BPM	0	0	180.000
MET	0	0	4	4

NMTAP	1	0	2
NMTAP	1	48	3
NMTAP	1	96	4
NMTAP	1	144	5
NMTAP	1	192	5
NMTAP	1	240	4
NMTAP	1	288	3
NMTAP	1	336	2
NMTAP	2	0	2
NMTAP	2	48	3
NMTAP	2	96	4
NMTAP	2	144	5
NMTAP	2	192	4
NMTAP	2	240	3
NMTAP	2	288	2
NMTAP	2	288	4
NMTAP	3	0	5
NMTAP	3	48	4
NMTAP	3	96	3
NMTAP	3	144	2
NMTAP	3	192	2
NMTAP	3	240	3
NMTAP	3	288	4
NMTAP	3	336	5
NMTAP	4	0	5
NMTAP	4	48	4
NMTAP	4	96	3
NMTAP	4	144	4
NMTAP	4	192	2
NMTAP	4	240	3
NMTAP	4	288	2
NMTAP	4	288	4
NMSTR	5	0	1
NMSCL	5	0	1	96	192	3
NMHLD	5	0	5	672
NMSTR	6	0	2
NMSCR	6	0	2	96	192	0
NMHLD	7	0	1	288
NMSTR	7	0	4
NMSCL	7	0	4	96	192	6
NMSTR	8	0	2
NMSI_	8	0	2	96	48	0
NMSTR	8	0	5
NMSI_	8	0	5	96	48	3
NMTTP	8	192	2	E	0	M1
NMTTP	8	216	3	E	0	M1
NMTTP	8	240	4	E	0	M1
NMTTP	8	264	5	E	0	M1
NMTTP	8	288	6	E	0	M1
NMSTR	9	0	6
NMSCR	9	0	6	96	192	4
NMHLD	9	0	7	672
NMSTR	10	0	5
NMSCL	10	0	5	96	192	6
NMSTR	11	0	0
NMSCR	11	0	0	96	48	3
NMTAP	11	0	7
NMTAP	11	96	6
NMSTR	11	144	5
NMSCR	11	144	5	96	48	0
NMTAP	11	240	3
NMSTR	11	288	2
NMSLR	11	288	2	96	192	1
CNSI_	12	192	1	0	96	5
NMTAP	13	0	6
NMTAP	13	96	6
NMTTP	13	192	4	B	0	M1
NMTTP	13	192	5	E	0	M1
NMTAP	13	192	6
NMTAP	13	288	6
NMTTP	14	0	0	C	0	M1
NMTAP	14	0	6
NMTAP	14	96	6
NMTTP	14	192	2	B	0	M1
NMTTP	14	192	3	E	0	M1
NMTAP	14	192	6
NMTAP	14	288	1
NMTTP	15	0	0	E	0	M1
NMTAP	15	0	1
NMTTP	15	0	7	B	0	M1
NMTAP	15	96	1
NMTAP	15	192	1
NMTTP	15	192	5	B	0	M1
NMTTP	15	192	6	E	0	M1
NMTAP	15	288	1
NMTAP	16	0	1
NMTTP	16	0	3	B	0	M1
NMTTP	16	0	4	E	0	M1
NMTAP	16	96	1
NMTTP	16	192	0	C	0	M1
NMTAP	16	192	1
NMTAP	16	288	0
NMTAP	16	288	6
NMTAP	17	0	5
NMTAP	17	48	5
NMTAP	17	96	4
NMTAP	17	144	4
NMTAP	17	192	7
NMTAP	17	240	7
NMTAP	17	288	0
NMTAP	17	336	0
NMTAP	18	0	3
NMTAP	18	48	3
NMTAP	18	96	2
NMTAP	18	144	2
NMTAP	18	192	5
NMTAP	18	240	5
NMTAP	18	288	4
NMTAP	18	336	4
NMTAP	19	0	6
NMTAP	19	24	3
NMTAP	19	48	6
NMTAP	19	72	3
NMTAP	19	96	5
NMTAP	19	120	2
NMTAP	19	144	5
NMTAP	19	168	2
NMTAP	19	192	4
NMTAP	19	216	1
NMTAP	19	240	4
NMTAP	19	264	1
NMTAP	19	288	3
NMTAP	19	312	0
NMTAP	19	336	3
NMTAP	19	360	0
NMSTR	20	0	3
NMSSL	20	0	3	96	96	7
NMSSR	20	0	3	96	96	7
NMTAP	20	288	1
NMTAP	20	288	5
EXTAP	21	0	6
EXTAP	21	0	7
NMTAP	21	48	5
NMTAP	21	96	0
NMTAP	21	96	1
NMTAP	21	144	2
NMSTR	21	192	4
NMSCL	21	192	4	96	48	1
NMTAP	21	192	5
NMTAP	21	240	6
NMTAP	21	288	4
NMTAP	21	288	7
NMSTR	21	336	0
NMSCL	21	336	0	96	48	5
EXTAP	22	0	1
NMTAP	22	48	0
EXSTR	22	96	4
NMSI_	22	96	4	96	48	1
NMSI_	22	96	4	96	48	7
BRTAP	22	192	4
NMTAP	22	288	2
NMTAP	22	288	6
EXTAP	23	0	0
EXTAP	23	0	1
NMTAP	23	48	2
NMTAP	23	96	6
NMTAP	23	96	7
NMTAP	23	144	5
NMTAP	23	192	2
NMSTR	23	192	3
NMSCR	23	192	3	96	48	6
NMTAP	23	240	1
NMTAP	23	288	0
NMTAP	23	288	3
NMSTR	23	336	7
NMSCR	23	336	7	96	48	2
EXSTR	24	0	5
NMSI_	24	0	5	96	48	0
NMTAP	24	48	7
NMTAP	24	96	5
NMTAP	24	192	1
NMTAP	24	192	7
NMTAP	24	240	1
NMTAP	24	240	7
BRTAP	24	288	2
BRTAP	24	288	6
NMTAP	25	0	4
NMTAP	25	0	5
NMTAP	25	48	6
NMTAP	25	96	2
NMTAP	25	96	3
NMTAP	25	144	1
NMTAP	25	192	6
NMSTR	25	192	7
NMSCR	25	192	7	96	48	2
NMTAP	25	240	5
NMTAP	25	288	4
NMTAP	25	288	7
NMSTR	25	336	3
NMSCR	25	336	3	96	48	6
EXTAP	26	0	2
NMTAP	26	48	3
NMSTR	26	96	7
NMSI_	26	96	7	96	48	2
NMSI_	26	96	7	96	48	4
NMTAP	26	192	7
NMTAP	26	288	1
NMTAP	26	288	5
NMTAP	27	0	6
NMTAP	27	0	7
NMTAP	27	96	0
NMTAP	27	96	1
NMTAP	27	144	2
NMTAP	27	144	7
NMTAP	27	240	6
NMTAP	27	240	7
NMSTR	27	288	0
NMSCR	27	288	0	96	48	3
NMTAP	27	288	5
NMSTR	28	0	0
NMSCL	28	0	0	96	48	5
NMSTR	28	96	0
NMSI_	28	96	0	96	48	4
NMTAP	28	192	0
NMTAP	28	288	2
NMTAP	28	288	6
BXSTR	29	0	3
NMSCL	29	0	3	96	96	6
NMSTR	29	192	5
NMSLR	29	192	5	96	96	1
NMHLD	30	0	2	72
NMHLD	30	72	3	72
NMTAP	30	144	4
NMSTR	30	192	4
NMSI_	30	192	4	96	48	0
BRTAP	30	288	3
BRTAP	30	288	4
NMTAP	31	0	1
NMTAP	31	0	7
NMTAP	31	48	2
NMTAP	31	96	0
NMTAP	31	96	6
NMTAP	31	144	5
NMSTR	31	192	1
NMSI_	31	192	1	96	48	3
NMTAP	31	240	4
NMSTR	31	288	1
NMSI_	31	288	1	96	48	7
NMTAP	31	336	7
NMSTR	32	0	1
NMSI_	32	0	1	96	48	5
NMTAP	32	48	4
NMTAP	32	96	1
BRSTR	32	192	4
NMSI_	32	192	4	96	48	1
BRSTR	32	192	6
NMSI_	32	192	6	96	48	3
NMTAP	32	288	4
NMTAP	32	288	6
NMTAP	33	0	0
NMTAP	33	48	0
NMTAP	33	96	1
NMTAP	33	96	7
NMTAP	33	144	1
NMTAP	33	144	7
NMTAP	33	192	6
NMTAP	33	240	6
NMTAP	33	288	5
NMTAP	33	288	7
NMTAP	33	336	5
NMTAP	33	336	7
NMTAP	34	0	4
NMTAP	34	48	4
NMTAP	34	96	3
NMTAP	34	96	5
NMTAP	34	144	3
NMTAP	34	144	5
NMTAP	34	192	2
NMTAP	34	240	2
NMTAP	34	288	1
NMTAP	34	288	3
NMTAP	34	336	1
NMTAP	34	336	3
NMTAP	35	0	0
NMTAP	35	24	1
NMTAP	35	48	2
NMTAP	35	72	3
NMTAP	35	96	4
NMTAP	35	120	5
NMTAP	35	144	6
NMTAP	35	168	7
NMTAP	35	192	0
NMTAP	35	192	4
NMTAP	35	216	3
NMTAP	35	240	2
NMTAP	35	264	1
NMTAP	35	288	0
NMTAP	35	312	7
NMTAP	35	336	6
NMTAP	35	360	5
NMSTR	36	0	0
BRSLR	36	0	0	96	96	4
NMSTR	36	0	4
NMSLR	36	0	4	96	96	0
BRTAP	36	288	2
BRTAP	36	288	6
NMTAP	37	0	1
NMTAP	37	96	2
NMTAP	37	96	3
NMTAP	37	192	6
NMTAP	37	240	6
NMTAP	37	288	4
NMTAP	37	288	5
NMTAP	38	0	2
NMTAP	38	96	0
NMTAP	38	96	1
NMTAP	38	192	5
NMTAP	38	240	5
NMTAP	38	288	6
NMTAP	38	288	7
NMHLD	39	0	2	96
NMTAP	39	96	3
NMHLD	39	192	5	48
NMTAP	39	240	4
NMTAP	39	288	6
NMHLD	40	0	1	96
NMTAP	40	96	0
NMHLD	40	192	6	48
NMTAP	40	240	7
NMTAP	40	288	5
NMSTR	41	0	1
NMSI_	41	0	1	96	48	3
NMTAP	41	96	1
NMTAP	41	96	3
NMSTR	41	192	5
NMSI_	41	192	5	96	48	3
NMTAP	41	288	3
NMTAP	41	288	5
NMSTR	42	0	2
NMSI_	42	0	2	96	48	4
NMTAP	42	96	2
NMTAP	42	96	4
NMSTR	42	192	6
NMSI_	42	192	6	96	48	4
NMTAP	42	288	4
NMTAP	42	288	6
NMTAP	43	0	3
NMTAP	43	48	3
NMTAP	43	96	5
NMTAP	43	144	5
NMHLD	43	192	2	24
NMHLD	43	192	4	24
NMHLD	43	240	2	24
NMHLD	43	240	4	24
NMHLD	43	288	1	24
NMHLD	43	288	3	24
NMHLD	43	336	1	24
NMHLD	43	336	3	24
NMSTR	44	0	0
NMSI_	44	0	0	96	48	4
NMTAP	44	96	0
NMHLD	44	96	7	144
BRTAP	44	240	3
BRTAP	44	288	1
BRTAP	44	288	5
EXTAP	45	0	0
EXTAP	45	0	4
NMTAP	45	96	1
NMTAP	45	120	3
NMTAP	45	144	2
NMTAP	45	168	3
NMTAP	45	192	2
NMTAP	45	216	3
NMTAP	45	240	2
NMTAP	45	264	3
NMTAP	45	288	1
NMTAP	45	312	3
NMTAP	45	336	2
NMTAP	45	360	3
NMTAP	46	0	2
NMTAP	46	24	3
NMTAP	46	48	2
NMTAP	46	72	3
NMTAP	46	96	1
NMTAP	46	120	3
NMTAP	46	144	2
NMTAP	46	168	3
NMTAP	46	192	2
NMTAP	46	216	3
NMTAP	46	240	2
NMTAP	46	264	3
NMSTR	46	288	1
NMSI_	46	288	1	96	48	4
NMTAP	46	336	0
NMTAP	47	0	1
NMTAP	47	96	6
NMTAP	47	120	4
NMTAP	47	144	5
NMTAP	47	168	4
NMTAP	47	192	5
NMTAP	47	216	4
NMTAP	47	240	5
NMTAP	47	264	4
NMTAP	47	288	6
NMTAP	47	312	4
NMTAP	47	336	5
NMTAP	47	360	4
NMTAP	48	0	5
NMTAP	48	24	4
NMTAP	48	48	5
NMTAP	48	72	4
NMTAP	48	96	6
NMTAP	48	120	4
NMTAP	48	144	5
NMTAP	48	168	4
NMTAP	48	192	5
NMTAP	48	216	4
NMTAP	48	240	5
NMTTP	48	252	6	E	0	M1
NMTTP	48	264	6	B	0	M1
NMTTP	48	276	7	B	0	M1
NMTTP	48	288	0	E	0	M1
NMTAP	49	0	1
NMHLD	49	0	3	48
NMTAP	49	48	2
NMHLD	49	96	3	48
NMTAP	49	96	4
NMTAP	49	144	5
NMHLD	49	192	4	48
NMTAP	49	192	6
NMTAP	49	240	5
NMTAP	49	288	3
NMHLD	49	288	4	48
NMTAP	49	336	2
NMTAP	50	0	1
NMHLD	50	0	3	48
NMTAP	50	48	0
NMHLD	50	96	1	48
NMTAP	50	96	3
NMTAP	50	144	4
NMHLD	50	192	3	48
NMTAP	50	192	5
NMTAP	50	240	6
NMHLD	50	288	4	48
NMTAP	50	288	7
NMTAP	50	336	6
NMTAP	51	0	3
NMHLD	51	0	5	48
NMTAP	51	48	2
NMHLD	51	96	1	48
NMTAP	51	96	4
NMTAP	51	144	5
NMTAP	51	192	2
NMHLD	51	192	6	48
NMTAP	51	240	1
NMHLD	51	288	0	48
NMTAP	51	288	5
NMTAP	51	336	6
NMTAP	52	0	1
NMTAP	52	0	7
NMTAP	52	24	6
NMTAP	52	48	5
NMTAP	52	72	4
NMTAP	52	96	3
NMTAP	52	120	2
NMTAP	52	144	1
NMTAP	52	168	0
NMHLD	52	192	7	96
BRSTR	52	288	2
NMSI_	52	288	2	96	48	4
NMTAP	53	0	2
NMSTR	53	0	6
NMSI_	53	0	6	96	48	0
NMSTR	53	96	1
NMSI_	53	96	1	96	48	5
NMTAP	53	96	6
NMTAP	53	192	1
NMSTR	53	192	7
NMSI_	53	192	7	96	48	3
NMSTR	53	288	4
NMSI_	53	288	4	96	48	0
NMTAP	53	288	7
NMTAP	54	0	4
NMSTR	54	0	6
NMSI_	54	0	6	96	48	2
NMSTR	54	96	1
NMSI_	54	96	1	96	48	5
NMTAP	54	96	6
NMTAP	54	192	1
NMSTR	54	192	3
NMSI_	54	192	3	96	48	6
NMTAP	54	288	3
NMTAP	54	288	7
NMTAP	54	336	7
NMTAP	55	0	0
NMSTR	55	0	5
NMSI_	55	0	5	96	48	2
NMSTR	55	96	1
NMSI_	55	96	1	96	48	6
NMTAP	55	96	5
NMTAP	55	192	1
NMSTR	55	192	4
NMSI_	55	192	4	96	48	7
NMSTR	55	288	0
NMSI_	55	288	0	96	48	3
NMTAP	55	288	4
NMSTR	56	0	0
NMSI_	56	0	0	96	48	5
NMTAP	56	0	6
NMTAP	56	96	0
EXHLD	56	96	7	192
NMTTP	56	192	5	E	0	M1
NMTTP	56	216	4	E	0	M1
NMTTP	56	240	3	E	0	M1
NMTTP	56	264	2	E	0	M1
NMTTP	56	288	1	E	0	M1
NMTTP	56	312	0	E	0	M1
NMTTP	56	336	7	E	0	M1
NMTTP	56	360	6	E	0	M1
EXSTR	57	0	4
NMSI_	57	0	4	96	48	0
NMSI_	57	0	4	96	48	2
NMTAP	57	96	4
NMSTR	57	192	1
NMSI_	57	192	1	96	48	5
NMSI_	57	192	1	96	48	7
NMTAP	57	288	1
NMSTR	58	0	6
NMSI_	58	0	6	96	48	3
NMSI_	58	0	6	96	48	4
NMSTR	58	96	6
NMSI_	58	96	6	96	48	0
NMSI_	58	96	6	96	48	1
NMSTR	58	192	6
NMSI_	58	192	6	96	48	2
NMTAP	58	288	6
NMTAP	58	336	0
NMTAP	59	0	1
NMTAP	59	0	4
NMSTR	59	96	2
NMSV_	59	96	2	96	48	0
NMSTR	59	96	6
NMSV_	59	96	6	96	48	4
NMTAP	59	144	1
NMTAP	59	144	5
NMTAP	59	192	2
NMTAP	59	192	6
NMTAP	59	288	1
NMTAP	59	288	5
NMTAP	59	312	2
NMTAP	59	312	6
NMSTR	59	336	3
NMSUR	59	336	3	96	144	0
NMSTR	59	336	7
NMSUR	59	336	7	96	144	4
NMTTP	60	288	0	C	1	M1
NMTTP	60	288	1	B	0	M1
NMTTP	60	288	2	E	0	M1
NMTTP	60	288	5	B	0	M1
NMTTP	60	288	6	E	0	M1
NMSTR	65	0	2
NMSCR	65	0	2	96	192	5
NMSTR	66	0	6
NMSUL	66	0	6	96	192	1
NMHLD	67	0	0	288
NMTAP	67	96	1
NMTAP	67	144	1
NMTAP	67	240	7
NMTAP	67	288	7
NMHLD	68	0	6	96
NMHLD	68	96	4	96
NMHLD	68	192	3	96
NMTAP	68	288	1
NMTTP	69	0	0	C	1	M1
NMSTR	69	0	7
NMSLL	69	0	7	96	192	3
NMSLR	69	0	7	96	192	3
BRSTR	70	0	2
NMSCL	70	0	2	96	192	7
BRSTR	70	0	4
NMSCR	70	0	4	96	192	7
NMSTR	71	0	0
NMTTP	71	0	0	C	1	M1
NMSLR	71	0	0	96	96	4
CNSI_	71	192	4	0	144	6
NMTAP	71	240	7
NMTAP	71	288	7
NMSTR	71	336	7
NMSCL	71	336	7	96	144	2
EXHLD	72	192	1	192
BRSTR	73	0	2
NMSCR	73	0	2	96	192	0
NMTAP	73	288	3
NMSTR	74	0	1
NMSXR	74	0	1	96	192	6
NMSTR	74	0	2
NMSXL	74	0	2	96	192	5
NMTAP	75	0	3
NMSTR	75	0	7
NMSCL	75	0	7	96	48	4
NMTAP	75	96	3
NMSTR	75	144	2
NMSCL	75	144	2	96	48	7
NMTAP	75	240	6
NMSTR	75	288	5
NMSUL	75	288	5	96	192	2
NMTAP	76	96	0
BRTAP	76	192	0
NMHLD	77	0	3	96
NMTAP	77	0	5
NMTAP	77	48	5
NMTAP	77	96	5
NMTAP	77	144	5
NMHLD	77	192	4	96
NMTAP	77	192	5
NMTAP	77	240	5
NMTAP	77	288	5
NMTAP	77	336	5
NMTAP	78	0	5
NMHLD	78	0	6	96
NMTAP	78	48	5
NMTAP	78	96	5
NMTAP	78	144	5
NMTAP	78	192	5
NMHLD	78	192	7	96
NMTAP	78	240	5
NMTAP	78	288	5
NMTAP	79	0	1
NMHLD	79	0	7	96
NMTAP	79	48	1
NMTAP	79	96	1
NMTAP	79	144	1
NMHLD	79	192	0	96
NMTAP	79	192	1
NMTAP	79	240	1
NMTAP	79	288	1
NMTAP	79	336	1
NMTAP	80	0	1
NMHLD	80	0	2	96
NMTAP	80	48	1
NMTAP	80	96	1
NMTAP	80	144	1
NMTAP	80	192	1
NMHLD	80	192	3	96
NMTAP	80	240	1
NMTAP	80	288	1
NMTAP	81	0	2
NMTAP	81	48	2
NMTAP	81	96	0
NMTAP	81	144	0
NMSTR	81	192	1
NMSI_	81	192	1	96	48	3
NMTAP	81	240	1
NMTAP	81	288	7
NMTAP	81	336	7
NMTAP	82	0	4
NMTAP	82	48	4
NMTAP	82	96	6
NMTAP	82	144	6
NMSTR	82	192	3
NMSI_	82	192	3	96	48	0
NMTAP	82	240	3
NMTAP	82	288	5
NMTAP	82	336	5
NMTTP	83	0	1	D	0	M1
NMTTP	83	24	2	D	0	M1
NMTTP	83	48	3	D	0	M1
NMTTP	83	72	4	D	0	M1
NMTTP	83	96	5	D	0	M1
NMTTP	83	120	6	D	0	M1
NMTTP	83	144	7	D	0	M1
NMTTP	83	168	0	D	0	M1
NMTTP	83	192	1	E	0	M1
NMTTP	83	204	2	E	0	M1
NMTTP	83	216	3	E	0	M1
NMTTP	83	228	4	E	0	M1
NMTTP	83	240	5	E	0	M1
NMTTP	83	252	6	E	0	M1
NMTTP	83	264	7	E	0	M1
NMTTP	83	276	0	E	0	M1
NMTTP	83	288	1	E	0	M1
NMTTP	83	300	2	E	0	M1
NMTTP	83	312	3	E	0	M1
NMTTP	83	324	4	E	0	M1
NMTTP	83	336	5	E	0	M1
NMTTP	83	348	6	E	0	M1
NMTTP	83	360	7	E	0	M1
NMTTP	83	372	0	E	0	M1
NMTHO	84	0	0	192	C	1	M1
NMTTP	84	0	1	E	0	M1
NMTAP	85	0	0
NMTAP	85	0	7
NMTAP	85	48	1
NMTAP	85	72	0
NMTAP	85	96	2
NMTAP	85	144	5
NMTAP	85	168	4
NMSTR	85	192	6
NMSCL	85	192	6	96	48	3
NMTAP	85	240	7
BRTAP	85	288	3
NMTAP	85	304	2
NMTAP	85	320	1
NMTAP	85	336	0
NMSTR	86	0	0
NMSI_	86	0	0	96	48	4
NMTAP	86	48	3
NMTAP	86	72	3
NMSTR	86	96	0
NMSCR	86	96	0	96	48	3
NMTAP	86	144	5
NMTAP	86	168	5
NMTAP	86	192	0
NMTAP	86	240	7
EXTAP	86	288	4
EXTAP	86	288	6
NMTAP	86	336	1
NMTAP	86	336	3
NMTAP	87	0	0
NMTAP	87	0	7
NMTAP	87	48	6
NMTAP	87	72	7
NMTAP	87	96	5
NMTAP	87	144	2
NMTAP	87	168	3
NMSTR	87	192	1
NMSCR	87	192	1	96	48	4
NMTAP	87	240	0
BRTAP	87	288	4
NMTAP	87	304	5
NMTAP	87	320	6
NMTAP	87	336	7
NMSTR	88	0	7
NMSI_	88	0	7	96	48	3
NMTAP	88	48	4
NMTAP	88	72	4
NMSTR	88	96	7
NMSCL	88	96	7	96	48	4
NMTAP	88	144	2
NMTAP	88	168	2
NMTAP	88	192	7
NMTAP	88	240	0
EXTAP	88	288	1
EXTAP	88	288	5
NMTAP	89	0	3
NMTAP	89	0	4
NMTAP	89	48	2
NMTAP	89	72	3
NMTAP	89	96	1
NMTAP	89	144	6
NMTAP	89	168	7
NMSTR	89	192	5
NMSCR	89	192	5	96	48	0
NMTAP	89	240	4
BRTAP	89	288	0
NMTAP	89	304	1
NMTAP	89	320	2
NMTAP	89	336	3
NMTAP	90	0	2
NMTAP	90	0	7
NMTAP	90	48	1
NMTAP	90	72	0
NMTAP	90	96	1
NMTAP	90	144	6
NMTAP	90	168	7
NMTAP	90	192	5
NMTAP	90	240	1
NMTAP	90	264	3
NMTAP	90	288	2
NMTAP	90	312	5
NMTAP	90	336	4
EXTAP	91	0	2
EXTAP	91	0	6
NMTAP	91	48	1
NMTAP	91	72	7
NMTAP	91	96	0
NMTAP	91	144	6
NMTAP	91	144	7
NMHLD	91	192	4	24
NMHLD	91	192	5	24
NMHLD	91	240	6	24
NMHLD	91	240	7	24
NMHLD	91	288	0	24
NMHLD	91	288	1	24
NMHLD	91	336	2	24
NMHLD	91	336	3	24
NMTAP	92	0	4
NMTAP	92	0	5
NMTAP	92	48	6
NMTAP	92	72	4
NMTAP	92	120	1
NMTAP	92	144	3
NMTAP	92	192	5
NMTAP	92	216	7
NMTAP	92	264	0
NMTAP	92	264	4
BXTAP	92	288	0
BXTAP	92	288	4
NMSTR	93	0	5
NMSCR	93	0	5	96	96	3
NMSTR	93	192	4
NMSI_	93	192	4	96	48	6
CNSLR	93	336	6	0	48	2
NMTAP	94	0	3
NMTAP	94	48	3
NMTAP	94	72	2
NMTAP	94	120	5
NMTAP	94	144	4
NMSTR	94	192	4
NMSI_	94	192	4	96	48	0
NMTAP	94	240	6
NMTAP	94	264	6
BRTAP	94	288	4
NMTAP	95	0	1
NMTAP	95	0	7
NMTAP	95	48	3
NMTAP	95	96	0
NMSTR	95	96	6
NMSI_	95	96	6	96	48	2
NMTAP	95	144	4
NMSTR	95	192	1
NMSCL	95	192	1	96	48	6
NMTAP	95	240	0
NMSTR	95	288	4
NMSI_	95	288	4	96	48	7
NMTAP	95	336	3
NMSTR	96	0	0
NMSLR	96	0	0	96	48	4
NMTAP	96	48	1
NMSTR	96	96	6
NMSV_	96	96	6	96	48	1
NMSV_	96	96	6	96	48	3
NMTAP	96	144	5
EXTAP	96	192	6
BXTAP	96	288	0
BXTAP	96	288	4
NMSTR	97	0	6
NMSI_	97	0	6	96	48	4
NMSTR	97	0	7
NMSI_	97	0	7	96	48	3
NMTAP	97	48	0
NMSTR	97	96	6
NMSI_	97	96	6	96	48	2
NMSTR	97	96	7
NMSI_	97	96	7	96	48	1
NMSTR	97	192	6
NMSI_	97	192	6	96	48	4
NMSTR	97	192	7
NMSI_	97	192	7	96	48	3
NMTTP	97	288	6	A	0	M1
NMTTP	97	288	7	A	0	M1
NMTTP	97	288	7	D	1	M1
NMSTR	98	0	0
NMSI_	98	0	0	96	48	4
NMSTR	98	0	1
NMSI_	98	0	1	96	48	3
NMTAP	98	48	7
NMSTR	98	96	0
NMSI_	98	96	0	96	48	6
NMSTR	98	96	1
NMSI_	98	96	1	96	48	5
NMSTR	98	192	0
NMSI_	98	192	0	96	48	4
NMSTR	98	192	1
NMSI_	98	192	1	96	48	3
NMTTP	98	288	0	A	0	M1
NMTTP	98	288	1	A	0	M1
NMTTP	98	288	1	D	1	M1
NMTAP	99	0	6
NMTAP	99	24	7
NMTAP	99	48	5
NMTAP	99	72	0
NMTAP	99	96	4
NMTAP	99	120	1
NMTAP	99	144	3
NMTAP	99	168	2
NMTAP	99	192	5
NMTAP	99	216	4
NMTAP	99	240	6
NMTAP	99	264	3
NMTAP	99	288	7
NMTAP	99	312	2
NMTAP	99	336	0
NMTAP	99	360	1
BRTAP	100	0	0
NMTAP	100	48	6
EXTAP	100	72	5
EXTAP	100	72	7
NMTAP	100	120	3
EXTAP	100	144	2
EXTAP	100	144	4
EXSTR	100	192	0
NMSF_	100	192	0	96	48	4
NMTAP	100	216	1
NMTAP	100	216	7
NMTAP	100	240	2
NMTAP	100	240	6
NMTTP	100	300	0	C	1	M1
NMTTP	100	312	3	B	0	M1
NMTTP	100	312	4	B	0	M1
NMTTP	100	312	5	B	0	M1
EXTAP	101	0	2
EXHLD	101	0	6	1440
NMTTP	101	192	1	E	0	M1
NMTTP	102	0	2	E	0	M1
NMTTP	102	192	3	E	0	M1
NMTTP	103	0	4	E	0	M1
NMTTP	103	192	0	C	0	M1
NMTTP	104	0	0	E	0	M1
NMTHO	104	192	0	96	C	0	M1

T_REC_TAP	507
T_REC_BRK	16
T_REC_XTP	20
T_REC_BXX	4
T_REC_HLD	51
T_REC_XHO	3
T_REC_BHO	0
T_REC_BXH	0
T_REC_STR	93
T_REC_BST	6
T_REC_XST	4
T_REC_XBS	1
T_REC_TTP	77
T_REC_THO	2
T_REC_SLD	112
T_REC_BSL	1
T_REC_ALL	897
T_NUM_TAP	701
T_NUM_BRK	28
T_NUM_HLD	56
T_NUM_SLD	112
T_NUM_ALL	897
T_JUDGE_TAP	728
T_JUDGE_HLD	149
T_JUDGE_SLD	113
T_JUDGE_ALL	990
TTM_EACHPAIRS	138
TTM_SCR_TAP	350500
TTM_SCR_BRK	72800
TTM_SCR_HLD	56000
TTM_SCR_SLD	168000
TTM_SCR_ALL	647300
TTM_SCR_S	625200
TTM_SCR_SS	644500
TTM_RAT_ACV	10043

