VERSION	0.00.00	1.05.00
FES_MODE	0
BPM_DEF	180.000	180.000	180.000	180.000
MET_DEF	4	4
RESOLUTION	384
CLK_DEF	384
COMPATIBLE_CODE	MA2

BPM	0	0	180.000
MET	0	0	4	4

BXTAP	4	288	7
EXSTR	5	0	6
NMSLL	5	0	6	96	192	7
EXSTR	6	0	1
NMSLR	6	0	1	96	192	0
EXSTR	7	0	6
NMSLL	7	0	6	96	192	0
EXSTR	8	0	1
NMSLR	8	0	1	96	192	7
EXSTR	9	0	5
NMSLR	9	0	5	96	192	3
EXSTR	10	0	2
NMSLL	10	0	2	96	192	4
NMTAP	11	0	5
NMTAP	11	96	3
NMTAP	11	96	6
NMTAP	11	144	3
NMTAP	11	144	6
NMTAP	11	240	1
NMTAP	11	240	4
NMHLD	11	288	1	96
NMHLD	11	288	4	96
NMSTR	12	96	0
NMSCR	12	96	0	96	96	3
NMTAP	13	0	4
NMTAP	13	96	5
NMTAP	13	192	4
NMTAP	13	192	6
NMTAP	13	288	4
NMTAP	13	288	6
NMTAP	14	0	3
NMTAP	14	96	2
NMTAP	14	192	1
NMTAP	14	192	3
NMTAP	14	288	1
NMTAP	14	288	3
NMTAP	15	0	4
NMTAP	15	96	5
NMTAP	15	192	4
NMTAP	15	192	6
NMTAP	15	288	4
NMTAP	15	288	6
NMTAP	16	0	3
NMTAP	16	96	2
NMTAP	16	192	1
NMTAP	16	192	3
NMTAP	16	288	1
NMTAP	16	288	3
NMTAP	17	0	4
NMTAP	17	48	4
NMTAP	17	96	2
NMTAP	17	144	2
NMTAP	17	192	5
NMTAP	17	240	5
NMTAP	17	288	3
NMTAP	17	336	3
NMTAP	18	0	6
NMTAP	18	48	6
NMTAP	18	96	2
NMTAP	18	144	2
NMTAP	18	192	4
NMTAP	18	240	4
EXSTR	18	288	0
NMSCR	18	288	0	96	288	7
EXHLD	20	0	0	192
EXHLD	20	0	7	192
BXTAP	20	288	1
BXTAP	20	288	6
NMTAP	21	0	7
NMTAP	21	96	4
NMTAP	21	96	6
NMTAP	21	192	0
NMTAP	21	288	1
NMTAP	21	288	3
NMTAP	22	0	5
NMTAP	22	96	4
NMTAP	22	96	6
NMTAP	22	192	2
NMTAP	22	288	1
NMTAP	22	288	3
NMTAP	23	0	7
NMTAP	23	96	4
NMTAP	23	96	5
NMTAP	23	192	0
NMTAP	23	288	2
NMTAP	23	288	3
NMHLD	24	0	5	96
NMHLD	24	96	7	96
NMHLD	24	192	0	96
NMTAP	24	288	2
NMTAP	25	0	0
NMTAP	25	96	1
NMTAP	25	96	3
NMTAP	25	192	7
NMTAP	25	288	4
NMTAP	25	288	6
NMTAP	26	0	2
NMTAP	26	96	1
NMTAP	26	96	3
NMTAP	26	192	5
NMTAP	26	288	4
NMTAP	26	288	6
NMTAP	27	0	0
NMTAP	27	96	2
NMTAP	27	96	3
NMTAP	27	192	7
NMTAP	27	288	4
NMSTR	27	288	5
NMSXL	27	288	5	96	288	3
NMTAP	28	288	2
NMHLD	29	0	1	192
NMHLD	29	0	4	192
NMTAP	29	336	1
NMTAP	29	336	3
NMTAP	30	0	1
NMTAP	30	0	3
NMTAP	30	72	2
NMTAP	30	72	4
NMTAP	30	144	3
NMTAP	30	144	5
NMTAP	30	192	3
NMTAP	30	192	5
BRTAP	30	288	2
BRTAP	30	288	6
NMTAP	31	0	3
NMTAP	31	96	0
NMTAP	31	96	2
NMTAP	31	192	4
NMTAP	31	288	5
NMTAP	31	288	7
NMTAP	32	0	1
NMTAP	32	96	0
NMTAP	32	96	2
NMTAP	32	192	6
NMTAP	32	288	5
NMTAP	32	288	7
NMTAP	33	0	3
NMTAP	33	96	0
NMTAP	33	96	1
NMTAP	33	192	4
NMTAP	33	288	6
NMTAP	33	288	7
NMHLD	34	0	2	96
NMHLD	34	96	0	96
NMHLD	34	192	7	96
NMTAP	34	288	5
NMTAP	35	0	4
NMTAP	35	96	5
NMTAP	35	96	7
NMTAP	35	192	3
NMTAP	35	288	0
NMTAP	35	288	2
NMSTR	36	0	6
NMSUL	36	0	6	96	192	3
NMHLD	37	0	1	96
NMTAP	37	96	3
NMTAP	37	192	5
NMTAP	37	240	5
NMTAP	37	288	3
NMTAP	37	336	3
NMHLD	38	0	6	96
NMTAP	38	96	4
NMTAP	38	192	2
NMTAP	38	240	2
NMTAP	38	288	4
NMTAP	38	336	4
NMHLD	39	0	1	96
NMTAP	39	96	3
NMTAP	39	192	5
NMTAP	39	240	5
NMTAP	39	288	3
NMTAP	39	336	3
NMHLD	40	0	6	96
NMTAP	40	96	4
NMTAP	40	144	4
NMTAP	40	192	5
NMTAP	40	288	3
NMTAP	40	288	6
NMTAP	41	0	2
NMTAP	41	96	2
NMTAP	41	192	0
NMTAP	41	192	1
NMTAP	41	288	0
NMTAP	41	288	1
NMTAP	42	0	5
NMTAP	42	96	5
NMTAP	42	192	6
NMTAP	42	192	7
NMTAP	42	288	6
NMTAP	42	288	7
NMTAP	43	0	1
NMTAP	43	48	1
NMTAP	43	96	7
NMTAP	43	144	7
NMTAP	43	192	0
NMTAP	43	240	0
NMTAP	43	288	6
NMTAP	43	336	6
NMTHO	44	0	0	288	C	0	M1
NMTTP	44	0	3	B	0	M1
NMTTP	44	0	4	B	0	M1
NMHLD	45	0	7	48
NMHLD	45	96	7	48
NMHLD	45	192	0	48
NMHLD	45	192	6	48
NMHLD	45	288	0	48
NMHLD	45	288	6	48
NMHLD	46	0	1	48
NMHLD	46	96	1	48
NMHLD	46	192	2	48
NMHLD	46	192	3	48
NMHLD	46	288	2	48
NMHLD	46	288	3	48
NMHLD	47	0	1	48
NMHLD	47	96	0	48
NMHLD	47	192	1	48
NMHLD	47	192	7	48
NMHLD	47	288	3	48
NMHLD	47	288	5	48
NMHLD	48	0	2	48
NMHLD	48	0	6	48
NMHLD	48	96	4	48
EXTAP	48	192	3
EXTAP	48	192	5
EXTAP	48	288	1
EXTAP	48	288	3
NMHLD	49	0	0	48
NMHLD	49	96	0	48
NMHLD	49	192	1	48
NMHLD	49	192	7	48
NMHLD	49	288	1	48
NMHLD	49	288	7	48
NMHLD	50	0	6	48
NMHLD	50	96	6	48
NMHLD	50	192	4	48
NMHLD	50	192	5	48
NMHLD	50	288	4	48
NMHLD	50	288	5	48
NMHLD	51	0	6	48
NMHLD	51	96	7	48
NMHLD	51	192	0	48
NMHLD	51	192	6	48
NMHLD	51	288	2	48
NMHLD	51	288	4	48
NMSTR	52	0	1
NMSV_	52	0	1	96	96	3
NMSTR	52	0	5
NMSV_	52	0	5	96	96	3
EXTAP	52	288	1
EXTAP	52	288	5
NMHLD	53	0	4	48
NMHLD	53	0	6	48
NMHLD	53	96	4	48
NMHLD	53	96	6	48
NMHLD	53	192	3	48
NMHLD	53	192	5	48
NMHLD	53	288	2	48
NMHLD	53	288	4	48
NMHLD	54	0	1	48
NMHLD	54	0	3	48
NMHLD	54	96	3	48
NMHLD	54	96	5	48
NMHLD	54	192	2	48
NMHLD	54	192	4	48
NMTAP	54	288	5
NMTAP	54	336	5
NMHLD	55	0	4	48
NMHLD	55	0	6	48
NMHLD	55	96	4	48
NMHLD	55	96	6	48
NMHLD	55	192	3	48
NMHLD	55	192	5	48
NMHLD	55	288	2	48
NMHLD	55	288	4	48
NMHLD	56	0	1	48
NMHLD	56	0	3	48
NMSTR	56	96	3
NMSUR	56	96	3	96	96	0
NMTAP	56	96	5
NMHLD	57	0	0	48
NMHLD	57	0	2	48
NMHLD	57	96	0	48
NMHLD	57	96	2	48
NMHLD	57	192	1	48
NMHLD	57	192	7	48
NMHLD	57	288	0	48
NMHLD	57	288	6	48
NMHLD	58	0	5	48
NMHLD	58	0	7	48
NMHLD	58	96	1	48
NMHLD	58	96	7	48
NMHLD	58	192	0	48
NMHLD	58	192	6	48
NMTAP	58	288	1
NMTAP	58	336	1
NMHLD	59	0	0	48
NMHLD	59	0	2	48
NMHLD	59	96	0	48
NMHLD	59	96	2	48
NMHLD	59	192	1	48
NMHLD	59	192	7	48
NMTAP	59	288	0
NMTAP	59	288	6
NMSTR	59	336	0
NMSLR	59	336	0	96	144	7
NMSTR	59	336	6
NMSLL	59	336	6	96	144	7
EXTAP	60	288	0
EXTAP	60	288	6
EXHLD	61	0	1	1344
EXHLD	61	0	5	1344
NMTTP	65	0	5	E	0	M1
NMTTP	65	96	6	E	0	M1
NMTTP	65	192	7	E	0	M1
NMTTP	65	288	0	E	0	M1
NMTTP	66	0	1	E	0	M1
NMTTP	66	96	2	E	0	M1
NMTTP	66	192	3	E	0	M1
NMTTP	66	288	4	E	0	M1
NMTTP	67	0	5	E	0	M1
NMTTP	67	96	6	E	0	M1
NMTTP	67	192	7	E	0	M1
NMTTP	67	288	0	E	0	M1
NMTTP	68	0	1	E	0	M1
NMTTP	69	0	0	C	1	M1
NMTTP	69	0	2	B	0	M1
NMTTP	69	0	2	A	0	M1
NMTTP	69	0	6	B	0	M1
NMTTP	69	0	6	A	0	M1
NMTTP	70	0	0	C	1	M1
NMTTP	70	0	1	B	0	M1
NMTTP	70	0	1	A	0	M1
NMTTP	70	0	3	B	0	M1
NMTTP	70	0	3	A	0	M1
NMTTP	71	0	0	C	1	M1
NMTTP	71	0	4	B	0	M1
NMTTP	71	0	4	A	0	M1
NMTTP	71	0	6	B	0	M1
NMTTP	71	0	6	A	0	M1
EXTAP	71	240	7
EXTAP	71	288	7
EXHLD	71	336	7	336
NMTTP	73	0	0	C	1	M1
NMTTP	73	0	1	B	0	M1
NMTTP	73	0	1	A	0	M1
NMTTP	73	0	5	B	0	M1
NMTTP	73	0	5	A	0	M1
NMTTP	74	0	0	B	0	M1
NMTTP	74	0	0	C	1	M1
NMTTP	74	0	0	A	0	M1
NMTTP	74	0	2	B	0	M1
NMTTP	74	0	2	A	0	M1
NMTAP	74	288	7
NMTAP	75	0	4
NMTAP	75	0	6
NMTAP	75	96	3
NMTAP	75	96	4
NMTAP	75	192	1
NMTAP	75	192	3
NMSTR	75	288	0
NMSCR	75	288	0	96	288	4
NMSTR	75	288	7
NMSUR	75	288	7	96	288	5
NMTAP	77	0	6
NMTAP	77	48	6
NMTAP	77	96	4
NMTAP	77	192	1
NMTAP	77	240	1
NMTAP	77	288	3
NMTAP	78	0	5
NMTAP	78	48	5
NMTAP	78	96	3
NMTAP	78	192	2
NMTAP	78	240	2
NMTAP	78	288	4
NMTAP	79	0	6
NMTAP	79	48	6
NMTAP	79	96	4
NMTAP	79	192	1
NMTAP	79	240	1
NMTAP	79	288	3
NMTAP	80	0	5
NMTAP	80	48	5
NMTAP	80	96	4
NMTAP	80	192	2
NMTAP	80	240	2
NMTAP	80	288	3
NMTAP	81	0	1
NMTAP	81	48	1
NMTAP	81	96	4
NMTAP	81	144	4
NMTAP	81	192	2
NMTAP	81	240	2
NMTAP	81	288	6
NMTAP	81	336	6
NMTAP	82	0	3
NMTAP	82	48	3
NMTAP	82	96	5
NMTAP	82	144	5
NMTAP	82	192	1
NMTAP	82	240	1
NMTAP	82	288	6
NMTAP	82	336	6
NMTAP	83	0	0
NMTAP	83	24	7
NMTAP	83	48	0
NMTAP	83	72	7
NMTAP	83	96	0
NMTAP	83	120	7
NMTAP	83	144	0
NMTAP	83	168	7
NMTAP	83	192	0
NMTAP	83	216	7
NMTAP	83	240	0
NMTAP	83	264	7
NMTAP	83	288	0
NMTAP	83	312	7
NMTAP	83	336	0
NMTAP	83	360	7
BXTAP	84	0	0
BRTAP	84	288	1
BRTAP	84	288	6
NMSTR	85	0	0
NMSI_	85	0	0	96	48	4
NMSTR	85	96	7
NMSI_	85	96	7	96	48	5
NMSTR	85	192	1
NMSI_	85	192	1	96	48	3
NMTAP	85	288	6
NMSTR	86	0	6
NMSI_	86	0	6	96	48	3
NMSTR	86	0	7
NMSI_	86	0	7	96	48	3
NMSTR	86	192	0
NMSI_	86	192	0	96	48	4
NMSTR	86	192	1
NMSI_	86	192	1	96	48	4
NMSTR	87	0	7
NMSI_	87	0	7	96	48	3
NMSTR	87	96	0
NMSI_	87	96	0	96	48	2
NMSTR	87	192	6
NMSI_	87	192	6	96	48	4
NMTAP	87	288	1
NMTAP	88	0	2
NMTAP	88	0	3
NMTAP	88	96	0
NMTAP	88	96	1
NMTAP	88	192	6
NMTAP	88	192	7
NMTAP	88	288	4
NMTAP	88	288	5
NMSTR	89	0	7
NMSI_	89	0	7	96	48	3
NMSTR	89	96	0
NMSI_	89	96	0	96	48	2
NMSTR	89	192	6
NMSI_	89	192	6	96	48	4
NMTAP	89	288	1
NMSTR	90	0	0
NMSI_	90	0	0	96	48	4
NMSTR	90	0	1
NMSI_	90	0	1	96	48	4
NMSTR	90	192	6
NMSI_	90	192	6	96	48	3
NMSTR	90	192	7
NMSI_	90	192	7	96	48	3
NMSTR	91	0	0
NMSI_	91	0	0	96	48	4
NMSTR	91	96	7
NMSI_	91	96	7	96	48	5
NMSTR	91	192	1
NMSI_	91	192	1	96	48	3
NMTAP	91	288	6
NMTAP	92	0	4
NMTAP	92	0	6
NMTAP	92	72	3
NMTAP	92	72	5
NMTAP	92	144	2
NMTAP	92	144	4
NMTAP	92	216	1
NMTAP	92	216	3
EXSTR	92	288	0
NMSI_	92	288	0	96	48	4
EXTAP	92	288	2
EXTAP	93	336	3
EXTAP	93	336	5
EXTAP	94	0	3
EXTAP	94	0	5
EXTAP	94	72	2
EXTAP	94	72	4
EXTAP	94	144	1
EXTAP	94	144	5
EXTAP	94	192	1
EXTAP	94	192	5
NMTTP	94	288	2	B	0	M1
NMTTP	94	288	3	B	1	M1
NMTTP	94	288	4	B	0	M1
NMSTR	95	0	6
NMSI_	95	0	6	96	48	3
NMSTR	95	0	7
NMSI_	95	0	7	96	48	3
NMTAP	95	192	4
NMTAP	95	192	5
NMTAP	95	288	1
NMTAP	95	288	3
NMSTR	96	0	0
NMSI_	96	0	0	96	48	4
NMSTR	96	0	1
NMSI_	96	0	1	96	48	4
NMTAP	96	192	2
NMTAP	96	192	3
NMTAP	96	288	4
NMTAP	96	288	6
NMTAP	97	0	7
NMTAP	97	48	7
NMTAP	97	96	4
NMTAP	97	144	5
NMTAP	97	192	4
NMTAP	97	240	3
EXTAP	97	288	2
EXTAP	97	288	4
NMTAP	98	0	0
NMTAP	98	48	0
NMTAP	98	96	3
NMTAP	98	144	2
NMTAP	98	192	3
NMTAP	98	240	4
EXTAP	98	288	3
EXTAP	98	288	5
NMTAP	99	0	2
NMTAP	99	24	4
NMTAP	99	48	2
NMTAP	99	72	4
NMTAP	99	96	2
NMTAP	99	120	4
NMTAP	99	144	2
NMTAP	99	168	4
NMTAP	99	192	3
NMTAP	99	216	5
NMTAP	99	240	3
NMTAP	99	264	5
NMSTR	99	288	3
NMSCL	99	288	3	96	288	5
NMTTP	100	0	0	C	1	M1
NMTAP	101	0	3
NMTAP	101	96	2
NMTAP	101	192	4
NMTAP	101	288	5
NMTAP	102	0	3
NMTAP	102	96	2
NMTAP	102	192	4
NMTAP	102	288	5
NMTAP	103	0	3
NMTAP	103	96	2
NMTAP	103	192	4
NMTAP	103	288	5
NMTAP	104	0	5
NMTAP	104	96	4
NMTAP	104	192	3
NMTAP	104	288	2

T_REC_TAP	295
T_REC_BRK	4
T_REC_XTP	25
T_REC_BXX	4
T_REC_HLD	97
T_REC_XHO	5
T_REC_BHO	0
T_REC_BXH	0
T_REC_STR	35
T_REC_BST	0
T_REC_XST	8
T_REC_XBS	0
T_REC_TTP	44
T_REC_THO	1
T_REC_SLD	43
T_REC_BSL	0
T_REC_ALL	561
T_NUM_TAP	407
T_NUM_BRK	8
T_NUM_HLD	103
T_NUM_SLD	43
T_NUM_ALL	561
T_JUDGE_TAP	415
T_JUDGE_HLD	192
T_JUDGE_SLD	43
T_JUDGE_ALL	650
TTM_EACHPAIRS	121
TTM_SCR_TAP	203500
TTM_SCR_BRK	20800
TTM_SCR_HLD	103000
TTM_SCR_SLD	64500
TTM_SCR_ALL	391800
TTM_SCR_S	379300
TTM_SCR_SS	391000
TTM_RAT_ACV	10020

