VERSION	0.00.00	1.05.00
FES_MODE	0
BPM_DEF	185.000	185.000	185.000	185.000
MET_DEF	4	4
RESOLUTION	384
CLK_DEF	384
COMPATIBLE_CODE	MA2

BPM	0	0	185.000
MET	0	0	4	4

NMHLD	2	0	5	768
NMTTP	3	0	3	B	0	M1
NMTTP	3	12	4	E	0	M1
NMHLD	4	0	3	768
NMTTP	5	0	4	B	0	M1
NMTTP	5	12	4	E	0	M1
NMHLD	6	0	4	768
NMTTP	7	0	3	B	0	M1
NMTTP	7	12	4	E	0	M1
NMHLD	8	0	2	576
NMTTP	9	0	4	B	0	M1
NMTTP	9	12	4	E	0	M1
NMHLD	10	0	2	2880
NMTAP	10	0	4
NMTTP	10	192	5	E	0	M1
NMTAP	11	0	3
NMTTP	11	192	4	E	0	M1
NMTAP	12	0	4
NMTTP	12	192	5	E	0	M1
NMTAP	13	0	3
NMTTP	13	192	4	E	0	M1
NMTAP	14	0	4
NMTTP	14	192	5	E	0	M1
NMTAP	15	0	3
NMTTP	15	192	3	E	0	M1
NMTAP	16	0	4
NMTTP	16	192	5	E	0	M1
NMSTR	17	0	3
NMSCR	17	0	3	96	192	6
NMTAP	18	0	3
NMTAP	18	0	5
NMTAP	18	96	3
NMTAP	18	192	3
NMTAP	18	192	4
NMTAP	18	288	3
NMTAP	19	0	4
NMTAP	19	0	6
NMTAP	19	96	4
NMTAP	19	192	4
NMTAP	19	192	5
NMTAP	19	288	4
NMTAP	20	0	2
NMTAP	20	0	3
NMTAP	20	96	3
NMTAP	20	192	1
NMTAP	20	192	3
NMTAP	20	288	3
NMTAP	21	0	1
NMTAP	21	0	2
NMTAP	21	96	2
NMTAP	21	192	0
NMTAP	21	192	2
NMTAP	21	288	2
NMTAP	22	0	1
NMTAP	22	0	3
NMTAP	22	96	1
NMTAP	22	96	3
NMTAP	22	192	2
NMTAP	22	192	4
NMTAP	22	288	2
NMTAP	22	288	4
NMTAP	23	0	3
NMTAP	23	0	5
NMTAP	23	96	3
NMTAP	23	96	5
NMTAP	23	192	4
NMTAP	23	192	6
NMTAP	23	288	4
NMTAP	23	288	6
NMTAP	24	0	3
NMTAP	24	0	5
NMTAP	24	96	2
NMTAP	24	96	4
NMTAP	24	192	1
NMTAP	24	192	3
NMTAP	24	288	2
NMTAP	24	288	4
NMTAP	25	0	5
NMTAP	25	48	5
NMTAP	25	96	4
NMTAP	25	144	4
NMTAP	25	192	3
NMTAP	25	240	3
NMTAP	25	288	2
NMTAP	25	288	4
NMHLD	26	0	2	48
NMSTR	26	0	4
NMSCR	26	0	4	96	192	0
NMHLD	26	96	2	48
NMHLD	26	192	2	48
NMHLD	26	288	2	48
NMSTR	27	0	0
NMSUL	27	0	0	96	192	4
NMHLD	27	0	1	48
NMHLD	27	96	1	48
NMHLD	27	192	1	48
NMHLD	27	288	1	48
NMHLD	28	0	2	48
NMSTR	28	0	3
NMSV_	28	0	3	96	192	0
NMHLD	28	96	2	48
NMHLD	28	192	2	48
NMHLD	28	288	2	48
NMSTR	29	0	0
NMSUL	29	0	0	96	192	3
NMHLD	29	0	1	48
NMHLD	29	96	1	48
NMHLD	29	192	1	48
NMHLD	29	288	1	48
NMTAP	30	0	0
NMTAP	30	48	0
NMTAP	30	96	3
NMTAP	30	144	3
NMTAP	30	192	1
NMTAP	30	240	2
NMTAP	30	288	4
NMTAP	30	336	5
NMTAP	31	0	6
NMTAP	31	48	6
NMTAP	31	96	4
NMTAP	31	96	7
NMTAP	31	144	4
NMTAP	31	192	3
NMTAP	31	192	5
NMTAP	31	240	5
NMHLD	31	288	1	48
NMHLD	31	288	6	48
NMTAP	32	0	0
NMTAP	32	24	7
NMTAP	32	48	0
NMTAP	32	72	7
NMTAP	32	96	0
NMTAP	32	120	7
NMTAP	32	144	0
NMTAP	32	168	7
NMTAP	32	192	0
NMTAP	32	216	7
NMTAP	32	240	0
NMTAP	32	264	7
NMSTR	32	288	0
NMSSL	32	288	0	96	192	4
NMTAP	32	312	7
NMTAP	32	336	0
NMTAP	32	360	7
NMTAP	33	192	5
NMSTR	33	288	5
BRSCR	33	288	5	96	96	1
BRTAP	34	0	3
CNSCL	34	96	1	0	96	5
NMTAP	34	96	4
NMTAP	34	192	3
NMTAP	34	288	2
NMTAP	34	288	4
NMSTR	34	336	1
NMSI_	34	336	1	96	48	5
NMTAP	34	336	3
NMTAP	35	48	0
NMSTR	35	96	0
NMSI_	35	96	0	96	48	6
NMTAP	35	192	4
NMTAP	35	288	3
NMTAP	35	288	5
NMSTR	35	336	2
NMSI_	35	336	2	96	48	7
NMTAP	35	336	4
NMTAP	36	48	3
NMSTR	36	96	3
NMSI_	36	96	3	96	48	6
NMTAP	36	192	0
NMTAP	36	288	1
NMTAP	36	288	7
NMSTR	36	336	0
NMSI_	36	336	0	96	96	6
NMTAP	36	336	2
NMTAP	37	48	1
NMTAP	37	144	0
CNSI_	37	144	6	0	48	4
CNSI_	37	192	4	0	48	2
NMTAP	37	240	7
NMSTR	37	288	7
NMSCR	37	288	7	96	96	2
NMTAP	38	0	3
CNSUL	38	96	2	0	96	6
NMTAP	38	96	4
NMTAP	38	192	5
NMTAP	38	288	4
NMTAP	38	288	6
NMTAP	38	336	5
NMSTR	38	336	7
NMSCR	38	336	7	96	48	2
NMTAP	39	48	3
NMSTR	39	96	3
NMSI_	39	96	3	96	48	7
NMTAP	39	192	5
NMTAP	39	288	0
NMTAP	39	288	6
NMSTR	39	336	1
NMSCR	39	336	1	96	48	4
NMTAP	39	336	7
NMTAP	40	48	0
NMSTR	40	96	0
NMSV_	40	96	0	96	48	5
NMTAP	40	192	4
BXTAP	40	288	6
BXTAP	40	288	7
BXSTR	40	336	6
NMSI_	40	336	6	96	48	2
BXSTR	40	336	7
NMSI_	40	336	7	96	48	3
NMTAP	41	48	6
NMTAP	41	48	7
NMTAP	41	144	1
NMTAP	41	144	4
BRTAP	41	240	4
BRTAP	41	240	5
BRTAP	41	288	3
BRTAP	41	288	6
NMSTR	42	0	7
NMSCR	42	0	7	96	48	2
NMTAP	42	96	3
NMSTR	42	192	4
NMSI_	42	192	4	96	48	0
NMTAP	42	192	5
NMTAP	42	288	6
CNSI_	42	336	0	0	48	2
NMTAP	42	336	6
NMTAP	43	48	7
NMSTR	43	96	7
NMSI_	43	96	7	96	48	3
NMSTR	43	192	0
NMSI_	43	192	0	96	48	4
NMTAP	43	288	7
CNSI_	43	336	4	0	48	6
NMTAP	43	336	7
NMTAP	44	48	0
NMSTR	44	96	0
NMSCL	44	96	0	96	48	5
NMSTR	44	192	1
NMSCR	44	192	1	96	48	4
NMTAP	44	288	7
NMTAP	44	336	7
NMSTR	45	48	4
NMSI_	45	48	4	96	48	0
NMSTR	45	48	6
NMSCL	45	48	6	96	48	3
NMTAP	45	144	4
NMTAP	45	144	6
NMTAP	45	240	1
NMTAP	45	288	2
NMTAP	45	336	3
NMSTR	45	336	7
NMSI_	45	336	7	96	48	3
NMTAP	46	48	2
NMSTR	46	96	2
NMSI_	46	96	2	96	48	6
CNSI_	46	96	3	0	48	5
NMTAP	46	192	7
NMTAP	46	288	7
NMSTR	46	336	0
NMSI_	46	336	0	96	48	4
NMTAP	46	336	6
NMTAP	47	48	5
CNSI_	47	96	4	0	48	2
NMSTR	47	96	5
NMSI_	47	96	5	96	48	1
NMTAP	47	192	0
NMTAP	47	288	0
NMSTR	47	336	1
NMSI_	47	336	1	96	48	5
NMTAP	47	336	7
NMTAP	48	48	6
CNSI_	48	96	5	0	48	3
NMSTR	48	96	6
NMSI_	48	96	6	96	48	2
NMTAP	48	192	0
NMTAP	48	288	0
NMTAP	48	288	1
NMSTR	48	336	2
NMSI_	48	336	2	96	48	4
NMSTR	48	336	7
NMSI_	48	336	7	96	48	5
NMTAP	49	48	2
NMTAP	49	48	7
BXTAP	49	144	3
BXTAP	49	144	6
NMTAP	49	240	2
NMTAP	49	240	3
NMSTR	49	288	1
BRSCL	49	288	1	96	48	6
BRTAP	49	288	4
BRHLD	50	0	5	192
NMTAP	50	192	4
NMTAP	50	240	3
NMTAP	50	288	2
NMHLD	50	336	1	96
NMTTP	51	48	3	B	0	M1
NMTTP	51	48	4	E	0	M1
NMTAP	51	144	0
NMTAP	51	144	2
NMTAP	51	192	0
NMTAP	51	192	2
NMSTR	51	288	1
NMSI_	51	288	1	96	96	3
NMTAP	52	0	0
CNSI_	52	96	3	0	96	5
NMTAP	52	96	7
NMTAP	52	144	7
CNSI_	52	192	5	0	96	2
NMTAP	52	192	7
NMTAP	52	288	0
NMTAP	53	0	0
NMTAP	53	0	1
NMTAP	53	96	0
NMTAP	53	96	1
NMTAP	53	192	2
NMTAP	53	192	3
NMTAP	53	288	4
NMSTR	53	288	5
NMSCR	53	288	5	96	48	0
NMTAP	54	0	3
NMTAP	54	96	1
NMSTR	54	192	0
NMSI_	54	192	0	96	48	6
NMSTR	54	288	1
NMSLR	54	288	1	96	96	5
EXTAP	55	0	7
BRTAP	55	96	6
NMTAP	55	192	5
NMSTR	55	288	4
NMSCR	55	288	4	96	288	1
NMTAP	55	336	3
NMTAP	56	0	2
NMTAP	56	96	2
NMTAP	56	192	3
NMTAP	56	288	3
NMTAP	57	0	4
NMTAP	57	0	6
NMTAP	57	48	5
NMTAP	57	96	5
NMTAP	57	144	1
NMTAP	57	144	3
NMTAP	57	192	2
NMTAP	57	240	2
NMSTR	57	288	0
NMSI_	57	288	0	96	48	4
NMTAP	57	288	7
BRTAP	58	0	6
NMTAP	58	96	6
NMTAP	58	192	4
NMTAP	58	192	6
NMTAP	58	240	3
NMTAP	58	288	2
NMTAP	58	288	4
NMTAP	58	336	1
NMSTR	58	336	5
NMSCR	58	336	5	96	96	0
NMSTR	59	48	0
NMSCL	59	48	0	96	96	5
NMTAP	59	144	2
NMSTR	59	192	2
NMSI_	59	192	2	96	48	4
EXTAP	59	288	2
NMSTR	60	0	7
NMSXL	60	0	7	96	288	2
NMTAP	60	96	4
NMTAP	60	144	4
NMTAP	60	192	4
NMTAP	60	288	3
NMTAP	61	0	3
NMTAP	61	96	3
NMTAP	61	192	3
NMTAP	61	192	4
NMTAP	61	240	2
NMSTR	61	288	1
NMSCR	61	288	1	96	96	5
NMTAP	62	0	0
NMTAP	62	96	7
NMTAP	62	144	7
NMSTR	62	192	6
NMSCL	62	192	6	96	96	3
NMTAP	62	288	0
NMTAP	63	0	2
CNSUR	63	0	3	0	96	0
NMTAP	63	96	2
NMTAP	63	192	1
NMTAP	63	192	3
NMTAP	63	288	0
NMTAP	63	288	7
NMTAP	64	0	0
NMTAP	64	48	0
NMTAP	64	96	6
NMTAP	64	144	6
NMTAP	64	192	1
NMTAP	64	216	7
NMTAP	64	240	1
NMTAP	64	264	7
NMTAP	64	288	1
NMTAP	64	312	7
NMTAP	64	336	1
NMTAP	64	360	7
EXTAP	65	0	1
NMTAP	65	48	2
NMTAP	65	48	4
NMTAP	65	96	2
NMTAP	65	96	4
NMTAP	65	144	5
NMTAP	65	192	4
NMTAP	65	192	6
NMTAP	65	240	3
NMTAP	65	240	7
NMSTR	65	288	3
NMSCL	65	288	3	96	48	0
NMSTR	65	288	7
NMSCL	65	288	7	96	48	4
BRTAP	66	0	3
BRTAP	66	0	7
NMTTP	70	0	5	B	0	M1
NMTTP	70	12	4	B	0	M1
NMTTP	71	0	2	B	0	M1
NMTTP	71	12	3	B	0	M1
NMTHO	72	0	0	384	C	0	M1
NMTTP	73	192	1	B	0	M1
NMTTP	73	192	1	E	0	M1
NMTTP	73	192	6	B	0	M1
NMTTP	73	192	7	E	0	M1
NMTAP	74	0	2
NMTAP	74	0	5
NMTAP	74	96	2
NMTAP	74	192	2
NMTAP	74	192	4
NMTAP	74	288	2
NMTAP	75	0	2
NMTTP	75	0	4	E	0	M1
NMTTP	75	96	0	C	0	M1
NMTAP	75	96	2
NMTTP	75	192	0	E	0	M1
NMTAP	75	192	2
NMTAP	75	288	2
NMTAP	76	0	2
NMTAP	76	0	7
NMTAP	76	96	7
NMTAP	76	192	3
NMTAP	76	192	7
NMTAP	76	288	7
NMTTP	77	0	5	E	0	M1
NMTAP	77	0	7
NMTTP	77	96	0	C	0	M1
NMTAP	77	96	7
NMTTP	77	192	1	E	0	M1
NMTAP	77	192	7
NMTAP	77	288	7
NMTAP	78	0	0
NMTAP	78	48	0
NMTAP	78	96	1
NMTAP	78	144	1
NMTAP	78	192	2
NMTAP	78	240	2
NMTAP	78	288	3
NMTAP	78	336	3
NMTAP	79	0	4
NMTAP	79	48	4
NMTAP	79	96	5
NMTAP	79	144	5
NMTAP	79	192	6
NMTAP	79	240	6
NMTAP	79	288	7
NMTAP	79	336	7
NMTAP	80	0	0
NMTAP	80	24	1
NMTAP	80	48	2
NMTAP	80	72	3
NMTAP	80	96	6
NMTAP	80	120	5
NMTAP	80	144	4
NMTAP	80	168	3
NMTAP	80	192	1
NMTAP	80	216	2
NMTAP	80	240	3
NMTAP	80	264	4
NMTAP	80	288	7
NMTAP	80	312	6
NMTAP	80	336	5
NMTAP	80	360	4
EXHLD	81	0	3	240
EXHLD	81	0	7	240
NMTAP	81	288	3
NMSTR	81	288	7
BRSCL	81	288	7	96	384	0
NMTTP	82	0	4	E	1	M1
CNSCR	83	0	0	0	384	7
NMTTP	84	0	0	E	0	M1
NMTTP	84	96	0	C	0	M1
NMTTP	84	192	4	E	0	M1
NMTTP	84	288	0	C	0	M1
NMTAP	85	0	0
NMTAP	85	0	7
NMTAP	85	96	1
NMTAP	85	96	5
NMTAP	85	144	2
NMTAP	85	168	4
NMSTR	85	192	3
NMSI_	85	192	3	96	48	0
NMSI_	85	192	3	96	48	6
NMTAP	85	240	2
NMTAP	85	240	4
BRTAP	86	0	1
BRTAP	86	0	5
NMTAP	86	48	2
NMTAP	86	96	1
NMTAP	86	96	6
NMTAP	86	144	0
NMTAP	86	192	5
NMTAP	86	192	7
NMTAP	86	240	4
NMTAP	86	288	1
NMTAP	86	288	3
NMTAP	86	336	2
NMTAP	87	0	3
NMTAP	87	0	4
NMTAP	87	48	5
NMTAP	87	72	4
NMSTR	87	96	6
NMSLL	87	96	6	96	96	2
NMTAP	87	144	7
NMTAP	87	192	0
NMTAP	87	240	0
NMTAP	87	288	0
NMTAP	88	0	1
NMTAP	88	0	2
NMTAP	88	48	3
NMTAP	88	96	0
NMTAP	88	96	4
NMTAP	88	144	7
NMTAP	88	192	5
NMTAP	88	192	6
NMTAP	88	240	4
NMTAP	88	288	2
NMTAP	88	288	3
NMTAP	88	336	1
NMSTR	89	0	0
NMSCR	89	0	0	96	48	3
NMTAP	89	48	0
NMSTR	89	96	5
NMSCR	89	96	5	96	48	0
NMTAP	89	144	5
NMSTR	89	192	1
NMSF_	89	192	1	96	48	5
NMTAP	89	240	1
BRTAP	90	0	3
BRTAP	90	0	7
NMTAP	90	48	6
NMTAP	90	72	4
NMTAP	90	96	5
NMTAP	90	144	2
NMTAP	90	192	1
NMTAP	90	192	3
NMTAP	90	240	0
NMTAP	90	288	6
NMTAP	90	288	7
NMTAP	90	336	5
NMTAP	91	0	3
NMTAP	91	0	4
NMTAP	91	48	2
NMTAP	91	72	3
NMSTR	91	96	1
NMSLR	91	96	1	96	96	5
NMTAP	91	144	0
NMTAP	91	192	7
NMTAP	91	240	7
NMTAP	91	288	7
NMTAP	92	0	5
NMTAP	92	0	6
NMTAP	92	48	4
NMTAP	92	96	3
NMTAP	92	96	7
NMTAP	92	144	0
NMTAP	92	192	1
NMTAP	92	192	2
NMTAP	92	240	3
NMTAP	92	288	4
NMTAP	92	288	5
NMTAP	92	336	6
NMTAP	93	0	0
NMTAP	93	0	7
NMTAP	93	48	1
NMTAP	93	72	0
NMTAP	93	96	2
NMTAP	93	144	3
NMTAP	93	144	7
NMTAP	93	192	6
NMTAP	93	216	4
NMTAP	93	240	5
NMTAP	93	288	3
NMTAP	93	288	4
NMTAP	93	336	2
NMSTR	94	0	0
NMSCL	94	0	0	96	96	4
NMTAP	94	0	1
NMSTR	94	96	4
NMSLR	94	96	4	96	96	0
NMTAP	94	192	0
NMTAP	94	240	1
NMTAP	94	288	2
NMTAP	94	336	3
NMSTR	95	0	4
NMSLL	95	0	4	96	96	0
NMTAP	95	0	7
NMSTR	95	96	0
NMSCR	95	96	0	96	96	4
NMTAP	95	192	4
NMTAP	95	240	5
NMTAP	95	288	6
NMTAP	95	336	7
NMTAP	96	0	3
NMTAP	96	0	6
NMTAP	96	48	2
NMTAP	96	96	1
NMTAP	96	96	3
NMTAP	96	144	0
NMTAP	96	192	1
NMTAP	96	192	4
NMTAP	96	240	5
NMTAP	96	288	4
NMTAP	96	288	6
NMTAP	96	336	7
NMTAP	97	0	1
NMTAP	97	24	0
NMTAP	97	48	1
NMTAP	97	72	0
NMTAP	97	96	2
NMTAP	97	120	7
NMTAP	97	144	2
NMTAP	97	168	7
NMTAP	97	192	3
NMTAP	97	216	6
NMTAP	97	240	3
NMTAP	97	264	6
NMSTR	97	288	4
NMSF_	97	288	4	96	48	0
BRTAP	98	0	4
NMTAP	98	96	2
NMTAP	98	96	6
NMTAP	98	192	1
NMTAP	98	192	5
NMTAP	98	240	2
NMTAP	98	288	3
NMTAP	98	288	5
NMTAP	98	336	4
NMTAP	99	0	5
NMTAP	99	48	4
NMTAP	99	96	5
NMTAP	99	144	3
NMTAP	99	192	3
NMTAP	99	192	5
NMSTR	99	288	1
BRSLR	99	288	1	96	96	7
NMTAP	99	288	5
NMTAP	100	0	6
NMTAP	100	96	5
CNSCR	100	96	7	0	192	4
NMTAP	100	144	5
NMTAP	100	192	5
NMTAP	100	288	6
NMTTP	101	0	4	B	0	M1
NMTTP	101	0	5	E	0	M1
NMTAP	101	0	6
NMTAP	101	96	6
NMTAP	101	192	6
NMSTR	101	192	7
NMSCR	101	192	7	96	48	2
NMTAP	101	288	6
NMTAP	102	0	3
NMTAP	102	0	6
NMTAP	102	96	4
NMTAP	102	96	6
NMTAP	102	192	3
NMTAP	102	192	7
NMTAP	102	240	2
NMTAP	102	288	1
NMTAP	102	288	7
NMSTR	103	0	0
NMSI_	103	0	0	96	96	6
NMTAP	103	0	1
NMTAP	103	96	2
NMTAP	103	192	1
CNSI_	103	192	6	0	96	2
NMTAP	103	288	0
CNSI_	103	288	2	0	96	4
NMTAP	103	336	0
NMTAP	104	0	0
CNSCR	104	0	4	0	192	7
NMTAP	104	96	1
NMTAP	104	192	1
NMTAP	104	288	1
NMTAP	105	0	0
NMTAP	105	0	7
NMTAP	105	96	1
NMTAP	105	96	6
NMTAP	105	144	0
NMTAP	105	168	7
NMSTR	105	192	1
NMSI_	105	192	1	96	48	5
NMTAP	105	216	6
NMTAP	105	240	2
EXTAP	105	288	1
NMTAP	106	0	7
NMTAP	106	96	3
NMSTR	106	96	5
NMSCR	106	96	5	96	96	0
NMTAP	106	192	1
NMTAP	106	240	1
NMTAP	106	288	2
NMTAP	106	336	2
NMTAP	107	0	7
NMTAP	107	48	7
NMTAP	107	96	0
NMSTR	107	96	1
NMSXL	107	96	1	96	192	4
NMTAP	107	192	7
NMTAP	107	288	7
NMTAP	108	0	6
NMSTR	108	96	5
BRSXL	108	96	5	96	192	0
NMTAP	108	144	4
NMTAP	108	192	3
NMTAP	108	288	2
NMTAP	109	0	2
NMTAP	109	96	1
NMTAP	109	96	3
NMSTR	109	192	2
NMSI_	109	192	2	96	48	7
NMTAP	109	192	4
NMTAP	109	288	5
NMTAP	110	0	6
NMTAP	110	48	6
NMTAP	110	96	6
NMTAP	110	144	6
NMTAP	110	192	0
NMTAP	110	240	0
NMTAP	110	288	0
NMTAP	110	336	0
NMTAP	111	0	1
NMTAP	111	0	7
NMTAP	111	48	1
NMTAP	111	96	2
NMTAP	111	96	3
NMTAP	111	144	3
NMTAP	111	192	2
NMTAP	111	192	4
NMTAP	111	240	2
NMTAP	111	288	3
NMTAP	111	288	5
NMTAP	111	336	5
NMTAP	112	0	4
NMTAP	112	24	6
NMTAP	112	48	4
NMTAP	112	72	6
NMTAP	112	96	4
NMTAP	112	120	5
NMTAP	112	144	4
NMTAP	112	168	5
NMTAP	112	192	3
NMTAP	112	216	4
NMSTR	112	240	2
BRSI_	112	240	2	96	48	0
BRSI_	112	240	2	96	48	7
NMTAP	112	264	3
NMTAP	112	288	1
EXTAP	112	336	2

T_REC_TAP	518
T_REC_BRK	15
T_REC_XTP	5
T_REC_BXX	4
T_REC_HLD	24
T_REC_XHO	2
T_REC_BHO	1
T_REC_BXH	0
T_REC_STR	69
T_REC_BST	0
T_REC_XST	0
T_REC_XBS	2
T_REC_TTP	38
T_REC_THO	1
T_REC_SLD	66
T_REC_BSL	7
T_REC_ALL	752
T_NUM_TAP	630
T_NUM_BRK	29
T_NUM_HLD	27
T_NUM_SLD	66
T_NUM_ALL	752
T_JUDGE_TAP	651
T_JUDGE_HLD	162
T_JUDGE_SLD	73
T_JUDGE_ALL	886
TTM_EACHPAIRS	134
TTM_SCR_TAP	315000
TTM_SCR_BRK	75400
TTM_SCR_HLD	27000
TTM_SCR_SLD	99000
TTM_SCR_ALL	516400
TTM_SCR_S	498100
TTM_SCR_SS	513500
TTM_RAT_ACV	10056

